#TITLE:My Sweet Darlin' ~MOSH PIT STYLE~;
#ARTIST:GHOST COMPANY;
#FILE:My Sweet Darlin' ~MOSH PIT STYLE~.mp3;
#BPM:44.280;
#GAP:20;
#SAMPLESTART:46.640;
#SAMPLELENGTH:14.300;
#FREEZE:1336.000=310.000;
#CHANGEBPM:32.000=183.980,672.000=91.980,702.000=99.400,704.000=183.980,752.000=180.940,768.000=184.000,1068.000=182.360,1072.000=183.980;
#SINGLE:BEGINNER:2:
00000000
00000000
40000000
60000000
20000000
60000000
40000000
80000000
40000000
20000000
80000000
60000000
40000000
80000000
40000000
20000000
80000000
60000000
40000000
60000000
20002000
80008000
40004000
60006000
40000000
20000000
40004000
80000000
80002000
80000000
20006000
20008000
20006000
20008000
40002000
40008000
40002000
40008000
20008000
20006000
20008000
20006000
20008000
40404040
40000000
80000000
20000000
60006000
60000000
80000000
20000000
40002000
40000000
80000000
40000000
60002000
60000000
80000000
20000000
40000000
80008000
40004000
20002000
80008000
60006000
40004000
80008000
20200000
40000000
00000000
80004000
20004000
60008000
60002000
80002000
60000000
80008000
60004000
20002000
40004000
80000000
40000000
20000000
80000000
00000060
00000040
00000020
00000040
00000080
00000020
00200060
00400080
00000040
00000020
20000000
;
#SINGLE:ANOTHER:10:
00000000
00000000
80402040
60608080
60408020
80804040
20408020
60604040
80402080
60408080
20804020
40000000
60402040
80206040
80208080
20604040
20806040
80406020
80206020
80402000
42802040
60802040
84602080
20604020
80202000
80202000
42408080
40602080
20602080
46400000
24204080
20604646
40802060
20008282
80402080
60406262
60002828
20008040
70002480
40608240
80408260
80204080
B0008040
24828420
40206020
40206020
40806080
40806080
B0002000
40008000
40402020
40608080
B0008000
20006000
A0602040
20804000
24204060
46406040
82802060
48406020
80206080
40802080
42406460
28206020
A0602040
70206040
B0208060
42400000
80040020
60020040
80208040
20806868
60208020
60402424
20408282
80402040
B0008040
20204280
60608280
60602840
B0008040
10304080
70006080
90204080
40208040
20804064
64808028
28404020
80604082
60824080
40608028
20864280
000000B0
00000084
20000000
;
#SINGLE:MANIAC:15:
00000000
00000000
86828464
28648468
24282628
(2040602080464640)
03042482
68286426
24826828
64826248
26264240
82648620
42482648
46828640
66!6022232
88!8044447
08260426
02480262
84642482
68486420
(4004206000204080)
(2002604000608020)
(8008604000204060)
(2002604080402060)
20702090
463080B0
20107030
B0282670
8A003006
42402222
48682684
82482642
62482684
86482642
A8642486
84262482
42684624
82468462
A062428A
07042821
0304628A
(0020604080262626)
(4080A06042024204)
(8020642046462826)
24282646
82462642
86828482
(8062602020808040)
70282062
60424080
A0403044
2066304!40
B0284028
60462082
30207022
6044108!80
A!20324284
64286424
8!80724628
468289B0
B0B0A0A0
3010B070
B0A09010
B0A03010
64648282
68486428
62428424
88806666
80060020
(4000002000008282)
8!8072!20182
6!60B2!20A64
8!80A6!60B26
2!2018!80984
8!8074!40182
4!40B2AAAA
84246848
64262482
64286284
[602060208020804080402040]
(2000004240008000)
82026020
(8000004240000000)
87046024
28264682
46264286
82848286
48264248
26824624
28428648
(2060804080604028)
2424823!60
8000901!40
800084B8
B0000000
;
#SINGLE:BASIC:5:
00000000
00000000
80004000
20004000
60008000
60004000
00B00000
20004000
80004000
60008000
20004000
80000000
40404000
20402000
80808000
60806000
20202000
80408000
40404000
20406000
20008000
40002000
40204020
80608000
60600000
40400000
80800000
20200000
60004000
B0000000
20204020
40402000
80606080
80608000
20808020
20802000
40202040
40204000
60808060
60806000
20208080
20208080
40208060
B0B08020
80808080
20202020
60606060
40404040
20000000
40000000
80004000
20004000
70000000
20000000
80002000
60008000
90000000
60004000
20004000
80402000
40400040
40000000
20200020
20000000
80800000
60600000
40400000
80800000
B!B0000000
000000B0
20402040
20402040
80208020
80208020
60206020
60206000
40402040
20204020
80802080
20208020
A0000000
B0000000
40002000
60002040
40404020
20202080
80808060
60606020
00800040
00200040
40404080
80808020
00000080
000000B0
B0000000
;
