#VERSION:0.82;
#TITLE:These Days;
#SUBTITLE:;
#ARTIST:Take That;
#TITLETRANSLIT:;
#SUBTITLETRANSLIT:;
#ARTISTTRANSLIT:;
#GENRE:Still Got It;
#ORIGIN:;
#CREDIT:;
#BANNER:These Days.png;
#BACKGROUND:These Days-bg.png;
#PREVIEWVID:;
#JACKET:jacket.png;
#CDIMAGE:;
#DISCIMAGE:;
#LYRICSPATH:;
#CDTITLE:;
#MUSIC:These Days.ogg;
#OFFSET:-0.750000;
#SAMPLESTART:72.764008;
#SAMPLELENGTH:13.714000;
#SELECTABLE:YES;
#BPMS:0.000=120.000;
#STOPS:;
#DELAYS:;
#WARPS:;
#TIMESIGNATURES:0.000=4=4;
#TICKCOUNTS:0.000=4;
#COMBOS:0.000=1;
#SPEEDS:0.000=1.000=0.000=0;
#SCROLLS:0.000=1.000;
#FAKES:;
#LABELS:0.000=Song Start;
#BGCHANGES:7.750=These Days.avi=1.000=0=0=1=====,
99999=-nosongbg-=1.000=0=0=0 // don't automatically add -songbackground-
;
#KEYSOUNDS:;
#ATTACKS:
;

//---------------dance-single - ----------------
#NOTEDATA:;
#CHARTNAME:;
#STEPSTYPE:dance-single;
#DESCRIPTION:;
#CHARTSTYLE:;
#DIFFICULTY:Hard;
#METER:7;
#RADARVALUES:0.405512,0.436007,0.181670,0.272504,0.037848,315.000000,24.000000,36.000000,0.000000,0.000000,0.000000,0.000000,0.000000,0.405512,0.436007,0.181670,0.272504,0.037848,315.000000,24.000000,36.000000,0.000000,0.000000,0.000000,0.000000,0.000000;
#CREDIT:Ben Speirs;
#NOTES:
0000
0000
0000
0000
,
0000
0000
0000
0000
,
0000
0000
0000
0000
,
0000
0000
0000
0000
0000
1000
0010
1000
,
0002
0023
0230
1300
,
2001
3200
0320
0031
,
0100
0000
0010
0000
1000
0100
1000
0001
,
0200
0000
0300
0000
0000
0001
0100
0010
,
1000
1100
0010
1010
,
0001
0101
0010
0011
,
0100
0100
0010
0001
0100
0100
0010
1000
,
0002
0000
0013
0000
0000
0000
0001
0100
,
0020
0000
1000
0000
1030
0000
1000
0100
,
0020
0000
0001
0000
0031
0000
0001
1000
,
0200
0000
0010
0000
0310
0000
0100
1000
,
0002
0000
2003
0000
3020
0000
0130
0100
,
1001
0000
0100
0010
0100
0001
1000
0000
,
0200
0000
0310
0000
0001
1000
0010
0000
,
1001
0000
0010
0100
0010
1000
0001
0000
,
0020
0000
0130
0000
1000
0001
0100
0010
,
0110
0000
0000
0001
0100
0001
1000
0000
,
0110
0000
0000
1000
0100
1000
0001
0000
,
0110
0000
0000
0001
0100
0001
1000
0000
,
0100
0100
0010
0001
0100
0100
0020
0000
,
1030
0000
0000
1000
0010
1000
0001
0000
,
0110
0000
0000
0001
0010
0001
1000
0000
,
0110
0000
0000
1000
0010
1000
0001
0000
,
0010
0010
0100
1000
0010
0010
0200
0000
,
0301
0000
0000
1000
0000
0000
0100
0000
0000
0000
1000
0000
0001
0000
0000
0000
,
1000
0000
0000
0001
0000
0000
0100
0000
0000
0000
0001
0000
1000
0000
0000
0000
,
0010
0000
0000
0010
0000
0000
0010
0000
0000
0000
1000
0000
0001
0000
0000
0000
,
0010
0000
0000
0010
0000
0000
0010
0000
0002
0000
0000
0000
2003
0000
0000
0000
,
3020
0100
0100
0130
,
0002
0100
0100
0103
,
2000
0100
0100
3100
,
0001
1000
1001
1001
,
0010
1000
0100
0010
0002
0000
1003
0000
,
0001
0100
0010
1000
0200
0000
0320
0000
,
0031
0010
0100
1000
0002
0000
1003
0000
,
0010
0100
0000
0010
0100
0000
0110
0000
,
1001
0001
0010
0100
2000
0000
3001
0000
,
1000
0010
0100
0001
0020
0000
0230
0000
,
1300
0100
0010
0001
2000
0000
3001
0000
,
0100
0010
0000
0100
0010
0000
0110
0000
,
0101
0000
0100
0010
1000
0100
0010
0000
,
0001
0000
0010
0001
1000
0010
0100
0000
,
0001
0000
1000
0100
0010
0001
1000
0000
,
0010
0100
0001
0100
1000
0100
0001
0000
,
1010
0000
0010
0100
0001
0010
0100
0000
,
1000
0000
0100
1000
0001
0100
0010
0000
,
1000
0000
0001
0010
0100
1000
0001
0000
,
0100
0010
1000
0010
0001
0010
1000
0000
,
0010
0000
0000
0100
0000
0000
0001
0000
0000
0000
1000
0000
1000
0000
0000
0000
,
0100
0000
0000
1000
0000
0000
0001
0000
0000
0000
0010
0000
0010
0000
0000
0000
,
0001
0000
0000
1000
0000
0000
0010
0000
0000
0000
0100
0000
0100
0000
0000
0000
,
0001
1000
0100
0010
0001
1000
1001
0000
,
0100
0000
0000
0010
0000
0000
1000
0000
0000
0000
0001
0000
0011
0000
0000
0000
,
0010
0000
0000
0001
0000
0000
1000
0000
0000
0000
0100
0000
1100
0000
0000
0000
,
1000
0000
0000
0001
0000
0000
0100
0000
0000
0000
0010
0000
1010
0000
0000
0000
,
1000
0001
0010
0100
1000
0001
1001
0000
,
0200
1000
0000
0301
,
0020
1000
0000
0031
,
2000
0100
0000
3001
,
0200
0000
0000
0020
0000
0000
0000
0000
,
0330
0000
0000
0000
;

//---------------dance-single - ----------------
#NOTEDATA:;
#CHARTNAME:;
#STEPSTYPE:dance-single;
#DESCRIPTION:;
#CHARTSTYLE:;
#DIFFICULTY:Challenge;
#METER:9;
#RADARVALUES:0.557985,0.605565,0.090835,0.098404,0.514730,491.000000,12.000000,13.000000,0.000000,0.000000,0.000000,0.000000,0.000000,0.557985,0.605565,0.090835,0.098404,0.514730,491.000000,12.000000,13.000000,0.000000,0.000000,0.000000,0.000000,0.000000;
#CREDIT:Ben Speirs;
#NOTES:
0000
0000
0000
0000
,
0000
0000
0000
0000
,
0000
0000
0000
0000
,
0000
0000
0000
0000
0000
0001
0100
0001
,
2000
0100
0010
3001
,
0002
0010
0100
1003
,
0010
1000
0100
0001
1000
0010
0001
1000
,
0020
0000
0130
0000
0000
0100
0001
0010
,
0100
0000
0000
1000
0100
0000
1000
0000
0010
0000
1000
0000
0001
0000
0000
0000
,
0100
0000
0000
0001
0100
0000
0010
0000
0100
0000
0001
0000
1000
0000
0000
0000
,
0001
0001
0010
0001
1000
1000
0010
1000
,
0002
0000
0103
0000
0010
0000
1000
0100
,
0010
0000
0000
0010
0001
0000
0100
0000
0010
0000
1000
0000
0001
0000
0000
0000
,
0100
0000
0000
0100
0001
0000
1000
0000
0100
0000
0010
0000
0001
0000
0000
0000
,
1000
0000
0000
1000
0100
0000
1000
0000
0010
0000
0100
0000
0001
0000
1000
0000
,
0002
0000
0023
0000
0230
0000
1300
1000
,
0011
0000
0000
1000
0000
0000
0001
0000
0000
0100
0000
0000
0010
0000
0000
0000
,
1010
0000
0000
0100
0000
0000
0001
0000
0000
1000
0000
0000
0100
0000
0000
0000
,
1001
0000
0000
0100
0000
0000
1000
0000
0000
0100
0000
0000
0001
0000
0000
0000
,
1001
0000
0000
0010
0000
0000
1000
0000
0000
0010
0000
0000
0001
0000
1000
0100
,
1000
0000
0000
0001
0000
0000
1000
0100
1000
0000
0001
0100
0001
0000
0000
0000
,
1000
0000
0000
0001
0000
0000
1000
0010
1000
0000
0001
0010
0001
0000
0000
0000
,
1000
0000
0000
0001
0000
0000
0100
0010
0100
0000
0001
0010
0001
0000
1000
0100
,
1000
0000
0001
0000
0100
0000
0010
0000
1000
0000
1000
0000
0100
0010
0100
0010
,
0001
0000
0000
1000
0000
0000
0001
0010
0001
0000
1000
0010
1000
0000
0000
0000
,
0001
0000
0000
1000
0000
0000
0001
0100
0001
0000
1000
0100
1000
0000
0000
0000
,
0001
0000
0000
1000
0000
0000
0010
0100
0010
0000
1000
0100
1000
0000
0001
0010
,
0001
0000
1000
0000
0010
0000
0100
0000
0001
0000
0001
0000
0010
0000
0100
1000
,
0001
0000
0001
0100
0000
0100
0010
0000
0000
0000
1000
0000
0001
0000
0100
0000
,
0010
0000
0010
1000
0000
1000
0001
0000
0000
0000
0010
0000
0100
0000
1000
0000
,
0010
0000
0010
1000
0000
1000
0001
0000
0000
0000
0100
0000
0001
0000
0010
0000
,
0100
0000
0100
1000
0000
1000
0010
0000
0100
0000
0001
0000
1000
0100
0010
0001
,
2000
0000
0000
0100
0000
0000
0010
0000
0000
0000
0100
0000
3100
0000
0000
0000
,
0002
0000
0000
0100
0000
0000
0010
0000
0000
0000
0100
0000
0103
0000
0000
0000
,
0020
0000
0000
1000
0000
0000
0001
0000
0000
0000
0100
0000
0130
0000
0000
0000
,
0200
0000
0000
1000
0000
0000
0310
0000
0110
0000
0000
0000
1001
0000
0000
0000
,
0100
0000
0001
1000
0000
1000
0100
0010
0001
0000
1000
0000
0010
0000
1000
0000
,
0001
0000
1000
0001
0000
0001
0010
0100
1000
0000
0010
0000
0100
0000
0001
0000
,
1000
0000
0010
0100
0000
0001
1000
0100
0010
0000
0001
0000
1000
0000
0010
0000
,
0100
0001
0100
0001
0000
0000
1000
0100
1000
0100
0000
0000
0001
1000
0001
1000
,
0010
0000
1000
0001
0000
0001
0010
0100
1000
0000
0001
0000
0100
0000
0001
0000
,
1000
0000
0001
1000
0000
1000
0100
0010
0001
0000
0100
0000
0010
0000
1000
0000
,
0001
0000
0100
0010
0000
1000
0001
0010
0100
0000
1000
0000
0001
0000
0100
0000
,
0010
1000
0010
1000
0000
0000
0001
0010
0001
0010
0000
0000
1000
0001
1000
0001
,
0100
0000
0100
0010
0000
0010
1000
0000
0100
1000
0100
0000
1000
0000
0010
0000
,
0100
0000
0100
0001
0000
0001
0010
0000
0100
0010
0100
0000
0010
0000
0001
0000
,
1000
0000
1000
0001
0000
0001
0100
0000
0010
0100
0010
0000
0100
0000
0001
0000
,
1000
0100
1000
0100
1000
0000
0001
0100
0001
0100
0001
0000
1000
0000
0001
0100
,
0010
0000
0010
0100
0000
0100
0001
0000
0010
0001
0010
0000
0001
0000
0100
0000
,
0010
0000
0010
1000
0000
1000
0100
0000
0010
0100
0010
0000
0100
0000
1000
0000
,
0001
0000
0001
1000
0000
1000
0010
0000
0100
0010
0100
0000
0010
0000
1000
0000
,
0001
0010
0001
0010
0001
0000
1000
0010
1000
0010
1000
0000
0001
1000
0001
1000
,
0100
0000
0010
0100
0000
1000
0100
0000
0010
0000
0001
0000
1001
0000
0000
0000
,
0010
0000
0100
0010
0000
0001
0010
0000
0100
0000
0001
0000
1001
0000
0000
0000
,
0100
0000
0001
0100
0000
1000
0100
0000
0010
0000
1000
0000
1001
0000
0000
0000
,
0100
1000
0100
1000
0000
0000
0001
1000
0001
1000
0000
0000
0001
0000
0100
0010
,
1000
0000
0100
1000
0000
0010
1000
0000
0001
0000
1000
0000
1001
0000
0000
0000
,
0001
0000
0100
0001
0000
0010
0001
0000
1000
0000
0001
0000
1001
0000
0000
0000
,
0010
0000
1000
0010
0000
0100
0010
0000
0001
0000
0010
0000
0110
0000
0000
0000
,
0001
0100
0001
0100
0000
0000
0010
1000
0010
1000
0000
0000
0001
1000
0001
1000
,
0100
0000
0000
0100
0010
0000
0001
0000
1000
0000
0010
0000
0100
0000
0000
0000
,
0010
0000
0000
0010
1000
0000
0010
0000
0100
0000
0001
0000
1000
0000
0000
0000
,
0001
0000
0000
0001
0010
0000
0100
0000
1000
0000
0001
0000
0100
0000
0000
0000
,
0020
0000
0000
0002
0000
0000
0000
0000
,
0033
0000
0000
0000
;

//---------------dance-single - ----------------
#NOTEDATA:;
#CHARTNAME:;
#STEPSTYPE:dance-single;
#DESCRIPTION:;
#CHARTSTYLE:;
#DIFFICULTY:Medium;
#METER:5;
#RADARVALUES:0.303864,0.363339,0.211948,0.234656,0.000000,222.000000,28.000000,31.000000,0.000000,0.000000,0.000000,0.000000,0.000000,0.303864,0.363339,0.211948,0.234656,0.000000,222.000000,28.000000,31.000000,0.000000,0.000000,0.000000,0.000000,0.000000;
#CREDIT:Ben Speirs;
#NOTES:
0000
0000
0000
0000
,
0000
0000
0000
0000
,
0000
0000
0000
0000
,
0000
0000
0000
0000
,
2000
0100
0100
3100
,
0002
0100
0100
0103
,
1000
0010
0001
0100
,
1000
0000
0000
0000
,
0011
1000
0001
0100
,
1010
0100
0001
1000
,
1001
0010
0001
1000
,
0110
0000
0000
1000
,
0001
0000
1000
0100
1000
0000
0010
0000
,
1000
0000
0001
0100
0001
0000
0010
0000
,
0100
1000
0010
0100
,
0101
1100
0101
1100
,
1001
0000
0000
0000
0010
0001
0100
0000
,
0010
0000
0000
0000
0100
0010
1000
0000
,
0001
0000
0000
0000
1000
0100
0010
0000
,
0001
0000
0000
0000
0100
0001
1000
0000
,
1001
0000
0100
0000
1000
0100
1000
0000
,
0010
0000
1000
0000
0001
0100
0001
0000
,
1000
0000
0001
0000
0010
0100
0010
0000
,
0001
1000
0010
1010
,
0101
0000
1000
0000
0001
0010
0001
0000
,
0100
0000
0001
0000
1000
0010
1000
0000
,
0001
0000
1000
0000
0100
0010
0100
0000
,
1000
0100
0010
0001
,
1002
0100
0103
0000
,
2001
0100
3100
0000
,
1002
0010
0013
0000
,
2001
0010
3010
0000
,
0200
0000
0000
0300
,
0002
0000
0000
0003
,
2000
0000
0000
3000
,
0020
0030
1010
0101
,
1001
0000
0000
1000
1000
0000
0101
0000
,
1000
0000
0001
0010
0200
0000
1300
0000
,
0001
0000
1000
0100
0020
0000
0031
0000
,
2000
0000
0000
0002
0000
0000
3003
0000
,
1001
0000
0000
0001
0001
0000
1010
0000
,
0001
0000
1000
0100
0020
0000
0031
0000
,
1000
0000
0001
0010
0200
0000
1300
0000
,
0002
0000
0000
2000
0000
0000
3003
0000
,
0100
0000
0010
0000
1000
0100
1000
0000
,
0010
0000
1000
0000
0001
0100
0001
0000
,
1000
0000
0001
0000
0010
0100
0010
0000
,
0002
0000
0000
2000
0000
0000
3003
0000
,
0010
0000
1000
0000
0100
0010
0100
0000
,
1000
0000
0001
0000
0100
0010
0100
0000
,
0001
0000
1000
0000
0010
1000
0010
0000
,
2000
0000
0000
0002
0000
0000
3003
0000
,
0010
0001
0100
0110
,
0010
1000
0100
0110
,
0010
0001
0100
0110
,
2000
0000
0000
0002
0000
0000
3003
0000
,
0010
0001
0100
0110
,
0010
1000
0100
0110
,
0010
0001
0100
0110
,
2000
0000
0000
0002
0000
0000
3003
0000
,
0200
0010
0000
0310
,
0020
1000
0000
1030
,
2000
0100
0000
3100
,
0020
0000
0000
0002
0000
0000
0000
0000
,
0033
0000
0000
0000
;

//---------------dance-single - ----------------
#NOTEDATA:;
#CHARTNAME:;
#STEPSTYPE:dance-single;
#DESCRIPTION:;
#CHARTSTYLE:;
#DIFFICULTY:Easy;
#METER:3;
#RADARVALUES:0.197890,0.242226,0.052987,0.121113,0.000000,160.000000,7.000000,16.000000,0.000000,0.000000,0.000000,0.000000,0.000000,0.197890,0.242226,0.052987,0.121113,0.000000,160.000000,7.000000,16.000000,0.000000,0.000000,0.000000,0.000000,0.000000;
#CREDIT:Ben Speirs;
#NOTES:
0000
0000
0000
0000
,
0000
0000
0000
0000
,
0000
0000
0000
0000
,
0000
0000
0000
0000
,
2000
0000
3000
0000
,
0002
0000
0003
0000
,
0020
0000
0030
0000
,
0200
0000
0300
0000
,
0010
0001
1000
0000
,
0010
1000
0001
0000
,
0100
0010
1000
0001
,
0100
0000
0000
0000
,
0001
0010
0100
0000
,
1000
0001
0100
0000
,
0010
1000
0100
0000
,
1000
0001
1000
0001
,
0100
0000
0010
0000
,
1000
1000
0001
0001
,
0010
0000
0100
0000
,
1000
1000
0001
0001
,
0100
0000
0010
0010
,
0000
0000
1000
1000
,
0000
0000
0001
0001
,
0010
0100
1000
0010
,
1000
0000
0001
0001
,
0000
0000
1000
1000
,
0000
0000
0100
0100
,
0010
0001
1000
0010
,
0200
0300
0001
0000
,
2000
3000
0100
0000
,
0020
0030
0001
0000
,
2000
3000
0010
0000
,
2002
0000
0000
3003
,
0200
0000
0000
0300
,
0220
0000
0000
0330
,
2000
0000
0001
3001
,
1001
0000
0100
0010
,
1000
0000
0100
0100
,
0100
0000
0010
0001
,
1000
0000
0000
0010
0000
0000
0100
0000
,
1001
0000
0010
0100
,
0001
0000
0010
0010
,
0010
0000
0100
1000
,
0001
0000
0000
0100
0000
0000
0010
0000
,
1001
0000
0100
0001
,
1000
0000
0010
1000
,
0001
0000
0010
0100
,
1000
0000
0000
0001
0000
0000
0100
0000
,
1001
0000
0010
0001
,
1000
0000
0010
1000
,
0001
0000
0100
0010
,
0001
0000
0000
1000
0000
0000
0010
0000
,
0110
1000
0000
0001
,
0010
0001
0000
1000
,
0010
1000
0000
0001
,
0010
0000
0000
0100
0000
0000
0000
0000
,
0010
0001
0000
0100
,
0001
1000
0000
0010
,
1000
0100
0000
0010
,
0100
0000
0000
1000
0000
0000
0000
0000
,
0010
1000
0001
0100
,
0001
0010
0100
1000
,
0001
1000
0010
0100
,
0002
0000
0000
2000
0000
0000
0000
0000
,
3003
0000
0000
0000
;

//---------------dance-single - ----------------
#NOTEDATA:;
#CHARTNAME:;
#STEPSTYPE:dance-single;
#DESCRIPTION:;
#CHARTSTYLE:;
#DIFFICULTY:Beginner;
#METER:2;
#RADARVALUES:0.121113,0.166247,0.015139,0.000000,0.000000,110.000000,2.000000,0.000000,0.000000,0.000000,0.000000,0.000000,0.000000,0.121113,0.166247,0.015139,0.000000,0.000000,110.000000,2.000000,0.000000,0.000000,0.000000,0.000000,0.000000,0.000000;
#CREDIT:Ben Speirs;
#NOTES:
0000
0000
0000
0000
,
0000
0000
0000
0000
,
0000
0000
0000
0000
,
0000
0000
0000
0000
,
1000
0000
0000
0000
,
0001
0000
0000
0000
,
0100
0000
0000
0000
,
0010
0000
0000
0000
,
1000
0000
1000
0000
,
0001
0000
0001
0000
,
0010
0000
0010
0000
,
0100
0000
0000
0000
,
1000
1000
0000
0000
,
0001
0001
0000
0000
,
0100
0100
0000
0000
,
0010
0010
0010
0000
,
0110
0000
0000
0000
,
1000
0000
0100
0000
,
0010
0000
0000
0000
,
0001
0000
1000
0000
,
0010
0000
1000
1000
,
0000
0000
0001
0001
,
0000
0000
0010
0010
,
0010
0000
0001
0000
,
1000
0000
0100
0100
,
0000
0000
1000
1000
,
0000
0000
0001
0001
,
0001
0000
0100
0000
,
0010
0000
0010
0000
,
1000
0000
1000
0000
,
0001
0000
0001
0000
,
0100
0000
0100
0000
,
1001
0000
0000
0000
,
0010
0000
0000
0000
,
1000
0000
0000
0000
,
0001
0000
0100
0100
,
0100
0000
0001
0000
,
1000
0000
0100
0000
,
1000
0000
0001
0000
,
0010
0000
0000
0000
,
0001
0000
1000
0000
,
0010
0000
0100
0000
,
0001
0000
1000
0000
,
0100
0000
0000
0000
,
1000
0000
0010
0010
,
0000
0000
1000
1000
,
0000
0000
0001
0001
,
0001
0000
1000
0000
,
0010
0000
0100
0100
,
0000
0000
0001
0001
,
0000
0000
1000
1000
,
1000
0000
0010
0000
,
1000
0000
0001
0000
,
0100
0000
0010
0000
,
1000
0000
0001
0000
,
0010
0000
0010
0000
,
0001
0000
1000
0000
,
0010
0000
1000
0000
,
0001
0000
0010
0000
,
0100
0000
0100
0000
,
1000
0000
0000
0001
,
0000
0000
0000
1000
,
0000
0000
0000
0010
;

//---------------dance-double - ----------------
#NOTEDATA:;
#CHARTNAME:;
#STEPSTYPE:dance-double;
#DESCRIPTION:;
#CHARTSTYLE:;
#DIFFICULTY:Challenge;
#METER:7;
#RADARVALUES:0.423896,0.482560,0.189239,0.189239,0.174100,342.000000,25.000000,25.000000,0.000000,0.000000,0.000000,0.000000,0.000000,0.423896,0.482560,0.189239,0.189239,0.174100,342.000000,25.000000,25.000000,0.000000,0.000000,0.000000,0.000000,0.000000;
#CREDIT:Ben Speirs;
#NOTES:
// measure 0
00000000
00000000
00000000
00000000
,  // measure 1
00000000
00000000
00000000
00000000
,  // measure 2
00000000
00000000
00000000
00000000
,  // measure 3
00000000
00000000
00000000
00000000
,  // measure 4
20000000
32000000
00100000
03100000
,  // measure 5
00020000
00230000
00001000
00301000
,  // measure 6
00100000
00001000
00010000
00000000
00001000
00010000
00000100
00000000
,  // measure 7
00002000
00000000
00003000
00000000
,  // measure 8
00001010
00000000
00000010
00000100
00000010
00000000
00001000
00000000
,  // measure 9
00000001
00000000
00000010
00000001
00000010
00000000
00000001
00000000
,  // measure 10
00000100
00000010
00001000
00000010
00001000
00000100
00010000
00001000
,  // measure 11
00200000
00000000
00300000
00000000
00010000
00000000
00100000
00001000
,  // measure 12
00010000
00000000
00011000
00000000
00101000
00000000
00100000
00010000
,  // measure 13
01000000
00000000
01010000
00000000
10010000
00000000
10000000
00100000
,  // measure 14
01000000
00000000
00100000
10000000
01000000
00000000
10000000
01000000
,  // measure 15
00200000
00000000
00320000
00000000
00230000
00000000
00301000
00010000
,  // measure 16
00000100
00000000
00000000
00001000
00000000
00000000
00000010
00000000
00000000
00000100
00000000
00000000
00000001
00000000
00000000
00000000
,  // measure 17
00000100
00000000
00000000
00000010
00000000
00000000
00001000
00000000
00000000
00000100
00000000
00000000
00010000
00000000
00000000
00000000
,  // measure 18
00001000
00000000
00000000
00010000
00000000
00000000
00100000
00000000
00000000
10000000
00000000
00000000
01000000
00000000
00000000
00000000
,  // measure 19
10000000
00000000
00000000
01000000
00000000
00000000
00010000
00000000
00000000
01000000
00000000
00000000
10000000
00000000
00000000
00000000
,  // measure 20
00010000
00000000
00000000
00000000
00000000
00000000
10000000
00100000
10000000
00000000
00010000
00100000
00010000
00000000
00000000
00000000
,  // measure 21
01000000
00000000
00000000
00000000
00000000
00000000
00010000
01000000
00010000
00000000
01000000
00001000
01000000
00000000
00000000
00000000
,  // measure 22
00001000
00000000
00000000
00000000
00000000
00000000
00010000
00001000
00010000
00000000
00000100
00001000
00000100
00000000
00010000
00000100
,  // measure 23
00010000
00000100
00001000
00000010
00000100
00000001
00002000
00000000
,  // measure 24
00003001
00000000
00000000
00000000
00000000
00000000
00000001
00000100
00000001
00000000
00000100
00000010
00000100
00000000
00000000
00000000
,  // measure 25
00000010
00000000
00000000
00000000
00000000
00000000
00001000
00000100
00001000
00000000
00000100
00010000
00000100
00000000
00000000
00000000
,  // measure 26
00010000
00000000
00000000
00000000
00000000
00000000
00001000
00010000
00001000
00000000
00100000
00010000
00100000
00000000
00001000
00010000
,  // measure 27
00001000
00100000
00010000
01000000
00100000
10000000
00020000
00000000
,  // measure 28
10030000
00000000
00000000
01000000
00000000
00000000
10000000
00000000
00000000
00000000
00100000
00000000
00100000
00000000
10000000
00000000
,  // measure 29
00010000
00000000
00000000
01000000
00000000
00000000
00010000
00000000
00000000
00000000
00100000
00000000
00100000
00000000
00010000
00000000
,  // measure 30
00100000
00000000
00000000
00001000
00000000
00000000
00100000
00000000
00000000
00000000
00001000
00000000
00001000
00000000
00010000
00000000
,  // measure 31
00000100
00000000
00000000
00001000
00000000
00000000
00000100
00000000
00001000
00000000
00000000
00000000
00000010
00000000
00000100
00000000
,  // measure 32
00000002
00000100
00000010
00000013
,  // measure 33
00002100
00000000
00000001
00000000
00003010
00000000
00000010
00001000
,  // measure 34
00000200
00000000
00001300
00000100
00020000
00000000
00031000
00000000
,  // measure 35
00100000
00001000
00100000
00010000
02000000
00000000
03100000
00000000
,  // measure 36
10010000
00000000
00000000
00000000
10000000
00000000
01000000
00100000
00010000
00000000
00000000
00000000
10000000
00000000
00000000
00000000
,  // measure 37
00010000
00000000
00000000
00000000
01000000
00000000
00010000
00100000
00001000
00000000
00000000
00000000
00010000
00000000
00000000
00000000
,  // measure 38
00000100
00000000
00000000
00000000
00001000
00000000
00000010
00010000
00001000
00000000
00000000
00000000
00010000
00000000
00000000
00000000
,  // measure 39
00010200
00000000
00000000
00000320
00000000
00000000
00000031
00001000
,  // measure 40
00000010
00000000
00000000
00000000
00000100
00000000
00000001
00000100
00000010
00000000
00000000
00000000
00001000
00000000
00000000
00000000
,  // measure 41
00000100
00000000
00000000
00000000
00000010
00000000
00000100
00001000
00000010
00000000
00000000
00000000
00000100
00000000
00000000
00000000
,  // measure 42
00000010
00000000
00000000
00000000
00001000
00000000
00000100
00010000
00001000
00000000
00000000
00000000
00100000
00000000
00000000
00000000
,  // measure 43
00120000
00000000
00000000
02030000
00000000
00000000
03100000
10000000
,  // measure 44
01000000
00000000
00000000
00000000
10000000
00000000
01000000
00100000
01000000
00000000
00100000
00000000
00010000
00000000
00000000
00000000
,  // measure 45
01000000
00000000
00000000
00000000
00010000
00000000
00100000
00010000
00100000
00000000
00001000
00000000
00010000
00000000
00000000
00000000
,  // measure 46
00000100
00000000
00000000
00000000
00010000
00000000
00000010
00001000
00000010
00000000
00001000
00000000
00000001
00000000
00000000
00000000
,  // measure 47
00000100
00000100
00000010
00001000
00001000
00000100
00020000
00000000
,  // measure 48
00031000
00000000
00000000
00000000
00100000
00000000
00010000
00100000
00010000
00000000
00000000
00000000
01000000
00000000
00000000
00000000
,  // measure 49
00010000
00000000
01000000
00000000
00100000
00000000
10000000
01000000
10000000
00000000
00000000
00000000
00100000
00000000
00000000
00000000
,  // measure 50
10000000
00000000
01000000
00000000
00100000
00000000
00010000
00100000
00010000
00000000
00000000
00000000
01000000
00000000
00000000
00000000
,  // measure 51
00010000
00100000
00001000
00010000
00010000
00000100
00001000
00000000
,  // measure 52
00001010
00000000
00000010
00000000
00000100
00000010
00000010
00000000
,  // measure 53
00000101
00000000
00001100
00000000
00000001
00001000
00000010
00000000
,  // measure 54
00001100
00000000
00010100
00000000
00010000
00001000
00100000
00000000
,  // measure 55
00010000
01000000
00010000
01000000
00000000
00000000
00001000
00010000
00001000
00010000
00000000
00000000
00000100
00001000
00000000
00000000
,  // measure 56
00001010
00000000
00001100
00000000
00001000
00000100
00010100
00000000
,  // measure 57
00011000
00000000
00110000
00000000
00100000
00001000
00011000
00000000
,  // measure 58
00110000
00000000
10010000
00000000
10000000
00100000
01000000
00000000
,  // measure 59
00020000
00000000
00000000
02030000
00000000
00000000
03010000
01000000
,  // measure 60
00001000
00000000
00000000
00010000
00000000
00000000
00000100
00000000
00000000
00000000
00001000
00000000
00001010
00000000
00000000
00000000
,  // measure 61
00000001
00000000
00000000
00001000
00000000
00000000
00000010
00000000
00000000
00000000
00000100
00000000
00000110
00000000
00000000
00000000
,  // measure 62
00000010
00000000
00000000
00001000
00000000
00000000
00000100
00000000
00000000
00000000
00010000
00000000
00010100
00000000
00000000
00000000
,  // measure 63
00002000
00000000
00000000
00200000
00000000
00000000
00303000
00000000
;
