#TITLE:Fast Car;
#SUBTITLE:;
#ARTIST:Jonas Blue feat. Dakota;
#TITLETRANSLIT:;
#SUBTITLETRANSLIT:;
#ARTISTTRANSLIT:;
#GENRE:Lazy as a Sunday Drive;
#CREDIT:;
#BANNER:Fast Car.png;
#BACKGROUND:Fast Car-bg.png;
#LYRICSPATH:;
#CDTITLE:;
#MUSIC:Fast Car.ogg;
#OFFSET:0.339000;
#SAMPLESTART:77.532799;
#SAMPLELENGTH:13.714000;
#SELECTABLE:YES;
#BPMS:0.000000=114.000000
;
#STOPS:
;
#BGCHANGES:4.000=Fast Car.avi=1.000=0=0=1=====,
99999=-nosongbg-=1.000=0=0=0 // don't automatically add -songbackground-
;
#KEYSOUNDS:;
#ATTACKS:;

//---------------dance-single - ----------------
#NOTES:
     dance-single:
     :
     Hard:
     8:
     0.453863,0.512816,0.181299,0.138132,0.258998,331.000000,21.000000,16.000000,0.000000,0.000000,0.000000,0.453863,0.512816,0.181299,0.138132,0.258998,331.000000,21.000000,16.000000,0.000000,0.000000,0.000000:
0000
0000
0000
0000
,
0000
0000
0000
0000
,
0000
0000
0000
0000
,
0000
0000
0000
0000
,
0000
0000
0000
0000
,
0002
0000
0013
0200
1000
0000
0310
0000
,
2000
0000
3010
0100
0001
0000
1100
0000
,
0020
0000
0130
0002
0010
0000
1003
0000
,
0200
0000
1300
0001
0100
0000
1010
0000
,
0001
0100
0020
0000
1030
0000
0000
0000
,
1000
0100
0010
0000
0001
1000
0010
0000
,
0100
0001
0100
0000
0020
0000
0030
0000
,
1000
0100
1000
0000
0001
0010
0001
0000
,
1000
0100
0010
0001
0200
0000
0300
0000
,
0001
0000
1000
0000
0010
0100
0010
0000
,
1000
0100
1000
0000
0002
0000
0003
0000
,
0100
0010
0100
0010
1000
0001
1000
0000
,
0011
0010
0100
0110
2000
0000
3000
0000
,
0010
1000
0010
0000
0100
0001
0100
0000
,
1010
0010
0100
0110
0100
0002
0000
0003
,
1000
0100
1000
0000
0001
0010
0001
0000
,
1001
1000
0010
0110
0200
0000
0300
0000
,
0001
0100
0010
1000
0100
0010
0001
0000
,
0011
0010
0100
1100
0100
0010
0001
0000
,
1000
0000
0100
0000
1000
0000
0001
0000
0100
0000
0100
0000
0010
0000
1000
0100
,
1000
0001
0200
0000
0310
0000
0000
0000
,
0100
0001
0010
0100
1000
0001
0100
0000
,
0010
1000
0010
0100
0001
1000
0000
0000
,
0001
0010
0100
1000
0001
0100
0100
0000
,
1001
0000
0000
1000
0000
0000
0001
0000
0000
0001
0000
0000
0100
0000
0100
0000
,
0010
0000
0000
0010
0000
0000
1000
0000
0000
1000
0000
0000
0100
0000
0100
0000
,
0010
0000
0000
0010
0000
0000
0001
0000
0000
0001
0000
0000
1000
0000
1000
0000
,
0010
0000
0000
0010
0000
0000
0100
0000
0000
0100
0000
0000
0001
0000
0001
0000
,
1000
0000
0000
1100
0000
0000
0100
0000
0000
0110
0000
0000
0010
0000
0001
0000
,
1000
0000
0000
1010
0000
0000
0010
0000
0000
0110
0000
0000
0100
0000
0001
0000
,
1000
0000
0000
1100
0000
0000
0001
0000
0000
0101
0000
0000
1000
0000
0100
0000
,
0010
0000
0000
0001
0000
0000
1000
0010
1000
0000
0001
0000
0100
0010
0000
0000
,
1010
0000
1000
0000
0001
0000
0100
0010
0100
0000
0001
0000
1000
0000
0000
0000
,
0001
0010
0001
0000
0100
0000
0010
1000
0010
0000
0100
0000
0001
0000
0000
0000
,
0100
0000
0010
1000
0010
0000
0100
0000
0001
0000
1000
0000
0010
0000
0010
0000
,
1000
0000
0001
0000
1000
0000
0010
0000
0100
0000
0100
0000
0001
0100
0001
0000
,
1000
0000
0000
1000
0100
0000
0010
0000
0000
0010
0001
0000
1000
0000
0010
0000
,
0100
0000
0000
0100
0001
0000
1000
0000
0000
1000
0100
0000
0010
0000
0001
0000
,
0100
0000
0000
0100
0010
0000
1000
0000
0000
1000
0100
0000
0010
0000
0001
0000
,
0100
0000
0010
0000
1000
0000
0001
0000
0010
0100
0010
0000
0001
0000
0000
0000
,
1100
0000
0100
0010
0000
0010
0001
0000
0001
1000
0000
1000
0010
0000
0100
0000
,
0001
0000
0001
1000
0000
1000
0010
0000
0010
0100
0000
0100
0001
0000
1000
0000
,
0100
0000
0100
0010
0000
0010
0001
0000
0001
1000
0000
1000
0010
0000
0100
0000
,
0001
0000
0001
1000
0000
1000
0100
0000
0100
0010
0000
0010
0001
0000
1000
0000
,
0010
0000
0100
0010
0000
1000
0010
0000
0100
0010
0000
1000
0010
0000
0100
0000
,
0001
0000
0000
1001
0000
0000
1000
0000
0001
0000
0000
0011
0000
0000
1000
0000
,
0100
0000
0100
0010
0000
0010
0001
0000
1000
0010
0000
1000
0001
0000
0010
0000
,
0100
0000
0100
1000
0000
1000
0010
0000
0100
0001
0000
0100
0010
0000
1000
0000
,
0200
0000
0000
0020
0000
0000
0000
0000
,
0330
0000
0000
0000
;

//---------------dance-double - ----------------
#NOTES:
     dance-double:
     :
     Challenge:
     8:
     0.448930,0.512816,0.164032,0.181299,0.241731,324.000000,19.000000,21.000000,0.000000,0.000000,0.000000,0.448930,0.512816,0.164032,0.181299,0.241731,324.000000,19.000000,21.000000,0.000000,0.000000,0.000000:
// measure 0
00000000
00000000
00000000
00000000
,  // measure 1
00000000
00000000
00000000
00000000
,  // measure 2
00000000
00000000
00000000
00000000
,  // measure 3
00000000
00000000
00000000
00000000
,  // measure 4
00000000
00000000
00000000
00000000
,  // measure 5
00000200
00000000
00000310
00002000
00000100
00000000
00003001
00000000
,  // measure 6
00000020
00000000
00000130
00000001
00001000
00000000
00001100
00000000
,  // measure 7
00020000
00000000
00031000
00200000
00010000
00000000
00301000
00000000
,  // measure 8
00020000
00000000
00031000
01000000
00010000
00000000
01010000
00000000
,  // measure 9
10000000
01000000
10000000
00000000
00020000
00000000
00030000
00000000
,  // measure 10
01000000
00100000
10000000
00000000
01000000
00100000
00010000
00000000
,  // measure 11
01000000
00100000
01000000
00000000
00020000
00000000
00030000
00000000
,  // measure 12
10000000
01000000
00010000
00000000
00001000
00000100
00000001
00000000
,  // measure 13
00001000
00000100
00001000
00000000
00000020
00000000
00000030
00000000
,  // measure 14
00000100
00000001
00000100
00000000
00000001
00001000
00000001
00000000
,  // measure 15
00001000
00000100
00000010
00000000
00000002
00000000
00000003
00000000
,  // measure 16
00001000
00000100
00010000
00000000
00001000
00010000
00000100
00000000
,  // measure 17
00010100
00010000
00001000
00011000
00002000
00000000
00003000
00000000
,  // measure 18
00100000
00010000
01000000
00000000
00100000
10000000
01000000
00000000
,  // measure 19
11000000
10000000
00010000
01010000
01000000
00200000
00000000
00000000
,  // measure 20
10300000
01000000
10000000
00010000
00100000
00010000
10000000
00000000
,  // measure 21
10100000
00100000
01000000
01010000
00020000
00000000
00030000
00000000
,  // measure 22
10000000
00010000
10000000
00000000
00010000
00100000
00001000
00000000
,  // measure 23
00101000
00001000
00010000
00011000
00010000
00000100
00002000
00000000
,  // measure 24
00003010
00000000
00000100
00000000
00000001
00000000
00001000
00000000
00000100
00000000
00000010
00000000
00000001
00000000
00001000
00000010
,  // measure 25
00001000
00000001
00002000
00000000
00003020
00000000
00000030
00000000
,  // measure 26
00000100
00000001
00000100
00000010
00001000
00001000
00000100
00000000
,  // measure 27
00010000
00000100
00010000
00000100
00001000
00000100
00000010
00000000
,  // measure 28
00000001
00001000
00000010
00000100
00000001
00001000
00001000
00000000
,  // measure 29
00001100
00000000
00000000
00000100
00000000
00000000
00010000
00000000
00000000
00010000
00000000
00000000
00000100
00000000
00001000
00000000
,  // measure 30
00000010
00000000
00000000
00000010
00000000
00000000
00000100
00000000
00000000
00000100
00000000
00000000
00000001
00000000
00001000
00000000
,  // measure 31
00000100
00000000
00000000
00000100
00000000
00000000
00010000
00000000
00000000
00010000
00000000
00000000
00001000
00000000
00010000
00000000
,  // measure 32
00001000
00000000
00000000
00001000
00000000
00000000
00100000
00000000
00000000
00100000
00000000
00000000
00010000
00000000
01000000
00000000
,  // measure 33
00100000
00000000
00000000
10100000
00000000
00000000
01000000
00000000
00000000
01010000
00000000
00000000
10000000
00000000
01000000
00000000
,  // measure 34
10000000
00000000
00000000
11000000
00000000
00000000
00010000
00000000
00000000
00110000
00000000
00000000
10000000
00000000
00010000
00000000
,  // measure 35
00100000
00000000
00000000
00101000
00000000
00000000
00001000
00000000
00000000
00011000
00000000
00000000
00010000
00000000
00000100
00000000
,  // measure 36
00001000
00000000
00000000
00000010
00000000
00000000
00000100
00000001
00000100
00000000
00000010
00000000
00001000
00000001
00000000
00000000
,  // measure 37
00001100
00000000
00000100
00000000
00000010
00000000
00000001
00001000
00000001
00000000
00000100
00000000
00000010
00000000
00000000
00000000
,  // measure 38
00001000
00000100
00010000
00001000
00100000
00001000
00010000
00000000
,  // measure 39
00000100
00000000
00001000
00000100
00001000
00000000
00000010
00000000
00000100
00000000
00000001
00000000
00001000
00000000
00000100
00000000
,  // measure 40
00010000
00010000
00001000
00001000
00100000
00010000
01000000
00100000
,  // measure 41
10000000
00000000
00000000
10000000
00010000
00000000
01000000
00000000
00000000
01000000
00100000
00000000
10000000
00000000
01000000
00000000
,  // measure 42
00100000
00000000
00000000
00100000
00010000
00000000
01000000
00000000
00000000
01000000
00001000
00000000
00100000
00000000
00010000
00000000
,  // measure 43
10000000
00000000
00000000
10000000
00100000
00000000
01000000
00000000
00000000
01000000
00010000
00000000
00100000
00000000
00001000
00000000
,  // measure 44
00020000
00030200
00002300
00003010
,  // measure 45
00000101
00000000
00000100
00000010
00000000
00000010
00001000
00000000
00001000
00000100
00000000
00000100
00000010
00000000
00000001
00000000
,  // measure 46
00001000
00000000
00001000
00000100
00000000
00000100
00010000
00000000
00010000
00001000
00000000
00001000
00100000
00000000
00100000
00000000
,  // measure 47
00010000
00000000
00010000
01000000
00000000
01000000
00100000
00000000
00100000
10000000
00000000
10000000
01000000
00000000
01000000
00000000
,  // measure 48
00100000
00000000
00100000
00010000
00000000
00010000
10000000
00000000
10000000
00100000
00000000
00100000
01000000
00000000
01000000
00000000
,  // measure 49
00010000
00000000
10000000
00010000
00000000
01000000
00010000
00000000
10000000
00010000
00000000
01000000
00100000
00000000
10000000
00000000
,  // measure 50
01000000
00000000
00000000
00010000
00000000
00000000
00001000
00000000
00000100
00000000
00000000
00000001
00000000
00000000
00001000
00000000
,  // measure 51
00000100
00000000
00000100
00000010
00000000
00000010
00000001
00000000
00000001
00001000
00000000
00001000
00000010
00000000
00000010
00000000
,  // measure 52
00000100
00000000
00000001
00001000
00000000
00000100
00000010
00000000
00000001
00001000
00000000
00000010
00000100
00000000
00000001
00000000
,  // measure 53
00002000
00000000
00000000
00000200
00000000
00000000
00000000
00000000
,  // measure 54
00003300
00000000
00000000
00000000
;

//---------------dance-single - ----------------
#NOTES:
     dance-single:
     :
     Medium:
     5:
     0.308331,0.349647,0.146766,0.353964,0.051800,192.000000,17.000000,41.000000,0.000000,0.000000,0.000000,0.308331,0.349647,0.146766,0.353964,0.051800,192.000000,17.000000,41.000000,0.000000,0.000000,0.000000:
0000
0000
0000
0000
,
0000
0000
0000
0000
,
0000
0000
0000
0000
,
0000
0000
0000
0000
,
0000
0000
0000
0000
,
0001
0100
1000
0010
,
1000
0100
0001
0011
,
1000
0100
0001
0010
,
0001
0100
1000
1010
,
0002
2003
3010
0000
,
2000
0000
3002
0000
0103
0010
0100
0000
,
0002
2003
3200
0300
,
2000
0000
3020
0000
0130
0001
0100
0000
,
0020
2030
3002
0003
,
2000
0000
3200
0000
0310
0001
0010
0000
,
0002
2003
3020
0030
,
0100
0001
0100
0000
0010
1000
0010
0000
,
1002
0000
0000
0200
0000
0000
0303
0000
,
2001
0000
0000
0200
0000
0000
3300
0000
,
1002
0000
0000
0020
0000
0000
0033
0000
,
2001
0000
0000
0020
0000
0000
3030
0000
,
0002
0000
0103
0020
0000
0000
1030
0000
,
0200
0000
1300
0002
0000
0000
0103
0000
,
0020
0000
1030
0200
0000
0000
0310
0000
,
0002
0000
2003
0000
3010
0100
0001
0000
,
1010
0001
0200
0300
,
0010
1000
0010
0000
1000
0000
0001
0000
,
0011
0000
0100
1000
0200
0000
0300
0000
,
1000
0001
1000
0000
0010
0100
0001
0000
,
1000
0000
0000
1000
0000
0000
1000
0000
0000
0000
0000
0000
0000
0000
0000
0000
,
0001
0000
0000
0001
0000
0000
0001
0000
0000
0000
0000
0000
0000
0000
0000
0000
,
0100
0000
0000
0100
0000
0000
0100
0000
0000
0000
0000
0000
0000
0000
0000
0000
,
0010
0000
0000
0010
0000
0000
0010
0000
0000
0000
0000
0000
0000
0000
0000
0000
,
1000
0000
0000
0100
0000
0000
0010
0000
0000
0000
0000
0000
0000
0000
0000
0000
,
0001
0000
0000
1000
0000
0000
0010
0000
0000
0000
0000
0000
0000
0000
0000
0000
,
0100
0000
0000
0001
0000
0000
1000
0000
0000
0000
0000
0000
0000
0000
0000
0000
,
0100
0000
0000
0100
0000
0000
0100
0000
0000
0000
0000
0000
0000
0000
0000
0000
,
1001
0000
1000
0000
0010
0100
0010
0000
,
1000
0000
0001
0000
0010
0001
1000
0000
,
0010
0000
0100
0000
0001
1000
0001
0000
,
0100
0100
0010
0000
1000
1000
0100
0000
,
0020
0000
0000
0032
0000
0000
0103
0000
,
0010
1000
0010
0000
0100
0000
0001
0000
,
2000
0000
0000
3200
0000
0000
0000
0000
,
0310
0000
0001
0000
1000
0100
0010
0000
,
1100
0101
1000
1010
,
0001
0000
0000
1000
0000
0000
0001
0000
0000
0000
0000
0000
0100
0000
0000
0000
,
1010
0011
0100
1001
,
0010
0000
0000
1000
0000
0000
0100
0000
0000
0000
0000
0000
0010
0000
0000
0000
,
0001
0010
0001
0000
1000
0100
1000
0000
,
0001
0000
0000
0001
0000
0000
0001
0000
1000
0000
0000
1000
0000
0000
1000
0000
,
0010
0000
0100
0000
0010
1000
0001
0000
,
1010
0000
0101
0000
1000
0100
0001
0000
,
2000
0000
0000
0200
0000
0000
0000
0000
,
3300
0000
0000
0000
;

//---------------dance-single - ----------------
#NOTES:
     dance-single:
     :
     Easy:
     3:
     0.167732,0.228782,0.034533,0.086333,0.000000,122.000000,4.000000,10.000000,0.000000,0.000000,0.000000,0.167732,0.228782,0.034533,0.086333,0.000000,122.000000,4.000000,10.000000,0.000000,0.000000,0.000000:
0000
0000
0000
0000
,
0000
0000
0000
0000
,
0000
0000
0000
0000
,
0000
0000
0000
0000
,
0000
0000
0000
0000
,
0001
0000
1000
0000
,
0010
0100
0001
0000
,
1000
0000
0001
0000
,
1000
0100
0010
0000
,
0001
0001
0100
0000
,
0020
0030
2000
3000
,
0100
0100
0010
0000
,
0002
0003
2000
3000
,
0010
0010
0100
0000
,
0002
0003
2000
3000
,
0100
0100
0010
0000
,
0002
0003
2000
3000
,
0010
0000
0000
0010
0000
0000
0000
0000
,
1000
0000
0000
1000
0000
0000
0000
0000
,
0100
0000
0000
0100
0000
0000
0000
0000
,
0010
0000
0000
0010
0000
0000
0000
0000
,
0001
0000
0000
0001
0000
0000
0000
0000
,
1000
0000
0000
1000
0000
0000
0000
0000
,
0010
0000
0000
0010
0000
0000
0000
0000
,
0100
0100
0001
0000
,
1001
0000
1000
0000
,
0010
0100
0001
0000
,
1000
0000
1000
0000
,
0100
0010
0001
0000
,
1001
0000
0000
0100
,
1000
0000
0000
0001
,
0100
0000
0000
0010
,
1000
0000
0001
0000
,
0100
0100
0010
0000
,
1000
1000
0100
0000
,
0010
0010
0001
0000
,
2002
0000
0000
3003
,
0010
0000
1000
0001
,
0100
0000
0010
1000
,
0100
0000
0010
0000
,
0001
0001
1000
1000
,
0010
0000
0010
0000
,
1000
0100
0010
0000
,
0001
0000
0001
0000
,
0100
0010
0100
0000
,
1001
0000
1000
0100
,
0100
0000
0010
0001
,
0001
0000
0100
0000
,
0010
1000
0100
0010
,
0001
0000
1000
0000
,
0010
0010
0100
0100
,
0001
0000
1000
0000
,
0010
1000
0100
0100
,
0010
0000
0000
0000
;

//---------------dance-single - ----------------
#NOTES:
     dance-single:
     :
     Beginner:
     1:
     0.101133,0.137269,0.025900,0.000000,0.000000,79.000000,3.000000,0.000000,0.000000,0.000000,0.000000,0.101133,0.137269,0.025900,0.000000,0.000000,79.000000,3.000000,0.000000,0.000000,0.000000,0.000000:
0000
0000
0000
0000
,
0000
0000
0000
0000
,
0000
0000
0000
0000
,
0000
0000
0000
0000
,
0000
0000
0000
0000
,
0100
0000
0000
0000
,
0010
0000
0000
0000
,
1000
0000
0000
0000
,
0001
0000
0000
0000
,
0100
0000
0100
0000
,
0001
0000
0000
0000
,
1000
0000
1000
0000
,
0100
0000
0000
0000
,
0010
0000
0010
0000
,
0001
0000
0000
0000
,
0100
0000
0100
0000
,
0010
0000
0000
0000
,
1000
1000
0000
0000
,
0001
0001
0000
0000
,
0100
0000
0000
0000
,
0010
0000
1000
0000
,
0001
0001
0000
0000
,
1000
1000
0000
0000
,
0100
0000
0000
0000
,
0010
0000
0001
0000
,
1000
1000
1000
0000
,
0001
0000
0000
0000
,
0100
0100
0100
0000
,
0010
0000
0000
0000
,
1001
0000
0000
0000
,
0100
0000
0000
0001
,
0001
0000
0000
0000
,
1000
0000
0000
0010
,
0010
0000
0000
0000
,
1000
0000
0000
0100
,
0100
0000
0000
0000
,
1001
0000
0000
0000
,
0010
0000
0010
0000
,
1000
0000
1000
0000
,
0001
0000
0001
0000
,
0100
0000
0100
0000
,
0001
0000
0001
0000
,
1000
0000
0000
0000
,
0010
0000
0010
0000
,
0100
0000
0000
0000
,
1001
0000
0000
1000
,
1000
0000
0000
0010
,
0010
0000
0000
0000
,
0100
0000
0001
0000
,
1000
0000
0000
0100
,
0100
0000
0000
0010
,
0010
0000
0001
0000
,
1000
0000
1000
0000
,
0010
0000
0000
0000
;
