#VERSION:0.82;
#TITLE:Jealous;
#SUBTITLE:;
#ARTIST:Nick Jonas;
#TITLETRANSLIT:;
#SUBTITLETRANSLIT:;
#ARTISTTRANSLIT:;
#GENRE:All Grown Up;
#ORIGIN:;
#CREDIT:;
#BANNER:Jealous.png;
#BACKGROUND:Jealous-bg.png;
#PREVIEWVID:;
#JACKET:jacket.png;
#CDIMAGE:;
#DISCIMAGE:;
#LYRICSPATH:;
#CDTITLE:;
#MUSIC:Jealous.ogg;
#OFFSET:0.000000;
#SAMPLESTART:24.794001;
#SAMPLELENGTH:13.714000;
#SELECTABLE:YES;
#BPMS:0.000=93.000,
119.000=46.500,
120.000=93.000;
#STOPS:;
#DELAYS:;
#WARPS:;
#TIMESIGNATURES:0.000=4=4;
#TICKCOUNTS:0.000=4;
#COMBOS:0.000=1;
#SPEEDS:0.000=1.000=0.000=0;
#SCROLLS:0.000=1.000;
#FAKES:;
#LABELS:0.000=Song Start;
#BGCHANGES:4.000=Jealous.avi=1.000=0=0=1=====,
99999=-nosongbg-=1.000=0=0=0 // don't automatically add -songbackground-
;
#KEYSOUNDS:;
#ATTACKS:
;

//---------------dance-single - ----------------
#NOTEDATA:;
#CHARTNAME:;
#STEPSTYPE:dance-single;
#DESCRIPTION:;
#CHARTSTYLE:;
#DIFFICULTY:Hard;
#METER:5;
#RADARVALUES:0.306383,0.316313,0.089987,0.464931,0.000000,212.000000,12.000000,62.000000,0.000000,0.000000,0.000000,0.000000,0.000000,0.306383,0.316313,0.089987,0.464931,0.000000,212.000000,12.000000,62.000000,0.000000,0.000000,0.000000,0.000000,0.000000;
#CREDIT:Ben Speirs;
#NOTES:
// measure 0
0000
0000
0000
0000
,  // measure 1
0000
0000
0000
0000
,  // measure 2
0200
0310
2000
3100
,  // measure 3
1000
0001
0100
0000
0010
0100
0001
0000
,  // measure 4
0020
0130
2000
3001
,  // measure 5
0100
0010
0100
0001
1000
0000
0001
0100
,  // measure 6
0020
0130
0002
0013
,  // measure 7
0001
1000
0010
0000
0100
0100
0010
0000
,  // measure 8
1000
0001
0010
0000
0100
0100
0010
0000
,  // measure 9
0002
0000
0000
0000
0000
0013
0100
1000
,  // measure 10
0020
0130
1001
0100
,  // measure 11
0001
0010
0100
1000
0000
0010
0010
0000
,  // measure 12
2000
0000
3001
0001
0000
0000
0110
0000
,  // measure 13
0001
0100
0010
1000
0000
0100
0010
0001
,  // measure 14
0200
0310
1001
0010
,  // measure 15
1000
0100
0010
0001
0000
0100
0100
0000
,  // measure 16
0002
0000
2003
0000
3100
0100
0000
0000
,  // measure 17
2000
0000
3002
0000
0103
0100
0000
0000
,  // measure 18
0010
0100
0010
0100
0001
0100
0010
0000
,  // measure 19
1000
0001
0010
2100
,  // measure 20
3002
0000
0203
0000
0300
0000
1001
0100
,  // measure 21
0200
0000
0302
0000
0013
0020
0000
0000
,  // measure 22
0130
0010
0100
0010
0001
0010
0100
0000
,  // measure 23
1000
0001
0100
0012
,  // measure 24
2003
0000
3020
0000
0030
0000
1001
0010
,  // measure 25
0020
0000
2030
0000
3100
0200
0000
0000
,  // measure 26
0310
0000
0002
0000
1003
0000
0010
1000
,  // measure 27
0002
0203
0320
2030
,  // measure 28
3001
0000
0020
0000
0130
0000
0010
0001
,  // measure 29
2000
3020
0230
0302
,  // measure 30
1003
0000
0100
0000
1000
0001
0200
0000
,  // measure 31
0320
2030
3002
0013
,  // measure 32
1100
0000
0001
0000
0100
0010
1000
1000
,  // measure 33
0001
0001
0100
0000
0001
1000
0200
0000
,  // measure 34
0000
0000
0000
0000
0000
0320
0000
0000
,  // measure 35
0000
0000
0032
2003
,  // measure 36
0000
0000
0000
0000
0000
3020
0000
0000
,  // measure 37
0000
0230
0000
0000
0000
0000
0302
0000
,  // measure 38
0000
0000
0000
0000
0000
2003
0000
0000
,  // measure 39
0000
0000
3200
0320
,  // measure 40
0000
0000
0000
0000
0000
0032
0000
0000
,  // measure 41
0000
1003
0010
0100
0010
0100
0001
0100
,  // measure 42
0001
0100
0010
0100
0001
0000
1000
0000
,  // measure 43
0001
0010
2100
3002
,  // measure 44
0203
0000
0300
0000
1001
0100
0200
0000
,  // measure 45
0302
0000
0013
0020
0000
0000
0130
0010
,  // measure 46
0100
0010
0001
0010
0100
0000
1000
0000
,  // measure 47
0001
0100
0012
2003
,  // measure 48
3020
0000
0030
0000
1001
0010
0020
0000
,  // measure 49
2030
0000
3100
0100
0010
0010
0000
0000
;

//---------------dance-single - ----------------
#NOTEDATA:;
#CHARTNAME:;
#STEPSTYPE:dance-single;
#DESCRIPTION:;
#CHARTSTYLE:;
#DIFFICULTY:Challenge;
#METER:8;
#RADARVALUES:0.487428,0.484382,0.022497,0.239965,0.318703,420.000000,3.000000,32.000000,0.000000,0.000000,0.000000,0.000000,0.000000,0.487428,0.484382,0.022497,0.239965,0.318703,420.000000,3.000000,32.000000,0.000000,0.000000,0.000000,0.000000,0.000000;
#CREDIT:Ben Speirs;
#OFFSET:0.010000;
#BPMS:0.000000=93.000000
,119.000000=46.500000
,120.000000=93.000000
;
#STOPS:;
#DELAYS:;
#WARPS:;
#TIMESIGNATURES:0.000000=4=4
;
#TICKCOUNTS:0.000000=4
;
#COMBOS:0.000000=1
;
#SPEEDS:0.000000=1.000000=0.000000=0
,134.000000=0.400000=1.000000=0
,165.000000=0.500000=0.000000=0
,165.250000=0.550000=0.000000=0
,165.500000=0.600000=0.000000=0
,165.750000=0.650000=0.000000=0
,166.000000=0.700000=0.000000=0
,166.250000=0.750000=0.000000=0
,166.500000=0.800000=0.000000=0
,166.750000=0.900000=0.000000=0
,167.000000=1.000000=0.000000=0
;
#SCROLLS:0.000000=1.000000
;
#FAKES:;
#LABELS:0.000000=Song Start
;
#DISPLAYBPM:93.000000;
#NOTES:
// measure 0
0000
0000
0000
0000
,  // measure 1
0000
0000
0000
0000
,  // measure 2
1000
0000
0200
0000
0301
0000
0100
0000
1000
0000
0010
0000
0100
0001
0100
0001
,  // measure 3
1000
0000
0100
0000
0010
0000
0001
1000
0000
0010
0100
0000
0001
0000
1000
0000
,  // measure 4
0001
0000
0020
0000
1030
0000
0010
0000
0001
0000
0100
0000
0010
1000
0010
1000
,  // measure 5
0001
0000
0010
0000
0100
0000
1000
0001
0000
0100
0010
0000
1000
0000
0001
0000
,  // measure 6
0010
0000
0200
0000
0301
0000
0100
0000
0010
0000
0001
0000
1000
0010
1000
0010
,  // measure 7
0100
0000
0100
0000
0001
0000
1000
0100
0010
0000
0001
0000
1000
1000
0100
1000
,  // measure 8
0010
0000
0010
0000
1000
0000
0001
0010
0100
0000
1000
0000
0001
0001
0010
0001
,  // measure 9
0200
0000
0310
0000
0200
0000
1300
0000
0200
0000
0301
0000
1000
0100
0010
0001
,  // measure 10
1000
0100
1000
0001
0100
0010
1000
0001
,  // measure 11
0100
0010
1000
0001
0100
0000
0010
0000
1000
0000
0100
0000
1000
0100
0010
0001
,  // measure 12
1000
0000
1000
0000
0010
0000
1000
0000
0001
0000
0010
0000
0100
1000
0010
0100
,  // measure 13
0001
0000
0010
0000
0100
0000
1000
0000
0001
0000
1000
0000
0010
0100
0010
0100
,  // measure 14
0001
0010
0001
1000
0010
0100
0001
1000
,  // measure 15
0010
0100
0001
1000
0010
0000
0100
0000
0001
0000
0010
0000
0001
0010
0100
1000
,  // measure 16
0001
0000
0001
0000
0100
0000
0001
1000
0100
0000
1000
0000
0001
0000
0100
0000
,  // measure 17
0010
1000
0010
1000
0001
0100
0001
0100
0010
1000
0100
0010
0001
1000
0010
0100
,  // measure 18
0001
0000
1000
0000
0100
0000
0010
0000
0001
0000
1000
0010
0100
0000
0001
0000
,  // measure 19
1000
0100
1000
0001
0100
0000
0010
0000
1000
0000
0001
0000
0020
0000
0000
0000
,  // measure 20
0230
0000
2300
0000
0010
0000
3001
0100
,  // measure 21
0010
0000
1000
0100
1000
0000
0001
0100
0001
0000
1000
0000
0100
0010
0001
0000
,  // measure 22
1000
0000
0001
0000
0010
0000
0100
0000
1000
0000
0001
0100
0010
0000
1000
0000
,  // measure 23
0001
0010
0001
1000
0010
0000
0100
0000
0001
0000
1000
0000
0200
0000
0000
0000
,  // measure 24
0320
0000
0032
0000
0100
0000
1003
0010
,  // measure 25
0100
0000
0001
0010
0001
0000
1000
0010
1000
0000
0001
0000
0010
0100
0010
0100
,  // measure 26
2000
0000
0000
3002
0000
0000
0203
0000
0000
0000
0010
0000
0310
1000
0100
0010
,  // measure 27
0001
0100
0001
1000
0100
0000
0011
0010
,  // measure 28
0002
0000
0000
2003
0000
0000
3020
0000
0000
0000
0100
0000
0130
0001
0010
0100
,  // measure 29
1000
0000
0010
0000
1000
0000
0001
0000
0010
0000
0001
0000
1000
0010
0000
0010
,  // measure 30
1001
0000
0000
0000
0100
0000
0010
0000
1000
0000
0100
0010
0002
0000
0103
0010
,  // measure 31
2000
0000
3001
0100
0020
0000
1030
0100
0020
0000
0031
0000
1000
0000
0010
0000
,  // measure 32
1000
0001
0010
0100
1000
0001
0100
0100
,  // measure 33
0010
0100
0000
0001
1000
0000
0100
0000
1000
0100
0010
0001
1000
0000
0000
0000
,  // measure 34
0010
1000
0001
0000
0010
0001
0100
0100
,  // measure 35
1000
0100
0000
0010
0100
0001
0010
0010
,  // measure 36
0100
1000
0000
0001
0000
1000
0010
0010
,  // measure 37
1000
0001
0000
0100
0001
0010
0100
0000
,  // measure 38
0100
1000
0010
0100
0000
2002
0000
0000
,  // measure 39
0000
0000
0000
3003
0000
0000
0000
0000
0010
0000
1000
0000
0002
0000
0000
0000
,  // measure 40
2003
0000
3100
0100
0000
0000
1000
0001
,  // measure 41
0100
0000
0000
0000
0010
0010
0100
0001
0010
0100
1000
0010
1000
0000
0001
0000
,  // measure 42
0010
0000
0100
0000
1000
0000
0001
0100
0010
0000
1000
0000
0001
0010
0001
1000
,  // measure 43
0010
0100
0001
1000
0200
0000
0320
0000
,  // measure 44
0032
0000
0000
0000
0100
0000
0000
0000
1003
0000
0010
0000
0100
0000
0001
0010
,  // measure 45
0001
0000
1000
0010
1000
0000
0001
0000
0010
0100
1000
0000
0001
0000
1000
0000
,  // measure 46
0100
0000
0010
0000
0001
0000
1000
0010
0100
0000
0001
0000
1000
0100
1000
0001
,  // measure 47
0100
0010
1000
0001
0020
0000
0230
0000
,  // measure 48
2300
0000
0000
0000
0010
0000
0000
0000
3001
0000
0100
0000
0010
0000
1000
0100
,  // measure 49
1000
0000
0001
0100
0001
0000
1000
0000
0100
0010
0100
0010
0000
0000
0000
0000
;

//---------------dance-single - ----------------
#NOTEDATA:;
#CHARTNAME:;
#STEPSTYPE:dance-single;
#DESCRIPTION:;
#CHARTSTYLE:;
#DIFFICULTY:Medium;
#METER:3;
#RADARVALUES:0.190686,0.241886,0.067490,0.172475,0.000000,146.000000,9.000000,23.000000,0.000000,0.000000,0.000000,0.000000,0.000000,0.190686,0.241886,0.067490,0.172475,0.000000,146.000000,9.000000,23.000000,0.000000,0.000000,0.000000,0.000000,0.000000;
#CREDIT:Ben Speirs;
#NOTES:
0000
0000
0000
0000
,
0000
0000
0000
0000
,
1000
0001
0100
0000
,
0010
0010
0010
0000
,
0100
0001
1000
0000
,
0100
0100
0100
0000
,
0010
0001
1000
0000
,
0001
0001
0001
0000
,
1000
1000
1000
0000
,
0020
0000
0000
0000
0000
0130
0100
0000
,
0110
1001
0010
0001
,
1000
0100
1000
0100
0000
0000
1000
0000
,
0010
0010
1000
0001
,
0010
0100
0010
0100
0000
0000
0110
0000
,
1001
0100
0010
1000
,
0001
0010
0001
0010
0000
0000
0100
0000
,
1000
0000
0001
0000
0100
0100
0000
0000
,
0101
1100
0202
0303
,
1000
0001
0010
0010
,
0001
1000
0010
0200
,
0302
2000
0000
3003
,
0100
0010
0110
1001
,
0100
0010
1000
0000
,
0001
1000
0100
0020
,
0032
2000
0000
3003
,
0010
1000
0200
0000
,
0310
0000
0000
0001
,
1000
0010
0100
0001
,
1000
0000
0000
0100
,
1000
0001
0100
0010
,
1000
0000
0001
0000
,
0010
0000
0100
0000
,
1000
0000
0001
1000
,
0010
0100
0001
2000
,
0000
3000
0000
0002
,
0000
0003
0000
0200
,
0000
0300
0000
0020
,
0000
0030
0000
2000
,
0000
3000
0000
0002
,
0000
0003
0000
0020
,
0000
0030
0000
0001
,
1000
0000
0001
1000
0001
1000
0010
0000
,
1000
0001
0001
0010
,
0001
1000
0200
0320
,
0002
0000
0033
0001
,
1000
0001
0000
0100
,
0010
0000
1000
0001
1000
0000
0001
0000
,
0010
0100
2000
0020
,
0000
3030
0000
1000
,
0001
0000
0100
0200
0000
0300
0000
0000
;

//---------------dance-single - ----------------
#NOTEDATA:;
#CHARTNAME:;
#STEPSTYPE:dance-single;
#DESCRIPTION:;
#CHARTSTYLE:;
#DIFFICULTY:Easy;
#METER:2;
#RADARVALUES:0.118911,0.185598,0.022497,0.037494,0.000000,103.000000,3.000000,5.000000,0.000000,0.000000,0.000000,0.000000,0.000000,0.118911,0.185598,0.022497,0.037494,0.000000,103.000000,3.000000,5.000000,0.000000,0.000000,0.000000,0.000000,0.000000;
#CREDIT:Ben Speirs;
#NOTES:
0000
0000
0000
0000
,
0000
0000
0000
0000
,
1000
0000
0001
0000
,
0100
0100
0100
0000
,
0001
0000
1000
0000
,
0100
0100
0100
0000
,
1000
0000
0001
0000
,
0010
0010
0010
0000
,
0100
0100
0100
0000
,
2002
0000
0000
3003
,
0010
1000
0001
0000
,
0010
0010
0010
0000
,
0010
0001
1000
0000
,
0010
0010
0010
0000
,
1000
0000
0100
0000
,
0001
0000
0100
0000
,
1000
1000
1000
0000
,
0001
0001
0001
0000
,
0010
0010
0010
0000
,
0100
0000
1000
0000
,
0001
0001
0000
0000
,
0100
0100
0100
0000
,
0001
0000
1000
0000
,
0010
0000
1000
0000
,
0100
0100
0000
0000
,
0010
0010
0010
0000
,
0110
0000
0000
0000
,
0001
1000
0001
0000
,
0100
0000
0000
0000
,
0010
0100
0010
0000
,
0000
0000
0000
1000
,
1000
1000
0000
0001
,
0000
1000
0000
0001
,
0001
0001
0000
2002
,
0000
0000
0000
0000
,
0000
0000
0000
0000
,
0000
0000
0000
0000
,
0000
0000
0000
0000
,
0000
0000
0000
0000
,
0000
0000
0000
0000
,
0000
0000
3003
0001
,
1000
0001
1000
0010
,
0000
1000
0000
0001
,
0001
1000
1000
0100
,
0100
0000
0000
1000
,
0001
1000
0000
0010
,
0000
1000
0000
0001
,
0001
0010
0010
0001
,
0001
0000
0000
0100
,
0100
0200
0300
0000
;

//---------------dance-single - ----------------
#NOTEDATA:;
#CHARTNAME:;
#STEPSTYPE:dance-single;
#DESCRIPTION:;
#CHARTSTYLE:;
#DIFFICULTY:Beginner;
#METER:1;
#RADARVALUES:0.088915,0.147728,0.029996,0.000000,0.000000,79.000000,4.000000,0.000000,0.000000,0.000000,0.000000,0.000000,0.000000,0.088915,0.147728,0.029996,0.000000,0.000000,79.000000,4.000000,0.000000,0.000000,0.000000,0.000000,0.000000,0.000000;
#CREDIT:Ben Speirs;
#NOTES:
0000
0000
0000
0000
,
0000
0000
0000
0000
,
1000
0000
0000
0000
,
0010
0010
0000
0000
,
1000
0000
0000
0000
,
0001
0001
0000
0000
,
0010
0000
0000
0000
,
0100
0100
0000
0000
,
1000
1000
0000
0000
,
0001
0000
0000
0000
,
1001
0000
0100
0000
,
0010
0000
0010
0000
,
1000
0000
0001
0000
,
1000
0000
1000
0000
,
0100
0000
0010
0000
,
0001
0000
0001
0000
,
0100
0100
0100
0000
,
0100
0100
0100
0000
,
0110
0000
0000
0000
,
1000
1000
1000
1000
,
1000
0000
0000
0000
,
0100
0000
1000
0000
,
1001
0000
0000
0000
,
0001
0001
0001
0001
,
0001
0000
0000
0000
,
0100
0000
0010
0000
,
1000
0000
0000
0000
,
0001
0000
1000
0000
,
0010
0000
0000
0000
,
1000
0000
0001
0000
,
0000
0000
0000
0100
,
0100
0100
0000
0100
,
0000
0001
0000
1000
,
0000
1000
0000
1001
,
0000
0000
0000
0000
,
0000
0000
0000
0000
,
0000
0000
0000
0000
,
0000
0000
0000
0000
,
0000
0000
0000
0000
,
0000
0000
0000
0000
,
0000
0000
0000
0000
,
0000
1000
0000
0001
,
0000
0100
0000
0010
,
0000
1000
0000
0001
,
0001
0000
0000
0010
,
0010
0010
0000
0010
,
0000
0001
0000
1000
,
0000
0010
0000
0100
,
0100
0000
0000
0001
,
0001
0001
0000
0000
;

//---------------dance-double - ----------------
#NOTEDATA:;
#CHARTNAME:;
#STEPSTYPE:dance-double;
#DESCRIPTION:;
#CHARTSTYLE:;
#DIFFICULTY:Challenge;
#METER:8;
#RADARVALUES:0.494927,0.577532,0.089987,0.292457,0.299956,411.000000,12.000000,39.000000,0.000000,0.000000,0.000000,0.000000,0.000000,0.494927,0.577532,0.089987,0.292457,0.299956,411.000000,12.000000,39.000000,0.000000,0.000000,0.000000,0.000000,0.000000;
#CREDIT:Ben Speirs;
#NOTES:
00000000
00000000
00000000
00000000
,
00000000
00000000
00000000
00000000
,
10000000
00000000
01000000
00000000
00010000
00000000
01000000
00000000
10000000
00000000
00100000
00000000
01000000
00010000
01000000
00010000
,
00100000
00000000
00001000
00000000
00010000
00000000
00000010
00001000
00000000
00001000
00000100
00000000
00000010
00000000
00000001
00000000
,
00001000
00000000
00000010
00000000
00000001
00000000
00000010
00000000
00001000
00000000
00000001
00000000
00000010
00000100
00000010
00000100
,
00001000
00000000
00000100
00000000
00010000
00000000
00001000
00100000
00000000
00100000
00010000
00000000
10000000
00000000
00000000
00000000
,
00100000
00000000
01000000
00000000
00100000
00000000
10000000
00000000
00100000
00000000
01000000
00000000
00010000
10000000
00010000
10000000
,
01000000
00000000
00100000
00000000
00010000
00000000
10000000
01000000
10000000
00000000
00010000
00000000
10000000
00000000
00100000
01000000
,
00100000
00000000
01000000
00000000
00010000
00000000
00100000
00001000
00100000
00000000
00001000
00000000
00010000
00000000
00000100
00000000
,
00002000
00000000
00003002
00000000
00000003
00000100
00000100
00000010
,
00001001
00001000
00000100
00000010
00000001
00000001
00001000
00000010
,
00000100
00000001
00000100
00000001
00001000
00000000
00000010
00000000
00001000
00000000
00000001
00000000
00001000
00000100
00010000
00001000
,
00100000
00000000
00100000
00000000
00010000
00000000
01000000
00000000
01000000
00000000
00100000
00000000
10000000
00000000
00010000
10000000
,
00010000
00000000
01000000
00000000
00100000
00000000
10000000
00000000
00010000
00000000
00100000
00000000
01000000
10000000
01000000
10000000
,
00020000
00000000
00130000
00001000
00010000
00010000
00001000
00010000
,
00000100
00001000
00000100
00001000
00000100
00000000
00001000
00000000
00000001
00000000
00000100
00000000
00000020
00000000
00000000
00000000
,
00001030
00000000
00000001
00000000
00000100
00000000
00000010
00001000
00000001
00000000
00000001
00000000
00001000
00000000
00000000
00000000
,
00000001
00000010
00000001
00000010
00000100
00001000
00000100
00001000
00000100
00010000
00000100
00010000
00001000
00010000
00001000
00010000
,
00200000
00000000
20300000
00000000
32000000
00000000
03200000
00000000
00320000
00000000
10030000
01000000
10000000
00000000
00010000
00000000
,
10000000
01000000
00100000
00010000
01000000
00000000
00010000
00000000
00100000
00000000
00001000
00000000
00102000
00000000
00000000
00000000
,
00023000
00000000
00030200
00000000
00001300
00000001
00001000
00000010
,
00000010
00000000
00000100
00000001
00000010
00000000
00000100
00001000
00000010
00000000
00000100
00000000
00000001
00001000
00000001
00000000
,
00000200
00000000
00000302
00000000
00000023
00000000
00000230
00000000
00002300
00000000
00003001
00000010
00000001
00000000
00001000
00000000
,
00000001
00000010
00000100
00001000
00000010
00000000
00001000
00000000
00000100
00000000
00010000
00000000
00020100
00000000
00000000
00000000
,
00032000
00000000
00203000
00000000
00310000
10000000
00010000
01000000
,
01000000
00000000
00100000
10000000
01000000
00000000
00100000
00010000
01000000
00000000
00100000
00000000
10000000
00010000
10000000
00000000
,
10100000
00000000
00100000
00000000
01000000
00000000
00010000
00000000
10000000
00000000
01000000
00000000
00100000
00000000
00010000
10000000
,
00020000
01030000
00200000
10300000
02000000
03100000
00020000
10030000
,
00100000
00000000
01000000
00000000
00010000
00000000
00100000
00000000
00001000
00000000
00010000
00000000
00000100
00000000
00001000
00000001
,
00001000
00000000
00000010
00000100
00000010
00000000
00001000
00000100
00001000
00000000
00000001
00000000
00001000
00000010
00000000
00000010
,
00000101
00000000
00001000
00000000
00000100
00000000
00000010
00000000
00000001
00000000
00001000
00000100
00001000
00000000
00000001
00000100
,
00000001
00001000
00000100
00010000
00001000
00001000
00100000
00010000
,
01000000
00000000
00100000
10000000
00100000
00000000
01000000
00000000
00010000
00000000
10000000
01000000
10000000
00000000
00010000
00000000
,
10000000
01000000
00100000
00010000
10000000
00000000
00010000
00000000
00100000
00001000
00010000
00000100
00002000
00000000
00000000
00000000
,
00000000
00000000
00000000
00000000
00003001
00000000
00001000
00000100
,
00000010
00000002
00000000
00000000
00000103
00000000
00000020
00000000
,
00000000
00000000
00000000
00000000
00001030
00000001
00002000
00000000
,
00000000
00003200
00000000
00000000
00010300
00001000
00200000
00000000
,
00310000
10000000
00010000
00010000
00000000
02000000
00000000
00000000
,
00000000
00000000
03100000
01000000
00020000
00000000
20030000
00000000
,
32000000
00000000
00000000
00000000
03100000
00000000
00000000
00000000
00000000
00000000
00000000
00000000
00010000
00100000
00010000
00100000
,
01000000
10000000
01000000
10000000
00010000
01000000
00010000
01000000
00100000
10000000
00100000
10000000
00010000
00000000
01000000
00000000
,
01010000
00000000
00100000
00000000
10000000
00000000
01000000
00000000
11000000
00000000
00010000
00000000
10000000
01000000
00100000
00010000
,
01000000
00010000
00100000
00001000
00021000
00000000
00030200
00000000
,
00001300
00000000
00000010
00000000
00000100
00000000
00000001
00000000
00001000
00000000
00000100
00000010
00000001
00000000
00000100
00000010
,
00001000
00000000
00000001
00001000
00000001
00000000
00000100
00000000
00000010
00001000
00000100
00000010
00000001
00000000
00001000
00000000
,
00001100
00000000
00000101
00000000
00001000
00000000
00000010
00000000
00001002
00000000
00000000
00000000
00000103
00000010
00000100
00000010
,
00001000
00000001
00000010
00000100
00001200
00000000
00020300
00000000
,
00031000
00000000
00100000
00000000
00001000
00000000
00010000
00000000
00100000
00000000
10000000
00000000
01000000
00100000
00010000
00000000
,
01000000
00100000
10000000
00000000
00010000
00100000
01000000
10000000
00100000
01000000
00010000
10000000
00000000
00000000
00000000
00000000
;
