#TITLE:Cheap Thrills;
#SUBTITLE:;
#ARTIST:Sia;
#TITLETRANSLIT:;
#SUBTITLETRANSLIT:;
#ARTISTTRANSLIT:;
#GENRE:Dance;
#CREDIT:;
#BANNER:Cheap Thrills.png;
#BACKGROUND:Cheap Thrills-bg.png;
#LYRICSPATH:;
#CDTITLE:cdtitle.png;
#MUSIC:Cheap Thrills.ogg;
#OFFSET:-0.140000;
#SAMPLESTART:31.773283;
#SAMPLELENGTH:14.339993;
#SELECTABLE:YES;
#BPMS:0.000000=90.000000
;
#STOPS:
;
#BGCHANGES:4.000=Cheap Thrills.avi=1.000=0=0=1=====,
99999=-nosongbg-=1.000=0=0=0 // don't automatically add -songbackground-
;
#KEYSOUNDS:;
#ATTACKS:;

//---------------dance-single - ----------------
#NOTES:
     dance-single:
     :
     Hard:
     8:
     0.438369,0.481837,0.193079,0.248245,0.179288,381.000000,28.000000,36.000000,0.000000,0.000000,0.000000,0.438369,0.481837,0.193079,0.248245,0.179288,381.000000,28.000000,36.000000,0.000000,0.000000,0.000000:
// measure 0
0000
0000
0000
0000
,  // measure 1
0000
0000
0000
0000
,  // measure 2
1000
0000
0000
0100
1000
0000
0100
0000
1000
0000
0000
0001
1000
0000
0001
0000
,  // measure 3
0100
0000
0000
0001
0100
0000
0001
0000
1000
0000
0000
0010
1000
0000
0010
0000
,  // measure 4
0100
0000
0001
0000
1000
0000
0001
0000
0100
0010
0100
0000
0020
0000
0000
0000
,  // measure 5
1030
0010
0200
0000
0301
1000
0200
0000
,  // measure 6
1300
0000
0001
0000
0010
0000
0001
1000
0001
0000
0100
0000
0020
0000
0000
0000
,  // measure 7
1030
0001
0200
0000
0301
1000
0200
0000
,  // measure 8
1300
0000
0000
0010
1000
0000
1010
0000
0001
0000
0000
0100
0001
0000
0101
0000
,  // measure 9
1000
0000
1000
0000
0001
0000
0001
0000
0020
0000
0000
0000
0031
0000
1000
0100
,  // measure 10
1000
0000
0001
0000
0100
0000
0001
0010
0001
0000
1000
0000
0010
0000
0100
0000
,  // measure 11
0002
0000
0003
0000
,  // measure 12
0100
0001
0000
0100
0010
0000
1000
0000
0100
1000
0000
0001
0100
0000
0010
0000
,  // measure 13
1000
0000
0001
1000
0001
0000
1000
0000
0100
0000
0010
0000
1001
0000
0001
1000
,  // measure 14
0010
1000
0000
0010
0100
0000
0001
0000
0010
0001
0000
1000
0010
0000
0100
0000
,  // measure 15
0001
0000
1000
0001
1000
0000
0001
0000
0010
0000
0100
0000
1001
0000
0000
0000
,  // measure 16
1100
0100
0001
0100
1000
0010
0001
0010
,  // measure 17
0100
0000
0001
1000
0001
0000
0100
0000
0010
0000
1000
0100
1000
0000
0001
0000
,  // measure 18
0010
0010
0100
0100
1000
0010
0100
0001
,  // measure 19
1000
0000
0001
0100
0010
0000
0100
0000
0001
0000
1000
0100
0010
0000
0100
0000
,  // measure 20
1000
0000
1100
0000
0001
0000
0101
0000
1000
0000
0001
0100
0001
0000
1000
0100
,  // measure 21
0010
0001
1000
0010
0200
0000
0310
1000
,  // measure 22
0001
0000
0011
0000
1000
0000
1010
0000
0001
0000
1000
0001
1000
0000
0010
0100
,  // measure 23
0001
0000
0000
0100
0010
0000
1000
0000
0100
0000
0000
1000
0001
0000
0010
0000
,  // measure 24
0002
0100
1000
0103
,  // measure 25
2000
0000
0100
0001
0001
0001
3001
0000
,  // measure 26
1000
1001
0001
1001
,  // measure 27
1000
0010
0001
0000
0001
0100
1000
0000
,  // measure 28
0001
0100
0010
1000
0100
0010
0001
1000
,  // measure 29
0020
0000
0130
0000
,  // measure 30
0010
0100
0001
1000
0100
0010
0001
1000
,  // measure 31
0200
0000
1300
0000
,  // measure 32
0100
1000
0010
0100
0001
0010
0100
1000
,  // measure 33
0020
0001
1000
0130
,  // measure 34
0010
0100
0001
0010
0100
1000
0001
0100
,  // measure 35
0010
0000
2000
3002
,  // measure 36
0103
0010
0010
0100
0010
0000
1000
0000
0001
0010
0000
0010
0100
0000
1000
0001
,  // measure 37
1000
0100
0010
0011
1001
0011
1001
0000
,  // measure 38
1000
0100
0100
1000
0010
0000
0100
0000
0001
0100
0000
0100
0010
0000
1000
0100
,  // measure 39
1000
0001
1000
1010
1001
1010
1001
0000
,  // measure 40
1000
0100
0010
0001
0100
1000
0100
0001
,  // measure 41
1000
0000
0100
0000
0001
0000
0100
0000
1000
0000
0010
0100
0001
0000
1000
0000
,  // measure 42
0001
0010
0110
0001
1000
0010
0110
1000
,  // measure 43
0001
0000
1000
0100
1000
0000
0001
0100
0002
0000
0000
0000
1003
0000
0010
0000
,  // measure 44
0110
0101
0110
1010
1200
0000
0310
0001
,  // measure 45
1000
0100
0000
0100
0010
0000
0001
0000
1000
0010
0000
0010
0100
0000
0001
0000
,  // measure 46
0100
0010
0010
0100
0001
0000
1000
0000
0002
0000
0023
0000
0230
0000
2300
0000
,  // measure 47
3010
0000
0100
0001
1000
0000
0010
0000
1000
0000
0100
1000
0001
0000
0010
0000
,  // measure 48
0002
0000
0100
1000
0023
0000
2030
0000
,  // measure 49
3020
0000
0000
0100
0032
1000
0103
0000
,  // measure 50
2000
0000
0010
0001
3200
0000
0302
0000
,  // measure 51
0203
0000
0000
0010
2300
0001
3010
0000
,  // measure 52
0002
0000
0103
0100
0020
0000
2030
0000
,  // measure 53
3002
0000
0003
1010
0100
0011
0100
0000
;

//---------------dance-single - ----------------
#NOTES:
     dance-single:
     :
     Medium:
     5:
     0.257111,0.296515,0.013791,0.165497,0.013791,235.000000,2.000000,24.000000,0.000000,0.000000,0.000000,0.257111,0.296515,0.013791,0.165497,0.013791,235.000000,2.000000,24.000000,0.000000,0.000000,0.000000:
0000
0000
0000
0000
,
0000
0000
0000
0000
,
0001
0100
0010
1000
,
0001
0010
0001
1000
,
0100
1000
0100
0000
1000
0100
1000
0000
,
0010
0010
0010
0000
1000
0001
0010
0000
,
0001
0100
0001
0000
0100
0001
0100
0000
,
0010
0010
0010
0000
0100
0001
1000
0000
,
0010
0000
1001
0001
0000
0000
1001
1000
,
0020
0230
0302
1003
,
0001
0001
0100
0000
0010
0010
1000
0000
,
0001
0000
0000
0000
,
1000
0000
0000
0001
0000
0000
1000
0000
0020
0000
0000
0000
0230
0000
0000
0000
,
0301
1000
0001
0100
0100
0100
0100
0000
,
0001
0000
0000
1000
0000
0000
0001
0000
0200
0000
0000
0000
0320
0000
0000
0000
,
1030
0001
1000
0010
0010
0010
0010
0000
,
1000
0000
0010
0000
0010
0100
0001
0000
,
0001
1000
0100
0000
2000
0000
3002
0000
,
0013
0000
0001
1000
0010
0000
0010
0100
,
0001
0000
0100
0001
2000
0000
3002
0000
,
0103
0100
0010
0000
1000
0000
0001
0000
,
2000
0000
3100
0000
,
1000
1000
0100
0000
1000
0000
0001
0010
,
0002
0000
0103
0000
,
0001
0000
1000
0000
,
0010
0000
0010
0100
,
0010
0000
1000
0000
,
0001
0000
1000
0100
,
0010
0010
0001
1000
,
0020
0000
0030
0000
,
0010
0010
1000
0001
,
0200
0000
0300
0000
,
0001
0010
0001
1000
,
0010
0010
0100
0000
,
0010
0010
0010
0000
1000
0000
0001
0000
,
0100
0000
0001
1000
,
0001
0000
0000
1000
0000
0000
0001
0000
0200
0000
0000
0000
0320
0000
0000
0000
,
1030
0001
1000
0100
0100
0100
0100
0000
,
1000
0000
0000
0001
0000
0000
1000
0000
0020
0000
0000
0000
0230
0000
0000
0000
,
0301
1000
0001
0100
0100
0100
0100
0000
,
0001
0100
0001
0100
0010
0000
0010
0000
,
1000
0000
0001
0001
0010
0000
0001
0000
,
1000
0100
1000
0100
0010
0000
0100
0000
,
1000
0000
0010
0010
1000
0000
0001
0000
,
0100
0100
0010
0010
0100
0000
0001
0000
,
1000
0000
0100
0010
0001
0000
1000
0000
,
0010
0010
0100
0100
0010
0000
1000
0000
,
0001
0000
0010
0001
1000
0000
0100
0000
,
2000
0100
0010
0100
,
0002
3003
0001
1000
,
0002
0100
1000
0100
,
2000
3003
1000
0001
,
1000
0000
0010
0010
0010
0000
0100
0000
,
0002
0000
0000
0100
0100
0100
0103
0000
;

//---------------dance-single - ----------------
#NOTES:
     dance-single:
     :
     Easy:
     3:
     0.164512,0.203854,0.034478,0.075853,0.000000,151.000000,5.000000,11.000000,0.000000,0.000000,0.000000,0.164512,0.203854,0.034478,0.075853,0.000000,151.000000,5.000000,11.000000,0.000000,0.000000,0.000000:
0000
0000
0000
0000
,
0000
0000
0000
0000
,
0010
0000
1000
0000
,
0001
0000
0100
0000
,
0001
0001
1000
1000
,
0010
0000
0010
0000
,
1000
1000
0001
0001
,
0010
0000
0010
0000
,
0000
0000
0001
0001
0000
0000
1000
1000
,
0000
0010
0100
0000
,
0001
0001
0010
0010
,
0100
0000
0000
0000
,
1001
0000
1000
0001
,
0100
0000
0000
0000
0010
0010
0010
0000
,
0010
0000
1000
0001
,
0010
0000
0000
0000
0001
0001
0001
0000
,
0001
0000
1000
0000
,
0010
1000
0001
0100
,
0010
0000
1000
0000
,
0001
0010
0100
1000
,
0001
0000
1000
0000
,
0010
0100
0001
1000
,
0010
0000
1000
0000
,
0001
1000
0100
0000
,
2002
3003
1000
0000
,
0001
0000
0100
0000
,
0010
0000
1000
0000
,
0001
0000
0010
0000
,
0001
1000
0010
0100
,
0002
0003
1000
0000
,
0001
0010
0100
1000
,
0020
0030
1000
0000
,
0001
1000
0010
0010
,
0200
0300
0001
0000
,
0001
1000
0100
0100
,
1000
0000
0000
0000
,
1001
0000
0010
1000
,
0100
0000
0000
0000
1000
1000
1000
0000
,
1001
0000
0001
0010
,
0100
0000
0000
0000
0010
0010
0010
0000
,
0010
0001
0100
0010
,
1000
0001
1000
0000
,
0010
1000
0100
0010
,
0001
1000
0001
0000
,
1000
0010
0100
0001
,
1000
0100
1000
0000
,
0001
1000
0010
0100
,
0001
0010
0001
0000
,
2000
3000
0100
0100
,
0020
0030
0001
0000
,
0002
0003
0100
0100
,
0020
0030
1000
0000
,
2002
0000
0000
0000
,
3003
0000
0000
0000
0010
0010
0010
0000
;

//---------------dance-single - ----------------
#NOTES:
     dance-single:
     :
     Beginner:
     2:
     0.105406,0.129725,0.020687,0.000000,0.000000,104.000000,3.000000,0.000000,0.000000,0.000000,0.000000,0.105406,0.129725,0.020687,0.000000,0.000000,104.000000,3.000000,0.000000,0.000000,0.000000,0.000000:
0000
0000
0000
0000
,
0000
0000
0000
0000
,
1000
0000
1000
0000
,
0010
0000
0000
0000
,
0100
0100
0000
0000
,
0001
0000
0001
0000
,
1000
1000
0000
0000
,
0100
0000
0100
0000
,
0000
0010
0000
0010
,
0010
0000
0001
0000
,
0000
0100
0000
0100
,
0100
0000
0000
0000
,
1001
0000
1000
0000
,
0001
0000
0100
0100
,
0100
0000
0001
0000
,
1000
0000
0010
0010
,
0010
0000
0000
0000
,
1000
1000
1000
0000
,
0100
0000
0000
0000
,
0010
0010
0010
0000
,
0001
0000
0000
0000
,
0100
0100
0100
0000
,
0001
0000
0000
0000
,
1000
0000
1000
0000
,
0010
0000
0000
0000
,
0100
0000
0100
0000
,
0001
0000
0000
0000
,
1000
0000
1000
0000
,
0010
0010
0010
0010
,
0010
0000
0000
0000
,
0100
0100
0100
0100
,
0100
0000
0000
0000
,
0001
0001
0001
0001
,
0001
0000
0000
0000
,
1000
1000
1000
1000
,
1000
0000
0000
0000
,
1001
0000
1000
0000
,
0010
0000
0100
0100
,
0100
0000
0001
0000
,
1000
0000
0010
0010
,
0010
0000
0000
0000
,
1000
1000
1000
0000
,
0001
0000
0000
0000
,
1000
1000
1000
0000
,
0100
0000
0000
0000
,
1000
1000
1000
0000
,
0001
0000
0000
0000
,
0001
0001
0001
0000
,
0100
0000
0100
0000
,
0010
0000
0000
0000
,
1000
0000
1000
0000
,
0001
0000
0000
0000
,
1000
0000
0000
0000
,
0001
0000
0000
0110
;

//---------------dance-double - ----------------
#NOTES:
     dance-double:
     :
     Challenge:
     8:
     0.450190,0.518901,0.199975,0.317202,0.189632,382.000000,29.000000,46.000000,0.000000,0.000000,0.000000,0.450190,0.518901,0.199975,0.317202,0.189632,382.000000,29.000000,46.000000,0.000000,0.000000,0.000000:
00000000
00000000
00000000
00000000
,
00000000
00000000
00000000
00000000
,
00000001
00000000
00000000
00000100
00000001
00000000
00001000
00000000
00000100
00000000
00000000
00001000
00000100
00000000
00010000
00000000
,
00001000
00000000
00000000
00010000
00001000
00000000
01000000
00000000
00010000
00000000
00000000
01000000
00010000
00000000
10000000
00000000
,
01000000
00000000
00100000
01000000
00000000
00000000
00100000
01000000
00100000
00000000
00010000
00000000
20000000
00000000
00000000
00000000
,
30100000
01000000
00020000
00000000
00130000
00001000
00020000
00000000
,
00030100
00001000
00000000
00000010
00000000
00000000
00000100
00000000
00000100
00000000
00000001
00000000
00001000
00000000
00000000
00000000
,
00000001
00000100
00000020
00000000
00001030
00000100
00020000
00000000
,
00031000
00100000
00000000
00100000
00010000
00000000
10010000
00000000
00000000
10000000
00000000
00100000
01000000
00000000
10010000
00000000
,
00010000
00000000
01000000
00000000
00001000
00000000
00010000
00000000
00000200
00000000
00000000
00000000
00000310
00000000
00000001
00000010
,
00000001
00000000
00001000
00000000
00001010
00000000
00000000
00001000
00000100
00000000
00010000
00000000
00010100
00000000
00000000
00000000
,
00002000
00000000
00013000
00000000
,
00001000
00000000
00000000
00100000
00000000
00000000
00010000
00000000
10000000
00100000
00000000
00100000
00000000
01000000
00010000
00000000
,
10000000
00000000
01000000
00100000
00010000
00000000
11000000
00000000
01010000
00000000
00011000
00000000
00001200
00000000
00000000
00000000
,
00000310
00000000
00000000
00000001
00000000
00000000
00001000
00000000
00000010
00000100
00000000
00000100
00000000
00000001
00001000
00000000
,
00000010
00000000
00001000
00000100
00000010
00000000
00001100
00000000
00011000
00000000
01010000
00000000
21000000
00000000
00000000
00000000
,
30100000
01000000
00010000
00000000
01000000
00000000
00100000
00000000
10000000
01000000
00100000
00000000
00010000
00000000
01000000
00000000
,
00001000
00010000
00000100
00000010
00000002
00000000
00000103
00000010
,
00000100
00000001
00000010
00000000
00000100
00000000
00001000
00000000
00000010
00000100
00001000
00000000
00000100
00000000
00000001
00000000
,
00001000
00000100
00010000
00001000
00100000
00010000
20000000
00000000
,
30100000
01000000
00010000
00000000
01000000
00000000
00100000
00000000
10000000
00010000
00100000
00000000
00010000
00000000
01000000
00000000
,
00001000
00001000
00010000
00010000
00000200
00000010
00002300
00000000
,
00003010
00000100
00000001
00000000
00000100
00000000
00000010
00000000
00001000
00000100
00010000
00000000
00001000
00000000
00010000
00000000
,
00000100
00100000
00001000
00100000
00020000
00000000
01030000
00100000
,
20000000
01000000
00010000
30001000
,
00002000
00000000
00010000
00000000
01000000
01000000
01003000
00000000
,
00001000
00010000
00000100
00000000
00001000
00000010
00000100
00000000
,
00000002
00000000
00000100
00000000
00001000
00001000
00001003
00000000
,
00000001
00000100
00001000
00010000
00100000
10000000
01000000
00010000
,
00002000
00000000
00000000
00000000
00013000
00100000
10000000
00000000
,
00100000
10000000
01000000
00010000
00001000
00000010
00000001
00000100
,
00000020
00000000
00001000
00000000
00000130
00000100
00000100
00000000
,
00000001
00000100
00001000
00000100
00000001
00000010
00001000
00000010
,
00000001
00000100
00001000
00010000
00100000
10000000
11000000
00000000
,
10000000
01000000
00010000
01000000
10000000
00100000
00010000
00001000
,
00020000
00000000
00030200
00000320
,
00000031
00001000
00001000
00000001
00001000
00000000
00001001
00000000
00000010
00001000
00000000
00000100
00001000
00000000
00000010
00000000
,
00000100
00000000
00000001
00000100
00000010
00000000
00001000
00000000
00000100
00000000
00010100
00000000
00102000
00000000
00000000
00000000
,
00103000
00010000
00010000
00100000
00010000
00000000
10000000
00000000
00100000
01000000
00000000
01000000
00010000
10000000
00100000
00000000
,
10000000
00000000
00010000
01000000
00010000
00000000
00110000
00000000
00011000
00000000
00001100
00000000
00000120
00000000
00000000
00000000
,
00000031
00000010
00000100
00001000
00000010
00000000
00000100
00000000
00000002
00000000
00000100
00000000
00002003
00000000
00000100
00000000
,
00003002
00000010
00000100
00000100
00002003
00000000
00003100
00010000
,
00010100
00001000
00100000
00110000
10010000
10000000
00100000
01000000
,
00010000
01000000
01000000
00100000
10000000
00000000
00010000
00000000
10000000
01000000
01000000
01000000
00100000
00000000
00010000
00000000
,
10010000
00000000
11000000
00000000
00010000
01000000
00010000
00000000
00100000
00000000
00001000
00010000
00000100
00000000
00001000
00000000
,
00000020
00000100
00000230
00000001
00000302
00000000
00001003
00000010
,
00001000
00000100
00010000
00000000
00001000
00000000
00010000
00000000
00000100
00000010
00000001
00000100
00000010
00000000
00001000
00000000
,
00000100
00000000
00010000
00000000
00010000
00001000
00100000
00000000
00010000
00000000
01000000
00000000
00100000
00000000
00000000
00000000
,
20000000
00000000
30100000
00010000
00002000
00000000
00003020
00000000
,
00000230
00000000
00000000
00001000
00010000
00001000
00000320
00000000
,
00000032
00000000
00000103
00001000
00020000
00000000
00230000
00000000
,
00302000
00000000
00000000
00100000
00010000
00203000
20300000
00000000
,
32000000
00000000
03100000
00010000
02000000
00000000
03002000
00000000
,
00023000
00000000
00030000
00011000
00010100
00000110
00010001
00000000
;
