#VERSION:0.82;
#TITLE:Show Me;
#SUBTITLE:;
#ARTIST:Kid Ink feat. Chris Brown;
#TITLETRANSLIT:;
#SUBTITLETRANSLIT:;
#ARTISTTRANSLIT:;
#GENRE:R&B;
#ORIGIN:;
#CREDIT:;
#BANNER:Show Me.png;
#BACKGROUND:Show Me-bg.png;
#PREVIEWVID:;
#JACKET:jacket.png;
#CDIMAGE:;
#DISCIMAGE:;
#LYRICSPATH:;
#CDTITLE:;
#MUSIC:Show Me.ogg;
#OFFSET:-0.002000;
#SAMPLESTART:68.551895;
#SAMPLELENGTH:13.714000;
#SELECTABLE:YES;
#BPMS:0.000=98.000;
#STOPS:;
#DELAYS:;
#WARPS:;
#TIMESIGNATURES:0.000=4=4;
#TICKCOUNTS:0.000=4;
#COMBOS:0.000=1;
#SPEEDS:0.000=1.000=0.000=0;
#SCROLLS:0.000=1.000;
#FAKES:;
#LABELS:0.000=Song Start;
#BGCHANGES:4.000=Show Me.avi=1.000=0=0=1=====,
99999=-nosongbg-=1.000=0=0=0 // don't automatically add -songbackground-
;
#KEYSOUNDS:;
#ATTACKS:
;

//---------------dance-single - ----------------
#NOTEDATA:;
#CHARTNAME:;
#STEPSTYPE:dance-single;
#DESCRIPTION:;
#CHARTSTYLE:;
#DIFFICULTY:Hard;
#METER:8;
#RADARVALUES:0.473311,0.466890,0.065249,0.123247,0.333493,431.000000,9.000000,17.000000,0.000000,0.000000,0.000000,0.000000,0.000000,0.473311,0.466890,0.065249,0.123247,0.333493,431.000000,9.000000,17.000000,0.000000,0.000000,0.000000,0.000000,0.000000;
#CREDIT:Ben Speirs;
#NOTES:
0000
0000
0000
0000
,
0000
0000
0000
0000
,
1000
0000
0000
0000
0100
0000
1000
0001
0000
0000
0000
0000
0000
0000
0001
0000
,
0100
0000
0000
0000
0001
0000
0000
1000
0000
0000
0010
0000
0010
0000
0000
0000
,
1000
0100
1000
0100
0010
0001
0100
0000
,
0001
0000
1000
0001
1000
0000
0100
0000
0010
0000
0001
0000
1000
0000
0000
0000
,
0001
0000
0000
0000
0100
0000
0001
1000
0001
0000
0100
0000
0010
0000
1000
0000
,
0100
0000
0000
0000
1000
0000
0000
0100
0000
0000
0010
0000
0001
0000
0001
0000
,
1000
0010
0000
0000
0100
0010
0100
0010
1000
0000
0010
0000
0100
0000
0001
1000
,
0001
0000
0000
0000
1000
0000
0100
0010
0000
0010
0001
0000
1000
0000
0010
0000
,
0100
0001
0000
0000
1000
0100
1000
0100
0010
0000
0001
0000
1000
0001
1000
0000
,
0010
0010
1000
0001
0200
0010
0320
0000
,
1030
0100
0000
0000
1000
0000
0001
0100
0001
0000
1000
0000
0010
0100
0010
0000
,
1000
0000
0000
0000
0001
0000
1000
0100
0000
1000
0100
0000
1000
0000
0001
0000
,
0100
0000
0100
0000
0001
0010
0001
0000
1000
0010
1000
0000
0001
0000
0000
0000
,
1000
0010
0100
0001
2000
0100
3200
0000
,
0310
0000
0000
0001
0000
0000
0100
0000
0000
0000
0000
0000
0001
0000
1000
0100
,
1000
0000
0000
0001
0000
0000
0010
0000
0000
0000
0001
0000
1000
0000
0010
0000
,
0100
0000
0000
0001
0000
0000
1000
0000
0000
0000
0000
0000
0000
0000
0010
0100
,
0010
0000
0000
0100
0000
0000
0001
0000
0000
0000
1000
0000
0100
0000
1000
0000
,
1001
0000
0001
0000
0100
0000
0010
1000
0000
1000
0100
0000
0010
0000
0001
0000
,
0001
0000
1000
0000
0010
0000
0100
0010
0000
0010
1000
0000
0100
0000
0010
0000
,
0001
0000
1000
0000
0001
0000
0100
0010
0000
0010
1000
0000
0001
0000
1000
0000
,
1000
0000
0100
0000
1000
0000
0001
0100
0000
0100
0010
0000
1000
0000
0001
0000
,
1000
0000
0010
1000
0010
0000
1000
0001
1000
0000
0001
0000
0100
0000
0000
0000
,
0001
1000
0001
1000
0010
0000
0010
0000
1000
0001
1000
0001
0010
0000
0010
0000
,
0001
0000
0000
0000
1000
0000
0100
1000
0001
0000
0100
0001
1000
0000
1000
0000
,
0001
0000
0100
0010
0100
0010
1000
0010
0100
0000
0001
0000
1000
0000
0000
0000
,
0001
0100
0000
0000
0010
0100
0010
0100
0001
0000
0100
0000
0010
0000
1000
0001
,
1000
0000
0000
0000
0001
0000
0010
0100
0000
0100
1000
0000
0001
0000
0100
0000
,
0010
1000
0000
0000
0001
0010
0001
0010
0100
0000
1000
0000
0001
1000
0001
0000
,
0100
0100
0001
1000
0020
0100
0230
0000
,
0301
0010
0000
0000
0001
0000
1000
0010
1000
0000
0001
0000
0100
0010
0100
0000
,
0001
0000
0000
0000
1000
0000
0001
0010
0000
0001
0010
0000
0001
0000
1000
0000
,
0010
0000
0010
0000
1000
0100
1000
0000
0001
0100
0001
0000
1000
0000
0000
0000
,
0001
0100
0010
1000
0002
0010
0023
0000
,
0130
0000
0000
0000
1000
0000
0001
0100
0000
0000
0000
0000
0000
0000
0001
0000
,
1000
0000
0000
0000
0010
0000
0000
1000
0000
0000
1000
0000
0001
0000
0001
0000
,
0010
0000
0000
0000
0001
0000
1000
0100
0000
0000
0000
0000
0000
0000
1000
0000
,
0001
0000
0000
0000
1000
0000
0000
0010
0000
0000
0010
0000
0100
0000
0100
0000
,
0001
0000
0101
0100
0010
1000
0100
0000
,
1000
0000
1100
0100
0010
0001
0100
0000
,
2001
0000
0000
0000
3010
0000
1000
0100
0000
0000
0000
0000
1000
0000
0001
0000
,
0101
0000
0000
0000
1000
0000
0100
1000
0000
1000
0001
0000
0010
0000
0001
0000
,
0101
0000
0100
0000
0010
0000
1000
0100
2000
0000
0000
0000
3001
0000
0000
0000
,
1000
0000
0100
0000
1000
0000
0001
0100
0000
0100
0010
0000
1000
0000
0001
0000
,
0010
0000
0001
0000
1000
0000
0010
0100
0010
0000
0100
0000
0001
0000
1000
0000
,
0200
0000
0000
0000
0310
0000
0001
1000
0000
1000
0001
0000
0100
0000
0000
0000
,
2001
0000
0000
0000
3010
1000
0010
1000
0100
0000
1000
0000
0001
0100
0001
0000
,
2000
0000
0000
0000
3100
0000
1000
0001
1000
0000
0100
0000
0010
0000
0001
0000
,
0200
0000
0000
0000
0301
0000
1000
0001
1000
0000
0010
0000
1000
0000
0001
0000
,
0010
0001
0100
0010
1010
0001
0102
0000
,
1003
0000
0100
1000
0000
0001
0100
0000
0010
0000
1000
0000
0001
0000
0010
0100
,
0010
0000
0001
0010
0000
0100
1000
0000
0001
0000
0100
0000
0010
0000
0010
0000
,
1000
0000
0100
1000
0000
0001
0100
0000
0010
0000
1000
0000
0001
0000
0010
0100
,
0010
0000
0001
0010
0000
0100
1000
0000
0002
0000
0100
0000
2003
0000
0010
0000
,
3000
0000
0000
0000
;

//---------------dance-double - ----------------
#NOTEDATA:;
#CHARTNAME:;
#STEPSTYPE:dance-double;
#DESCRIPTION:;
#CHARTSTYLE:;
#DIFFICULTY:Challenge;
#METER:8;
#RADARVALUES:0.473311,0.466890,0.043499,0.217495,0.297244,421.000000,6.000000,30.000000,0.000000,0.000000,0.000000,0.000000,0.000000,0.473311,0.466890,0.043499,0.217495,0.297244,421.000000,6.000000,30.000000,0.000000,0.000000,0.000000,0.000000,0.000000;
#CREDIT:Ben Speirs;
#NOTES:
00000000
00000000
00000000
00000000
,
00000000
00000000
00000000
00000000
,
00000001
00000000
00000000
00000000
00001000
00000000
00000010
00000100
00000000
00000000
00000000
00000000
00000000
00000000
00000001
00000000
,
00000001
00000000
00000000
00000000
00000100
00000000
00000000
00000010
00000000
00000000
00000010
00000000
00001000
00000000
00001000
00000000
,
00000100
00000000
00010000
00000100
00010000
00001000
00200000
00000000
,
00310000
00000000
10000000
01000000
10000000
00000000
00010000
00000000
01000000
00000000
01000000
00000000
00100000
00000000
10000000
00000000
,
00020000
00000000
00000000
00000000
10030000
00000000
00100000
10000000
00100000
00000000
10000000
00000000
01000000
00000000
01000000
00000000
,
00200000
00000000
00000000
00000000
00310000
00000000
00100000
00001000
00000000
00001000
00100000
00000000
00001000
00000000
00010000
00000000
,
00000200
00000000
00000000
00000000
00001300
00000010
00001000
00000010
00000100
00000000
00000100
00000000
00000010
00001000
00000010
00000000
,
00000200
00000000
00000000
00000000
00000301
00000000
00001000
00000001
00001000
00000000
00000100
00000000
00000010
00000000
00000001
00000000
,
00002000
00000000
00000000
00000000
00003100
00000000
00010000
00000100
00000000
00000100
00010000
00000000
00001000
00000000
00100000
00000000
,
00010000
10000000
00100000
01000000
00020000
10000000
20030000
00000000
,
31000000
00000000
00000000
00000000
10000000
00100000
10000000
00100000
01000000
00000000
01000000
00000000
00100000
10000000
00100000
00000000
,
01000000
00000000
00100000
00000000
01000000
00000000
00010000
00100000
00000000
00100000
00010000
00000000
00100000
01000000
00100000
00000000
,
01000000
00000000
01000000
00000000
00000000
00000000
10000000
00010000
10000000
00000000
01000000
00000000
00100000
00000000
00010000
00000000
,
01000000
01000000
00010000
00100000
00002000
00000000
00023000
00000000
,
00030100
00000000
00000000
00010000
00000000
00000000
00001000
00000000
00000000
00000000
00000000
00000000
00000000
00000000
00010000
00001000
,
00010000
00000000
00000000
00000100
00000000
00000000
00001000
00000000
00000000
00000000
00000100
00000000
00010000
00000000
00010000
00000000
,
00001000
00000000
00000000
00100000
00000000
00000000
00010000
00000000
00000000
00000000
00000000
00000000
00000000
00000000
00100000
00010000
,
00100000
00000000
00000000
00001000
00000000
00000000
00100000
00000000
00000000
00000000
00001000
00000000
00010000
00000000
00000100
00000000
,
00001100
00000000
00000000
00000000
00000001
00000000
00000100
00000010
00000100
00000000
00000001
00000000
00001000
00000000
00001000
00000000
,
00000010
00000000
00001000
00000100
00001000
00000100
00000010
00000000
00000010
00000000
00000001
00000000
00001000
00000000
00001000
00000000
,
00000020
00000000
00000000
00000030
00000100
00000000
00000001
00001000
00000001
00000000
00000100
00000000
00000010
00000000
00001000
00000000
,
00000100
00000000
00000000
00000000
00010000
00000000
00001000
00010000
00000000
00010000
00001000
00000000
00100000
00000000
00010000
00000000
,
01000000
00000000
00100000
01000000
00100000
00000000
10000000
00100000
10000000
00000000
01000000
00000000
10000000
00000000
00000000
00000000
,
00010000
01000000
00010000
01000000
00100000
00000000
00100000
00000000
10000000
01000000
10000000
01000000
00100000
00000000
00100000
00000000
,
10010000
00000000
00000000
00000000
10000000
00000000
00100000
01000000
00100000
00000000
10000000
01000000
10000000
00000000
00010000
00000000
,
00100000
00100000
00010000
00100000
00001000
00001000
00100000
00001000
,
00011000
00000000
00000000
00000000
00001000
00100000
00001000
00100000
00010000
00000000
00010000
00000000
00100000
00001000
00100000
00000000
,
00020000
00000000
00000000
00000000
00130000
00000000
00010000
10000000
00010000
00000000
10000000
00000000
01000000
00000000
00100000
00000000
,
00020000
00000000
00000000
00000000
01030000
00000000
00010000
01000000
00010000
00000000
01000000
00000000
00100000
01000000
00100000
00000000
,
10000000
01000000
10000000
00010000
00200000
00000000
00302000
00000000
,
00013000
00000000
00000000
00000000
00000100
00010000
00000100
00010000
00001000
00000000
00001000
00000000
00010000
00000100
00010000
00000000
,
00000100
00000000
00001000
00000000
00000100
00000000
00010000
00001000
00010000
00000000
00000100
00000000
00001000
00000000
00000100
00000000
,
00000020
00000000
00000000
00000000
00000031
00000000
00001000
00000001
00001000
00000000
00000010
00000000
00000100
00000000
00000001
00000000
,
00000001
00000100
00000010
00001000
00000200
00000000
00020300
00000000
,
00031000
00000000
00000000
00000000
00010000
00000000
00000100
00001000
00000000
00000000
00000000
00000000
00000000
00000000
00000100
00000000
,
00000100
00000000
00000000
00000000
00001000
00000000
00000000
00000010
00000000
00000000
00000010
00000000
00000100
00000000
00000100
00000000
,
00000001
00000000
00000000
00000000
00001000
00000000
00000100
00001000
00000000
00000000
00000000
00000000
00000000
00000000
00000001
00000000
,
00000001
00000000
00000000
00000000
00000100
00000000
00000000
00000010
00000000
00000000
00000010
00000000
00001000
00000000
00000100
00000000
,
00010000
00000000
00011000
00001000
00100000
00010000
02000000
00000000
,
03100000
10000000
00100000
10000000
01000000
00100000
00020000
00000000
,
20030000
00000000
00000000
00000000
30100000
00000000
00000000
01000000
00010000
01000000
00010000
01000000
00000000
00100000
10000000
00000000
,
02000000
00000000
03100000
00010000
00100000
00001000
00010000
00000000
,
00011000
00000000
00000000
00000000
00000100
00000000
00001000
00000100
00000020
00000000
00000000
00000000
00000032
00000000
00000000
00000000
,
00000103
00000000
00000000
00000000
00000010
00000000
00001000
00000010
00001000
00000000
00000001
00000000
00000010
00000001
00000010
00000000
,
00000002
00000000
00000000
00000000
00001003
00000000
00000100
00001000
00000010
00000000
00000010
00000000
00000100
00000000
00000000
00000000
,
00000001
00000000
00000100
00000000
00000010
00000000
00001000
00000100
00000000
00000100
00001000
00000000
00000100
00000000
00010000
00000000
,
00010100
00000000
00000000
00000000
00000100
00001000
00000100
00001000
00000100
00000000
00000010
00000000
00000100
00001000
00000100
00000000
,
00000010
00000000
00000001
00000000
00001000
00000000
00000010
00000100
00000000
00000100
00000010
00000000
00001000
00000000
00000001
00000000
,
00000200
00000000
00000000
00000000
00000301
00001000
00000001
00001000
00000001
00000000
00000100
00000000
00000010
00001000
00000010
00000000
,
00001000
00000100
00010000
00001000
00200000
00000000
00320000
00000000
,
10030000
00000000
00100000
01000000
00000000
00010000
10000000
00000000
00100000
00000000
10000000
00000000
01000000
00000000
00100000
00010000
,
00100000
00000000
01000000
00100000
00000000
00010000
00100000
00000000
00001000
00000000
00100000
00000000
00001000
00000000
00010000
00000000
,
00000100
00000000
00010000
00000100
00000000
00001000
00000100
00000000
00000010
00000000
00000001
00000000
00001000
00000000
00000010
00000100
,
00000010
00000000
00001000
00000100
00000000
00010000
00001000
00000000
00200000
00000000
00000000
00000000
00000200
00000000
00000000
00000000
,
00300300
00000000
00000000
00000000
;

//---------------dance-single - ----------------
#NOTEDATA:;
#CHARTNAME:;
#STEPSTYPE:dance-single;
#DESCRIPTION:;
#CHARTSTYLE:;
#DIFFICULTY:Medium;
#METER:5;
#RADARVALUES:0.331421,0.345093,0.094248,0.202996,0.039874,279.000000,13.000000,28.000000,0.000000,0.000000,0.000000,0.000000,0.000000,0.331421,0.345093,0.094248,0.202996,0.039874,279.000000,13.000000,28.000000,0.000000,0.000000,0.000000,0.000000,0.000000;
#CREDIT:Ben Speirs;
#NOTES:
0000
0000
0000
0000
,
0000
0000
0000
0000
,
0001
0000
0100
0100
0000
0000
0000
0000
,
0001
0000
1000
0000
0100
0100
0100
0000
,
2000
0000
3100
0000
1000
0001
1000
0000
,
0000
0000
0001
0000
0100
0001
0100
0000
,
0020
0000
1030
0000
0001
0010
0001
1000
,
0200
0000
0300
0000
1000
0001
1000
0000
,
0010
0000
1000
0100
0010
0010
0100
1000
,
1000
0000
0001
0000
1000
0100
1000
0000
,
0002
0000
1003
0000
0010
1000
0001
0000
,
1000
0100
1000
0000
1100
0000
0101
0000
,
0100
0000
0001
0010
0100
0100
0010
0001
,
0001
0000
1000
0000
0001
0010
0001
0000
,
2000
0000
3001
0000
0100
0001
1000
0000
,
0001
0010
0001
0000
0011
0000
1010
0000
,
0001
0000
0000
0001
0000
0000
0001
0000
0000
0000
0000
0000
0100
0000
0000
0000
,
0010
0000
0000
0010
0000
0000
0010
0000
0000
0000
0000
0000
1000
0000
0100
0000
,
1000
0000
0000
1000
0000
0000
1000
0000
0000
0000
0000
0000
0001
0000
0000
0000
,
0100
0000
0000
0100
0000
0000
0100
0000
0000
0000
0010
0000
1000
0000
0010
0000
,
0200
0000
0301
1000
0100
0000
1000
0000
,
0001
0000
1000
0000
0100
0010
0001
0000
,
0100
0100
0010
0010
0100
0001
1000
0000
,
0200
0000
0300
0000
1000
0100
1000
0000
,
0012
1003
0010
0010
,
1000
0001
1000
0001
0100
0100
0010
0010
,
2000
3100
0000
1001
,
0001
0100
0001
0000
1000
0100
1000
0000
,
0100
0000
0001
0010
0100
0100
0010
0001
,
0001
0000
1000
0000
0001
0010
0001
0000
,
2000
0000
3001
0000
0100
0001
1000
0000
,
0001
0010
0001
0000
0011
0000
1010
0000
,
0010
0000
1000
0100
0010
0010
0100
1000
,
1000
0000
0001
0000
1000
0100
1000
0000
,
0002
0000
1003
0000
0010
1000
0001
0000
,
1000
0100
1000
0000
1100
0000
0101
0000
,
1000
0000
0000
0000
0001
0000
0000
0100
0000
0000
0000
0000
0000
0000
0010
0000
,
0010
0000
0000
0000
1000
0000
0000
1000
0000
0000
1000
0000
0100
0000
0000
0000
,
0010
0000
0000
0000
0001
0000
0000
1000
0000
0000
0000
0000
0000
0000
0010
0000
,
0100
0000
0000
0000
0001
0000
0000
0001
0000
0000
0001
0000
0100
0000
0100
0000
,
0010
0000
1000
0100
2000
0000
3002
0000
,
0103
0000
0001
0010
0100
1000
0002
0000
,
2003
0000
3010
0000
1000
0001
1000
0000
,
0002
0000
0103
0000
0000
0000
0100
0100
,
2001
3010
0002
0103
,
0001
1002
0023
0230
,
1300
0000
0001
1000
0001
1000
0200
0000
,
1300
0000
0010
0000
1000
0001
0100
0000
,
1001
0000
0001
0010
0100
0100
0010
0001
,
0002
0000
1003
0000
0001
0100
0001
0000
,
2000
0000
3010
0100
0010
0000
1000
0000
,
0001
0100
0010
1000
0002
0000
2003
0000
,
3100
0000
0000
0100
0000
0000
1000
0000
0000
0000
0000
0000
0001
0000
0100
0000
,
0100
0000
0000
0100
0000
0000
0010
0000
0000
0000
0010
0000
1000
0000
0001
0000
,
0100
0000
0000
0100
0000
0000
0001
0000
0000
0000
0000
0000
1000
0000
0100
0000
,
0100
0010
0001
1000
0020
0000
0230
0000
,
0300
0000
0000
0000
;

//---------------dance-single - ----------------
#NOTEDATA:;
#CHARTNAME:;
#STEPSTYPE:dance-single;
#DESCRIPTION:;
#CHARTSTYLE:;
#DIFFICULTY:Easy;
#METER:3;
#RADARVALUES:0.197817,0.223295,0.021750,0.181246,0.000000,163.000000,3.000000,25.000000,0.000000,0.000000,0.000000,0.000000,0.000000,0.197817,0.223295,0.021750,0.181246,0.000000,163.000000,3.000000,25.000000,0.000000,0.000000,0.000000,0.000000,0.000000;
#CREDIT:Ben Speirs;
#NOTES:
// measure 0
0000
0000
0000
0000
,  // measure 1
0000
0000
0000
0000
,  // measure 2
1000
0001
0100
0000
,  // measure 3
0010
0000
0000
0000
,  // measure 4
0100
0100
0001
1000
,  // measure 5
0100
0000
1000
1000
,  // measure 6
0010
0000
1000
0000
,  // measure 7
0002
0003
2000
3000
,  // measure 8
0001
0100
0010
0010
,  // measure 9
0200
0300
0001
0001
,  // measure 10
1000
1000
0100
0000
,  // measure 11
1000
0100
0010
0010
,  // measure 12
0001
1000
2000
3000
,  // measure 13
0100
1000
0010
0010
,  // measure 14
0100
0000
0001
0001
,  // measure 15
1000
0001
0200
0300
,  // measure 16
0001
0001
0100
0000
,  // measure 17
1000
1000
0100
0000
,  // measure 18
0001
0001
0010
0000
,  // measure 19
1000
1000
0010
0000
,  // measure 20
2000
3000
0100
0100
,  // measure 21
0020
0030
0010
0010
,  // measure 22
0002
0003
0001
0001
,  // measure 23
0100
0100
0010
1000
,  // measure 24
0002
0003
1000
0000
,  // measure 25
0001
1000
0001
1000
,  // measure 26
0020
0030
1000
0000
,  // measure 27
0001
0001
1000
0000
,  // measure 28
1001
0000
1000
1000
,  // measure 29
0100
0010
0100
1000
,  // measure 30
0020
0030
1000
1000
,  // measure 31
0001
0100
0002
0003
,  // measure 32
1000
0001
0100
0100
,  // measure 33
0002
0003
1000
0100
,  // measure 34
0200
0300
1000
0000
,  // measure 35
0010
1000
0001
0001
,  // measure 36
0200
0300
0010
0000
,  // measure 37
2000
3000
0100
0000
,  // measure 38
0020
0030
0001
0000
,  // measure 39
0001
1000
0010
0010
,  // measure 40
1001
0000
0100
0100
,  // measure 41
0010
0000
1000
0100
,  // measure 42
0020
0030
0001
1000
,  // measure 43
0010
0010
0000
0100
,  // measure 44
0002
0003
0100
0100
,  // measure 45
0020
0030
1000
0001
,  // measure 46
1000
0000
0100
0000
,  // measure 47
1000
0100
0010
0000
,  // measure 48
1001
0000
0001
0001
,  // measure 49
1000
0000
0010
1000
,  // measure 50
0100
0100
0010
0000
,  // measure 51
0001
0010
0100
0100
,  // measure 52
2000
3000
1000
1000
,  // measure 53
0002
0003
0001
0001
,  // measure 54
0200
0300
0100
0100
,  // measure 55
0010
0010
2000
3002
,  // measure 56
0003
0000
0000
0000
;

//---------------dance-single - ----------------
#NOTEDATA:;
#CHARTNAME:;
#STEPSTYPE:dance-single;
#DESCRIPTION:;
#CHARTSTYLE:;
#DIFFICULTY:Beginner;
#METER:1;
#RADARVALUES:0.104605,0.141463,0.043499,0.000000,0.000000,95.000000,6.000000,0.000000,0.000000,0.000000,0.000000,0.000000,0.000000,0.104605,0.141463,0.043499,0.000000,0.000000,95.000000,6.000000,0.000000,0.000000,0.000000,0.000000,0.000000,0.000000;
#CREDIT:Ben Speirs;
#NOTES:
// measure 0
0000
0000
0000
0000
,  // measure 1
0000
0000
0000
0000
,  // measure 2
0010
0000
0000
0000
,  // measure 3
0010
0000
0000
0000
,  // measure 4
1001
0000
1000
0000
,  // measure 5
0100
0000
0000
0000
,  // measure 6
1000
0000
0000
0000
,  // measure 7
0001
0001
0000
0000
,  // measure 8
0100
0000
0010
0000
,  // measure 9
0100
0000
0000
0001
,  // measure 10
0001
0000
0000
1000
,  // measure 11
1000
0000
0001
0000
,  // measure 12
0010
0000
0100
0000
,  // measure 13
0010
0000
0000
0001
,  // measure 14
0001
0000
0000
1000
,  // measure 15
1000
0000
0001
0000
,  // measure 16
0100
0000
0000
0000
,  // measure 17
0010
0000
0000
0000
,  // measure 18
1000
0000
0000
0000
,  // measure 19
0001
0000
0000
0000
,  // measure 20
1000
0000
1000
0000
,  // measure 21
0001
0000
0001
0000
,  // measure 22
0100
0000
0000
0000
,  // measure 23
0100
0000
0000
0000
,  // measure 24
0001
0000
0001
0000
,  // measure 25
1000
0000
1000
0000
,  // measure 26
0010
0000
0000
0000
,  // measure 27
0010
0000
0000
0000
,  // measure 28
1001
0000
1000
0000
,  // measure 29
0001
0000
0001
0000
,  // measure 30
0100
0000
0000
0000
,  // measure 31
0010
0010
0010
0000
,  // measure 32
0010
0000
0010
0000
,  // measure 33
1000
0000
1000
0000
,  // measure 34
0001
0000
0001
0000
,  // measure 35
0100
0000
0100
0100
,  // measure 36
0100
0000
0000
0000
,  // measure 37
0001
0000
0000
0000
,  // measure 38
1000
0000
0000
0000
,  // measure 39
0100
0000
0000
0000
,  // measure 40
1001
0000
1000
1000
,  // measure 41
0000
0000
0001
0001
,  // measure 42
0001
0000
0000
0000
,  // measure 43
0100
0100
0000
0000
,  // measure 44
1001
0000
0000
0000
,  // measure 45
1000
0000
0010
0010
,  // measure 46
0010
0000
0000
0000
,  // measure 47
1000
0000
0001
0000
,  // measure 48
1001
0000
1000
1000
,  // measure 49
0000
0000
0001
0001
,  // measure 50
0001
0000
0100
0000
,  // measure 51
0010
0000
0010
0000
,  // measure 52
1001
0000
0001
0001
,  // measure 53
0000
0000
1000
1000
,  // measure 54
1000
0000
0001
0000
,  // measure 55
0100
0000
0001
0001
;
