#TITLE:Cake By The Ocean;
#SUBTITLE:;
#ARTIST:DNCE;
#TITLETRANSLIT:;
#SUBTITLETRANSLIT:;
#ARTISTTRANSLIT:;
#GENRE:But they'd get sandy..;
#CREDIT:;
#BANNER:Cake By The Ocean.png;
#BACKGROUND:Cake By The Ocean-bg.png;
#LYRICSPATH:;
#CDTITLE:;
#MUSIC:Cake By The Ocean.ogg;
#OFFSET:-0.005000;
#SAMPLESTART:40.288902;
#SAMPLELENGTH:13.714000;
#SELECTABLE:YES;
#BPMS:0.000000=119.000000
;
#STOPS:188.000000=0.252000,
188.500000=0.252000,
189.000000=0.252000,
189.500000=0.252000
;
#BGCHANGES:8.000=Cake By The Ocean.avi=1.000=0=0=1=====,
99999=-nosongbg-=1.000=0=0=0 // don't automatically add -songbackground-
;
#KEYSOUNDS:;
#ATTACKS:;

//---------------dance-single - ----------------
#NOTES:
     dance-single:
     :
     Hard:
     8:
     0.559324,0.548722,0.377193,0.105614,0.237632,455.000000,50.000000,14.000000,0.000000,0.000000,0.000000,0.559324,0.548722,0.377193,0.105614,0.237632,455.000000,50.000000,14.000000,0.000000,0.000000,0.000000:
// measure 0
0000
0000
0000
0000
,  // measure 1
0000
0000
0000
0000
,  // measure 2
0000
0000
0000
0000
,  // measure 3
0000
0000
0000
0000
,  // measure 4
0201
0000
0320
0000
1030
0100
0010
0000
,  // measure 5
0001
1000
0001
0100
0010
0010
1000
0000
,  // measure 6
2100
0000
3020
0000
0130
0001
1000
0000
,  // measure 7
0001
0100
0001
1000
0100
0100
0010
0000
,  // measure 8
0011
0000
0000
0000
0000
0000
1000
0000
0100
0000
0000
0100
0000
0000
0010
0000
,  // measure 9
0001
1000
0001
0001
0100
0100
0010
1000
,  // measure 10
1020
0000
0130
0000
0001
1000
1002
0000
,  // measure 11
0023
0000
0130
0000
1000
0100
1001
0000
,  // measure 12
0001
0000
0100
0000
0100
0000
0010
1000
0010
0000
1000
0001
0000
0000
0010
0000
,  // measure 13
0010
0000
0001
1000
0001
0000
1000
0010
0000
0000
1000
0000
0101
0000
0000
0000
,  // measure 14
1000
0000
0100
0000
0100
0000
0010
0000
0001
0000
1000
0001
0000
0000
0100
0000
,  // measure 15
0100
0000
0010
0000
1000
0000
0001
1000
0000
0000
0100
0000
0010
0000
0001
0000
,  // measure 16
0100
0000
0010
1000
0010
0000
0100
0001
0100
0000
0001
1000
0000
0000
0100
0010
,  // measure 17
0100
0000
1000
0001
1000
0000
0001
0100
0000
0000
0001
0000
1010
0000
0000
0000
,  // measure 18
0001
0000
0000
0000
0000
0000
1000
0000
0100
0000
0010
0001
0010
0000
0001
0000
,  // measure 19
1000
0000
0000
0000
0000
1001
0100
1001
,  // measure 20
1010
0000
0000
0010
0100
0000
0001
0000
1000
0000
1000
0000
0100
0000
0010
0000
,  // measure 21
0001
0000
0100
0000
0010
0000
1000
0001
1000
0000
0010
0000
0100
0000
0001
0000
,  // measure 22
0101
0000
0000
0100
0010
0000
1000
0000
0100
0000
0100
0000
0010
0001
0010
0000
,  // measure 23
0001
0000
1000
0100
0001
0100
1000
0010
,  // measure 24
0110
0000
0000
0100
0010
0000
1000
0000
0100
0000
0100
0000
0010
0000
0001
0000
,  // measure 25
1000
0000
0010
0000
0100
0000
0001
1000
0001
1000
0001
1000
0010
1000
0010
1000
,  // measure 26
0001
0000
0100
0010
1000
1000
0100
0010
,  // measure 27
0011
0000
1100
0100
0110
0010
1001
0000
,  // measure 28
0101
0000
0000
0100
0010
0000
1000
0000
0001
0000
0001
0000
0010
0000
0100
0000
,  // measure 29
1000
0000
0010
0000
0100
0000
0001
1000
0001
0000
0100
0000
0010
0000
1000
0000
,  // measure 30
1010
0000
0000
0010
0100
0000
0001
0000
0010
0000
0010
0000
0100
1000
0100
0000
,  // measure 31
1000
0000
0001
0010
1000
0010
0001
0100
,  // measure 32
0110
0000
0000
0010
0100
0000
0001
0000
0010
0000
0010
0000
0100
0000
1000
0000
,  // measure 33
0001
0000
0100
0000
0010
0000
1000
0001
1000
0001
1000
0001
0100
0001
0100
0001
,  // measure 34
1000
0000
0010
0100
0001
0001
0010
0100
,  // measure 35
1100
0000
0011
0010
0110
0100
1001
0000
,  // measure 36
0201
0000
1000
0000
0010
0000
0301
2010
,  // measure 37
0000
0000
0000
0000
3001
0000
0100
0010
0100
0010
1000
0010
1000
0010
1000
0001
,  // measure 38
0100
0000
0001
1000
0100
0100
0010
0001
,  // measure 39
0011
0000
1100
0001
0101
0100
1001
0000
,  // measure 40
1020
0000
0001
0000
0100
0000
1030
0102
,  // measure 41
0000
0000
0000
0000
1003
0000
0010
0100
0010
0100
0001
0100
0001
0100
0001
1000
,  // measure 42
0010
0000
1000
0001
0010
0010
0100
1000
,  // measure 43
1100
0000
0011
1000
1010
0010
1001
0000
,  // measure 44
0100
0000
0000
0000
0000
0000
0010
0000
0010
0000
1000
0100
1000
0000
0001
0000
,  // measure 45
0100
0000
0000
0000
0000
0000
0001
0000
0001
0000
1000
0100
1000
0000
0100
0000
,  // measure 46
0010
0000
0000
0000
0000
0000
0001
0000
0001
0000
0010
0100
0010
0000
0001
0000
,  // measure 47
2000
3200
0320
0031
1001
0000
1000
0001
,  // measure 48
0100
0000
0010
1000
0010
0000
0100
0000
0001
0000
0000
0000
1000
0000
0100
0000
,  // measure 49
0100
0010
0001
1000
1010
0000
0001
0100
,  // measure 50
0010
0000
1000
0100
1000
0000
0010
0000
0100
0000
0000
0000
0001
0000
0100
0000
,  // measure 51
1000
0001
0010
1000
1010
0000
0001
1000
,  // measure 52
0010
0000
0100
0001
0100
0000
0010
0000
1000
0000
0000
0000
0100
0000
0010
0001
,  // measure 53
0010
0001
1000
0001
1000
0100
1000
0100
0010
0000
0000
0000
0001
0000
1000
0000
,  // measure 54
0010
0010
0100
0001
1001
0000
1010
0010
,  // measure 55
0101
0000
0100
0000
1001
0000
0000
0000
1100
0000
0100
1000
0001
0000
0100
0000
,  // measure 56
0010
0010
1000
0001
0100
0000
0001
1000
,  // measure 57
0010
0000
0100
0001
0100
0000
0010
0000
1010
0000
1000
0010
0100
0000
0001
0000
,  // measure 58
1000
1000
0100
0010
0001
0000
1000
0100
,  // measure 59
0001
1000
0010
0001
0011
0000
1000
0001
,  // measure 60
1000
0000
1000
0000
0010
0000
0100
0000
0001
0000
0000
0000
0010
0000
0100
1000
,  // measure 61
0100
1000
0001
1000
0001
0010
0001
0010
0100
0000
0000
0000
1000
0000
0001
0000
,  // measure 62
0100
0100
0010
1000
1001
0000
0101
0100
,  // measure 63
1010
0010
1001
0000
0000
0000
0000
0000
;

//---------------dance-double - ----------------
#NOTES:
     dance-double:
     :
     Challenge:
     8:
     0.520527,0.596437,0.316842,0.294211,0.132018,402.000000,42.000000,39.000000,0.000000,0.000000,0.000000,0.520527,0.596437,0.316842,0.294211,0.132018,402.000000,42.000000,39.000000,0.000000,0.000000,0.000000:
00000000
00000000
00000000
00000000
,
00000000
00000000
00000000
00000000
,
00000000
00000000
00000000
00000000
,
00000000
00000000
00000000
00000000
,
10000000
01000000
20000000
00000000
30010000
00000000
01000000
00000000
,
00100000
10000000
01000000
01000000
00100000
00010000
01000000
01000000
,
00020000
00000000
20030000
00000000
30100000
01000000
00100000
00000000
,
10000000
01000000
00100000
00010000
01000000
00010000
00100000
00001000
,
00020000
00000000
00030200
00000000
00001300
00000010
00000100
00000000
,
00000001
00001000
00000010
00000010
00000100
00000001
00000010
00000010
,
00000200
00000000
00002300
00000000
00003010
00000100
00000002
00000000
,
00002003
00000000
00003200
00000000
00000310
00000001
00001100
00000000
,
00000001
00000000
00000100
00000000
00000010
00000000
00001000
00000100
00001000
00000000
00000010
00000100
00000000
00000000
00000001
00000000
,
00001000
00000000
00000100
00010000
00000100
00000000
00010000
00001000
00000000
00000000
00010000
00000000
00000100
00000000
00000000
00000000
,
00001000
00000000
00000100
00000000
00010000
00000000
00001000
00100000
00001000
00000000
00100000
00010000
00000000
00000000
01000000
00000000
,
01000000
00000000
00100000
00000000
10000000
00000000
00010000
00100000
00000000
00000000
00010000
00000000
10000000
00000000
00100000
00000000
,
00000000
00000000
01000000
00000000
00010000
00000000
10000000
00000000
01000000
00000000
00100000
00010000
00000000
00000000
10000000
00100000
,
10000000
00000000
00010000
00000000
01000000
00000000
00100000
10000000
00000000
00000000
00010000
00000000
00100000
00000000
00001000
00000000
,
00020000
00000000
00000200
00000000
,
00030300
00000000
00000000
00000000
00000000
00001000
00010000
00001000
,
00101000
00000000
00000000
00000000
00100000
00000000
00010000
00000000
01000000
00000000
01000000
00100000
01000000
00000000
00010000
00000000
,
10000000
00000000
01000000
00100000
00010000
10000000
00100000
00010000
,
00001000
00000000
00100000
00001000
00010000
00000100
00010000
00000010
,
00000200
00000000
00000000
00000301
00000010
00000100
00001000
00000010
,
00001010
00000000
00000101
00000100
00001010
00000010
00000100
00000001
,
00002000
00000000
00000000
00000000
00003100
00000000
00000010
00000001
00000010
00000001
00000010
00000001
00001000
00000001
00001000
00000001
,
00002000
00000000
00003100
00010000
00001000
00001000
00010000
00000100
,
00010100
00101000
00010010
01001000
,
20010000
00000000
00000000
00000000
31000000
00000000
00100000
00000000
00010000
00000000
10000000
00100000
10000000
00000000
00010000
00000000
,
02000000
00000000
03100000
10000000
01000000
00010000
00001000
00000100
,
00000002
00000000
00000000
00000000
00001003
00000000
00000100
00000000
00000010
00000000
00000001
00001000
00000001
00000000
00001000
00000000
,
00000020
00000000
00000000
00000130
00000100
00000010
00000010
00001000
,
00001010
00000000
00000101
00000100
00001010
00000010
00001000
00000001
,
00000020
00000000
00000000
00000000
00000031
00000000
00001000
00000100
00001000
00000100
00001000
00000100
00010000
00001000
00010000
00001000
,
00200000
00000000
00310000
01000000
00100000
00100000
10000000
00010000
,
00110000
00001010
01010000
00001100
,
00000001
00000100
00000010
00001000
00000100
00000010
00000001
00001000
,
00002010
00000000
00000000
00000000
00003001
00000000
00000100
00000010
00000100
00000000
00000010
00000000
00001000
00000000
00000100
00000000
,
00020100
00000000
00001000
00001000
00000100
00000100
00031000
00000000
,
00012000
00000000
00100000
00100000
00010000
00010000
00103000
00000000
,
00010000
00100000
01000000
10000000
00100000
01000000
00010000
10000000
,
00100000
00000000
00000000
00000000
10000000
00000000
00100000
01000000
00100000
00000000
01000000
00000000
00010000
00000000
00100000
00000000
,
00102000
00000000
00010000
00010000
00100000
00100000
00013000
00000000
,
00020010
00000000
00001000
00001000
00000100
00000100
00031000
00000000
,
00002100
00000000
00003020
00000000
,
00000230
00000000
00000302
00000000
,
00002003
00000000
00003100
00000000
,
00001100
00011000
00110000
00011000
10010000
00000000
10000000
01000000
,
00100000
00000000
00010000
10000000
00010000
00000000
10000000
00000000
00200000
00000000
00000000
00000000
01300000
00000000
00010000
00000000
,
10000000
01000000
00100000
00010000
01020000
00000000
10030000
01000000
,
10000000
00000000
00010000
00100000
00010000
00000000
01000000
00000000
00002000
00000000
00000000
00000000
00000000
00000000
00103000
00010000
,
00100000
00001000
00010000
00000100
00001100
00000000
00001010
00000010
,
00000101
00000000
00000100
00000000
00000010
00000000
00001000
00000000
00000002
00000000
00000000
00000000
00000013
00000000
00000100
00001000
,
00000100
00010000
00001000
00100000
00110000
00000000
00001000
00001000
,
00010000
00001000
00100000
00001000
00011000
00000000
00010100
00000000
,
00101000
00000000
00010010
00000000
00001001
00000000
00000001
00000100
,
00000010
00000000
00001000
00000100
00001000
00000000
00000010
00000000
00000200
00000000
00000000
00000000
00000000
00000000
00000310
00000000
,
00000010
00001000
00000100
00000010
00000002
00000000
00001003
00001000
,
00000100
00000100
00010000
00001000
00000000
00000000
00000000
00100000
,
00001000
00010000
00100000
10000000
02000000
00000000
00100000
00100000
,
00100000
00000000
03100000
00000000
00010000
00000000
10000000
00000000
00100000
00000000
00000000
00000000
10000000
00000000
00010000
01000000
,
00010000
01000000
00010000
01000000
00100000
10000000
00100000
10000000
00020000
00000000
00000000
00000000
01030000
00000000
00100000
00000000
,
10000000
10000000
01000000
00100000
00110000
00001000
00011000
00000100
,
00001100
00000010
00001001
00000000
00000000
00000000
00000000
00000000
;

//---------------dance-single - ----------------
#NOTES:
     dance-single:
     :
     Medium:
     6:
     0.355639,0.453292,0.512983,0.052807,0.000000,255.000000,68.000000,7.000000,0.000000,0.000000,0.000000,0.355639,0.453292,0.512983,0.052807,0.000000,255.000000,68.000000,7.000000,0.000000,0.000000,0.000000:
0000
0000
0000
0000
,
0000
0000
0000
0000
,
0000
0000
0000
0000
,
0000
0000
0000
0000
,
1010
1010
0001
0000
,
1000
0000
0001
0000
0100
0010
0100
0000
,
0101
0101
1000
0000
,
0001
0000
1000
0000
0010
0100
0010
0000
,
1010
1001
0000
0001
,
1000
0000
0010
0000
0100
0001
0100
0000
,
1100
0101
0000
1100
,
0101
0000
1000
0000
0001
0010
0001
0000
,
1000
0000
0001
0000
0100
0010
1000
0000
,
0001
0000
0100
0010
1000
0000
0000
0000
,
0001
0000
1000
0000
0100
0010
0001
0000
,
1000
0000
0100
0010
0001
0000
1001
0000
,
0000
0000
0010
0000
0100
0001
1000
0000
,
0010
0000
0100
0001
1000
0000
0000
0000
,
0002
0000
0000
0000
,
1003
0000
0000
0000
0000
0010
1000
0000
,
0101
0000
1100
0000
0010
0010
0000
0000
,
0001
0000
1000
0000
0010
1000
0001
0000
,
1100
0000
0101
0000
1000
1000
0000
0000
,
0001
0000
1000
0000
0010
0100
0010
0000
,
1000
0000
0001
0010
0100
1000
0000
0000
,
0010
0000
1000
0000
0001
0100
0001
0000
,
1100
0101
0011
1010
,
1001
0110
1001
0101
,
1010
0000
0001
1000
0001
0001
0000
0000
,
0100
0000
0010
0000
1000
0100
0010
0000
,
0001
0000
1000
0100
1000
1000
0001
0000
,
0100
0000
0000
0000
0001
0010
0100
0000
,
1001
0000
1000
0010
0100
0001
0000
0000
,
1000
0000
0000
0001
0001
1000
1000
0000
,
1100
0011
0101
1010
,
1001
0110
1100
0011
,
1000
0000
0001
0000
0100
0000
0010
2000
,
0000
0000
3001
0000
1000
0100
0010
0000
,
0110
1100
0011
1010
,
1001
0110
0101
1100
,
0001
0000
0100
0000
0010
0000
1000
0002
,
0000
0000
1003
0000
0100
0100
0010
0000
,
0011
1100
0101
1010
,
1001
0000
0110
0000
1000
0100
0001
0000
,
2200
0000
0000
3300
,
0002
0000
0000
0003
,
0200
0000
0000
0300
,
0001
0001
1000
1000
1010
0000
0011
0000
,
0100
0100
0000
0000
1000
0000
0001
0000
,
0100
0001
1000
0000
0011
0000
1010
0000
,
0001
0001
0000
0000
1000
0000
0001
0000
,
0100
0010
0100
0000
0001
0000
1000
0100
,
0010
0001
0000
0000
0100
0000
0001
0000
,
1000
0010
1000
0000
0011
0000
1010
0000
,
1100
0101
1001
0110
,
1001
0000
1010
0000
0101
0000
1000
0001
,
1000
1000
0000
0000
0010
0000
0100
0000
,
0001
0010
0100
0000
1000
0000
0001
0010
,
0001
0001
1000
0000
0010
0000
0000
0000
,
1000
0100
0010
0000
1001
0000
0001
0100
,
0010
1000
0000
0000
0001
0000
0000
1000
,
1000
0001
0001
0000
0011
0000
1100
0000
,
1010
0000
0101
0000
1001
0000
1000
0100
,
0010
0010
1001
0000
0000
0000
0000
0000
;

//---------------dance-single - ----------------
#NOTES:
     dance-single:
     :
     Easy:
     3:
     0.177820,0.214717,0.015088,0.052807,0.000000,156.000000,2.000000,7.000000,0.000000,0.000000,0.000000,0.177820,0.214717,0.015088,0.052807,0.000000,156.000000,2.000000,7.000000,0.000000,0.000000,0.000000:
0000
0000
0000
0000
,
0000
0000
0000
0000
,
0000
0000
0000
0000
,
0000
0000
0000
0000
,
0100
0100
0000
0000
,
0010
0000
1000
0100
,
0010
0010
0000
0000
,
0001
0000
1000
0001
,
1000
1000
0000
0000
,
0010
0000
0100
0001
,
0010
0010
0000
0010
,
0010
0000
0001
0000
,
1000
0100
1000
0100
,
0010
0001
0010
0000
,
0001
0100
0001
0100
,
0010
1000
0010
0000
,
1000
0001
1000
0001
,
0100
0100
0100
0000
,
0020
0000
0000
0030
,
0010
0000
0000
0000
,
1001
0000
1000
0000
,
0010
0000
1000
0100
,
0010
0000
0001
0000
,
1000
0000
0010
0100
,
0001
0001
0001
0000
,
1000
0000
0100
0100
,
0100
0000
0010
0000
,
0001
1000
0001
1000
,
1001
0000
0001
0000
,
0100
0000
0001
0010
,
0100
0000
1000
0000
,
0001
0000
0100
0010
,
1000
1000
1000
0000
,
0001
0000
0010
0010
,
0010
0000
0100
0000
,
1000
0001
1000
0001
,
0200
0000
0000
0300
,
0100
0000
0010
1000
,
0001
0000
1000
0000
,
0100
0100
0010
0000
,
0002
0000
0000
0003
,
0001
0000
0100
0100
,
0100
0000
0001
0000
,
1000
1000
1000
0000
,
0020
0000
0000
0030
,
2000
0000
0000
3000
,
0002
0000
0000
0003
,
0200
0000
0300
0000
,
0000
0000
0010
0000
,
1000
0001
0100
0000
,
0001
0000
1000
0000
,
0100
0100
0010
0010
,
0010
0000
0001
0000
,
0100
0001
1000
1000
,
1000
0000
0001
0001
,
0001
0000
0100
0010
,
0100
0100
0010
0000
,
1000
0000
0100
0010
,
0100
0100
0010
0000
,
0001
1000
0010
0010
,
0010
0000
0100
0000
,
0001
1000
0001
0001
,
0100
0100
0010
0010
,
1000
1000
0000
0000
;

//---------------dance-single - ----------------
#NOTES:
     dance-single:
     :
     Beginner:
     2:
     0.128246,0.190860,0.037719,0.000000,0.000000,114.000000,5.000000,0.000000,0.000000,0.000000,0.000000,0.128246,0.190860,0.037719,0.000000,0.000000,114.000000,5.000000,0.000000,0.000000,0.000000,0.000000:
0000
0000
0000
0000
,
0000
0000
0000
0000
,
0000
0000
0000
0000
,
0000
0000
0000
0000
,
0001
0001
0000
0000
,
1000
0000
0001
0000
,
0100
0100
0000
0000
,
0010
0000
1000
0000
,
0001
0001
0000
0000
,
0100
0000
0001
0000
,
1000
1000
0000
0001
,
0001
0000
0000
0000
,
0100
0000
0100
0000
,
0010
0000
0010
0000
,
1000
0000
1000
0000
,
0001
0001
0000
0000
,
0010
0000
0010
0000
,
0001
0000
0001
0000
,
1000
0000
0000
0000
,
0100
0000
0000
0000
,
1001
0000
0000
0000
,
1000
0000
0001
0000
,
0100
0100
0100
0000
,
0100
0000
0000
0000
,
0010
0010
0010
0000
,
1000
0000
0000
0000
,
0001
0000
1000
0000
,
0100
0100
0100
0000
,
1001
0000
0000
0000
,
0001
0000
1000
0000
,
0010
0010
0010
0000
,
0010
0000
0000
0000
,
0100
0100
0100
0000
,
0001
0000
0000
0000
,
1000
0000
0001
0000
,
0010
0010
0010
0000
,
0110
0000
0000
0100
,
0100
0000
0001
0000
,
1000
0000
0000
0000
,
0010
0010
0010
0000
,
0110
0000
0000
0010
,
0010
0000
1000
0000
,
0100
0000
0000
0000
,
1000
1000
1000
0000
,
0000
0001
0000
0001
,
0000
1000
0000
1000
,
0000
0010
0000
0010
,
0000
0000
0000
0000
,
0000
0000
0100
0000
,
0100
0000
0001
0000
,
0000
0000
1000
0000
,
0010
0010
0010
0000
,
0000
0000
1000
0000
,
0001
0000
0100
0100
,
0100
0000
0100
0100
,
0100
0000
1001
0000
,
0000
0000
1000
0000
,
0000
0000
0001
0000
,
1000
0000
0010
0000
,
0000
0000
0100
0100
,
0100
0000
0001
0000
,
0000
0000
1000
0000
,
0001
0000
0010
0010
,
0010
0010
0000
0000
;
