#TITLE:You Can Fly! You Can Fly! You Can Fly!;
#SUBTITLE:;
#ARTIST:Disney Grooves;
#TITLETRANSLIT:;
#SUBTITLETRANSLIT:;
#ARTISTTRANSLIT:;
#CREDIT:;
#BANNER:;
#BACKGROUND:;
#LYRICSPATH:;
#CDTITLE:./CDTITLES/DanceDanceRevolution Disney Grooves.png;
#MUSIC:You Can Fly! You Can Fly! You Can Fly!.mp3;
#OFFSET:-0.052;
#SAMPLESTART:14.400;
#SAMPLELENGTH:15.000;
#SELECTABLE:YES;
#BPMS:0.000=150.000;
#STOPS:;
#BGCHANGES:;

//---------------dance-single - ----------------
#NOTES:
     dance-single:
     :
     Beginner:
     1:
     0.096,0.151,0.000,0.000,0.000:
0000
0000
0000
0000
,
0000
0000
0000
0000
,
0000
0000
0000
0000
,
0000
0000
0000
0000
,
0000
0000
0000
0000
,
0001
0000
0000
0000
,
1000
0000
0000
0000
,
0010
0000
0000
0000
,
0000
0000
0000
0000
,
0001
0000
0000
0000
,
1000
0000
0000
0000
,
0001
0000
0000
0000
,
1000
0000
0000
0000
,
0001
0000
0001
0000
,
1000
0000
1000
0000
,
0001
0000
0001
0000
,
1000
0000
1000
0000
,
0010
0000
0000
0000
,
0010
0000
0000
0000
,
0010
0000
0000
0000
,
0010
0000
0000
0000
,
0001
0000
0000
0000
,
1000
0000
0000
0000
,
0001
0000
0000
0000
,
0000
0000
0000
0000
,
1000
0000
0000
0000
,
0001
0000
0000
0000
,
1000
0000
0000
0000
,
0001
0000
0000
0000
,
1000
0000
1000
0000
,
0001
0000
0001
0000
,
1000
0000
1000
0000
,
0001
0000
0001
0000
,
0010
0000
0000
0000
,
0010
0000
0000
0000
,
0010
0000
0000
0000
,
0010
0000
0000
0000
,
1000
0000
0000
0000
,
0001
0000
0000
0000
,
1000
0000
0000
0000
,
0000
0000
0000
0000
,
0001
0000
0001
0000
,
1000
0000
1000
0000
,
0001
0000
0001
0000
,
1000
0000
1000
0000
,
0010
0000
0000
0000
,
0010
0000
0000
0000
,
0010
0000
0000
0000
,
0010
0000
0000
0000
,
0001
0000
0000
0000
,
1000
0000
0000
0000
,
0001
0000
0000
0000
,
1000
0000
0000
0000
,
0001
0000
0000
0000
,
1000
0000
0000
0000
,
0010
0000
0000
0000
,
0100
0000
0000
0000
,
0001
0000
0000
0000
,
0001
0000
0000
0000
,
1000
0000
0000
0000
,
1000
0000
0000
0000
,
0010
0000
0000
0000
,
0010
0010
0010
0000
;

//---------------dance-single - ----------------
#NOTES:
     dance-single:
     :
     Easy:
     3:
     0.147,0.212,0.000,0.000,0.000:
0000
0000
0000
0000
,
0000
0000
0000
0000
,
0000
0000
0000
0000
,
0000
0000
0000
0000
,
0000
0000
0000
0000
,
0001
0000
0001
0000
,
1000
0000
1000
0000
,
0010
0000
0010
0000
,
0100
0000
0000
0000
,
0001
0000
0000
0000
,
1000
0000
0000
0000
,
0001
0000
0000
0000
,
1000
0000
0000
0000
,
0001
0000
0001
0000
,
1000
1000
1000
0000
,
0001
0000
0001
0000
,
1000
1000
1000
0000
,
0010
0000
0010
0000
,
0010
0000
0000
0000
,
0010
0000
0000
0000
,
0010
0000
0001
0001
,
0001
0000
1000
1000
,
1000
0000
0001
0001
,
0001
0000
0000
0000
,
0000
0000
0000
0000
,
1000
0000
0000
0000
,
0001
0000
0000
0000
,
1000
0000
0000
0000
,
0001
0000
0000
0000
,
1000
0000
1000
0000
,
0001
0001
0001
0000
,
1000
0000
1000
0000
,
0001
0001
0001
0000
,
0010
0000
0010
0000
,
0010
0000
0000
0000
,
0010
0000
0000
0000
,
0010
0000
1000
1000
,
1000
0000
0001
0001
,
0001
0000
1000
1000
,
1000
0000
0000
0000
,
0000
0000
0000
0000
,
0001
0000
0001
0000
,
1000
1000
1000
0000
,
0001
0000
0001
0000
,
1000
1000
1000
0000
,
0010
0000
0010
0000
,
0010
0000
0000
0000
,
0010
0000
0000
0000
,
0010
0000
0001
0001
,
0001
0000
1000
1000
,
1000
0000
0001
0001
,
0001
0000
1000
1000
,
1000
0000
0001
0001
,
0001
0000
0000
0000
,
1000
0000
0000
0000
,
0010
0000
0000
0000
,
0100
0000
0000
0000
,
0001
0000
0000
0000
,
0001
0000
1000
1000
,
1000
0000
0000
0000
,
1000
0000
0000
0000
,
0010
0000
0000
0000
,
0010
0001
1000
0000
;

//---------------dance-single - ----------------
#NOTES:
     dance-single:
     :
     Medium:
     4:
     0.222,0.303,0.126,0.165,0.000:
0000
0000
0000
0000
,
0000
0000
0000
0000
,
0000
0000
0000
0000
,
0000
0000
0000
0000
,
0000
0000
0000
0000
,
0000
0001
0000
0001
,
0000
1000
0000
0001
,
0000
1000
0000
1000
,
2002
0000
0000
3003
,
0010
0000
0100
0000
,
0010
1000
0001
0000
,
0010
0000
0100
0000
,
0010
0001
1000
0000
,
0001
0000
1000
0000
,
0001
0100
1000
0000
,
1000
0000
0001
0000
,
1000
0100
0001
0000
,
0010
0000
0001
0000
,
0020
0000
0000
0030
,
0200
0000
0000
0300
,
2000
0000
3001
1000
,
1001
0000
0010
0100
,
0110
0000
1000
0001
,
2002
0000
0000
0000
,
0000
0000
0000
3003
,
0010
0000
0100
0000
,
0010
0001
1000
0000
,
0010
0000
0100
0000
,
0010
1000
0001
0000
,
1000
0000
0001
0000
,
1000
0100
0001
0000
,
0001
0000
1000
0000
,
0001
0100
1000
0000
,
0010
0000
1000
0000
,
0020
0000
0000
0030
,
0200
0000
0000
0300
,
0002
0000
1003
0001
,
1001
0000
0010
0100
,
0110
0000
0001
1000
,
2002
0000
0000
0000
,
0000
0000
0000
3003
,
0001
0000
1000
0000
,
0001
0100
1000
0000
,
1000
0000
0001
0000
,
1000
0100
0001
0000
,
0010
0000
0001
0000
,
0020
0000
0000
0030
,
0200
0000
0000
0300
,
2000
0000
3001
1000
,
1001
0000
0010
0100
,
0110
0000
1000
0001
,
1001
0000
0100
0010
,
0110
0000
0001
0001
,
1000
0000
0001
0000
,
0100
0000
0100
0000
,
0001
0000
1000
0000
,
2002
0000
0000
3003
,
0001
0100
0001
0000
,
1000
0100
1000
0000
,
0010
0001
0010
0000
,
0010
1000
0010
0000
,
0001
0001
1000
1000
,
1001
0010
0010
0000
;

//---------------dance-single - ----------------
#NOTES:
     dance-single:
     :
     Hard:
     6:
     0.355,0.424,0.533,0.223,0.000:
0000
0000
0000
0000
,
0000
0000
0000
0000
,
0000
0000
0000
0000
,
0000
0000
0000
0000
,
0000
0000
0000
0000
,
0001
0001
0100
0001
,
0010
1000
0100
0001
,
1000
1000
0100
1000
,
2002
0000
0000
3003
,
0010
0010
0100
0100
,
0010
1000
0100
0000
,
0010
0010
0100
0100
,
0010
0001
0100
0000
,
0001
0100
1000
0100
,
1001
0101
1100
0000
,
1000
0100
0001
0100
,
1001
1100
0101
0000
,
0010
1000
0001
0100
,
0020
0000
2000
0030
,
0200
3000
2000
0300
,
0002
3003
1010
0101
,
1100
0000
0011
1100
,
0101
0000
1001
0110
,
2002
0000
0000
0000
,
0000
0000
0000
3003
,
0010
0010
0100
0100
,
0010
0001
0100
0000
,
0010
0010
0100
0100
,
0010
1000
0100
0000
,
1000
0100
0001
0100
,
1001
1100
0101
0000
,
0001
0100
1000
0100
,
1001
0101
1100
0000
,
0010
0001
1000
0100
,
0020
0000
0002
0030
,
0200
0003
0002
0300
,
2000
3003
0011
1100
,
0101
0000
1010
0101
,
1100
0000
1001
0110
,
2002
0000
0000
0000
,
0000
0000
0000
3003
,
0001
0100
1000
0100
,
1001
0101
1100
0000
,
1000
0100
0001
0100
,
1001
1100
0101
0000
,
0010
1000
0001
0100
,
0020
0000
2000
0030
,
0200
3000
2000
0300
,
0002
3003
1010
0101
,
1100
0000
0011
1100
,
0101
0000
1010
1001
,
1100
0000
0011
1001
,
0101
0000
1001
0110
,
1000
1000
0001
0001
,
0100
0010
0100
0010
,
0001
0001
1000
1000
,
2002
0000
0000
3003
,
0001
0100
0001
0100
,
1000
0100
1000
0100
,
0010
0001
0010
1000
,
0010
0001
0010
1000
,
0001
1000
0001
1000
,
1001
0110
1001
0000
;
