#TITLE:Dope;
#SUBTITLE:;
#ARTIST:BTS;
#TITLETRANSLIT:;
#SUBTITLETRANSLIT:;
#ARTISTTRANSLIT:;
#GENRE:K-Pop for Drew. P;
#CREDIT:;
#BANNER:Dope.png;
#BACKGROUND:Dope-bg.png;
#LYRICSPATH:;
#CDTITLE:;
#MUSIC:Dope.ogg;
#OFFSET:-0.586000;
#SAMPLESTART:87.888229;
#SAMPLELENGTH:13.714000;
#SELECTABLE:YES;
#BPMS:0.000000=154.000000
;
#STOPS:
;
#BGCHANGES:8.000=Dope.avi=1.000=0=0=1=====,
99999=-nosongbg-=1.000=0=0=0 // don't automatically add -songbackground-
;
#KEYSOUNDS:;
#ATTACKS:;

//---------------dance-single - ----------------
#NOTES:
     dance-single:
     :
     Hard:
     8:
     0.621989,0.691029,0.505884,0.273675,0.037319,431.000000,61.000000,33.000000,0.000000,0.000000,0.000000,0.621989,0.691029,0.505884,0.273675,0.037319,431.000000,61.000000,33.000000,0.000000,0.000000,0.000000:
0000
0000
0000
0000
,
0000
0000
0000
0000
,
0000
0000
0000
0000
,
0000
0000
0000
0000
,
1000
0100
0001
0010
,
0001
1000
0002
0000
0000
0000
0003
0000
,
0001
0000
0010
0000
1000
0010
0100
0010
,
1000
0000
0100
0000
0001
0000
1000
1000
,
0101
0000
1000
0010
0100
0010
1000
0100
,
0100
0000
0010
0001
1000
0010
0100
0001
,
0001
0000
0010
0001
1000
0001
0100
0010
,
0010
0000
1000
0010
0100
0001
1000
0010
,
0010
0001
0010
0100
0010
1000
0010
0100
,
0001
0100
1000
0100
0001
0100
0010
0010
,
1000
0000
0100
0000
0010
0000
0001
0000
1000
0000
0010
0000
0100
0001
0100
0001
,
1000
0000
0000
0000
,
0101
0000
1100
0000
0101
0000
0001
0100
,
0010
1000
0100
0010
0000
0010
0001
0000
,
1100
0000
0101
0000
1100
0000
1000
0100
,
0010
0001
2000
0000
3020
0000
0130
0000
,
1001
0000
0110
0000
1001
0000
0001
0010
,
1000
0010
0001
1000
0000
1000
0010
0000
,
1000
0001
0100
0001
1000
0000
0001
0010
,
0100
1000
0001
0000
0101
0000
1100
0000
,
1001
0000
1001
0000
1001
0000
1000
0010
,
0100
0001
0020
0000
0230
0000
1300
0000
,
1001
0000
1001
0000
1001
0000
1000
0010
,
0100
0001
0020
0000
0230
0000
1300
0000
,
0001
0100
1000
0001
0010
1000
0001
0100
,
1000
0000
0001
0000
0010
0000
1000
0000
0002
0000
0000
0000
1003
0100
1000
0000
,
0010
0000
0000
0100
0000
0000
0001
0000
,
0000
0000
1000
0100
1000
0000
0100
0000
0010
0000
0001
0000
1000
0000
0000
0000
,
0001
0100
0010
1000
0100
0010
0001
1000
,
0010
0000
0101
0000
0101
2002
0000
3003
,
1000
0010
0100
0001
0010
0100
1000
0001
,
0100
0000
1010
0000
1010
2002
0000
3003
,
0001
0000
0100
0010
0100
0000
0001
0000
1000
0000
0010
0100
0010
0000
1000
0000
,
0001
0000
0100
0010
0100
0000
0001
0000
1000
0000
0100
0000
0010
0000
0000
0000
,
1001
0000
0000
0010
0000
0000
1000
0000
,
0001
0010
0011
0000
1001
2200
0000
3300
,
0002
0000
0203
0000
0320
0000
1030
0001
,
1000
0001
0100
0000
1001
0000
1100
0000
,
2000
0000
3020
0000
0230
0000
0301
1000
,
0001
1000
0010
0000
1001
0000
0011
0000
,
2000
3002
0203
0320
,
2030
0000
3002
0000
0013
0100
1000
0010
,
0200
0000
0302
0000
1003
0010
0100
0001
,
0020
0000
0230
0000
1300
0100
0010
0001
,
1001
0000
0010
0000
0101
0000
1000
1000
,
0010
0000
0101
0000
1100
0000
0001
0010
,
0100
1000
0010
0000
1001
0000
0100
0100
,
0001
1000
0100
0000
0010
0010
0001
1000
,
0010
1000
0010
0001
0010
0001
0010
0100
,
0010
0100
0010
1000
0010
0100
0001
0100
,
0010
0000
1000
0000
0100
0000
0010
0000
0001
0000
1000
0000
0010
0100
0010
0100
,
0001
0000
0000
0000
,
1100
0000
0101
0000
1100
0000
1000
0100
,
0010
0001
1000
0010
0100
0001
1000
0000
,
0101
0000
1100
0000
0101
0000
1000
0010
,
0100
0001
0010
0100
0010
0100
1000
0000
,
1100
0000
0011
0000
1010
0000
1000
0010
,
0100
0001
1000
0100
0010
0001
1000
0000
,
0001
0100
0110
0000
1000
0100
0110
0000
,
0001
0010
0110
0000
0011
0000
1100
0000
,
0001
1000
0010
0100
0001
0010
0100
1000
,
0001
0100
0010
0100
0010
0100
0010
0000
,
0100
0001
0010
0100
1000
0001
0100
0010
,
1000
0001
0100
0001
0100
0001
0100
0000
,
0010
1000
0100
0010
0001
1000
0010
0100
,
0001
1000
0100
1000
0100
1000
0100
0000
,
0010
0010
1001
0000
0100
0100
1001
0000
,
0010
0010
1001
0000
1100
0000
0101
0000
,
0010
0010
1100
0000
0010
0010
0101
0000
,
0010
0010
1100
0000
0011
0000
1010
0000
,
0001
0100
0020
0000
2030
0000
3100
0010
,
0001
0010
1000
0010
0002
0000
0103
0000
;

//---------------dance-single - ----------------
#NOTES:
     dance-single:
     :
     Medium:
     6:
     0.420583,0.502567,0.389779,0.116105,0.000000,294.000000,47.000000,14.000000,0.000000,0.000000,0.000000,0.420583,0.502567,0.389779,0.116105,0.000000,294.000000,47.000000,14.000000,0.000000,0.000000,0.000000:
0000
0000
0000
0000
,
0000
0000
0000
0000
,
0000
0000
0000
0000
,
0000
0000
0000
0000
,
0100
0001
1000
0010
,
0100
0001
1000
0000
,
0001
0010
0001
1000
,
0010
0100
0001
0000
,
1000
0000
0100
0000
1000
0000
0100
1000
,
0001
0000
0100
0000
0001
0000
0100
0001
,
1000
0000
0010
0000
1000
0000
0010
1000
,
0001
0000
0010
0000
0001
0000
0010
0001
,
1000
1000
0001
0001
,
0100
0100
0010
0010
,
1000
0100
1000
0100
0010
0001
0010
0001
,
1000
0000
0000
0000
,
0101
0101
0101
1000
,
0001
0100
0010
0010
,
1010
1010
1010
0001
,
1000
0010
0100
0001
,
1100
1100
1100
0001
,
1000
0010
0100
0001
,
2000
0000
3200
0000
0320
0000
0031
1000
,
0001
1000
0002
0000
2003
0000
3000
0000
,
0001
0101
1001
1000
,
0100
0010
0001
1000
,
1000
1010
1001
0001
,
0010
0100
1000
0000
,
0001
0100
0001
0000
1000
0100
1000
0000
,
0001
0100
0001
0000
1000
0000
0000
0000
,
0010
0000
0000
1000
0000
0000
0001
0000
,
0000
0010
0010
0000
0100
0000
0000
0000
,
1001
0000
0000
0010
0001
0000
1000
0000
,
0000
0000
0010
0000
0100
0001
0000
0000
,
0010
0000
0000
0001
1000
0000
0010
0000
,
0000
0000
1000
0000
0100
0010
0000
0000
,
0001
0000
0000
1000
0010
0000
0100
0000
,
0000
0000
0001
0000
1000
0100
0000
0000
,
1100
0000
0000
0011
0000
0000
0101
0000
,
0000
1001
1001
0000
,
0010
0100
0001
1000
,
0100
0000
0010
0000
0001
0000
1000
0010
,
1000
0001
0010
0100
,
1000
0000
0010
0000
0100
0000
0001
1000
,
0001
0010
0100
1000
,
0010
0000
0100
0000
0001
0000
1000
0100
,
1000
0000
0010
0000
1000
0001
1000
0000
,
1010
1001
0100
0000
,
0002
0100
0100
0103
,
2000
0100
0100
3100
,
0001
0000
1000
0000
0010
0100
0010
0000
,
1000
0000
0001
0000
0010
0100
0010
0000
,
0001
0001
0010
0010
,
0100
0100
1000
1000
,
0001
0010
0001
0010
0100
1000
0100
1000
,
0001
0000
0000
0000
,
1001
0110
1001
0100
,
0010
1000
0100
0100
,
0110
1001
0110
1000
,
0001
0100
0100
0000
,
0101
1100
0101
1000
,
0001
0100
0010
0000
,
2000
0000
3002
0000
0023
0000
0031
1000
,
0001
1000
0020
0000
0230
0000
0300
0000
,
1001
0000
1001
0000
1001
0000
0010
0100
,
0010
1000
0001
0010
,
1001
0000
1001
0000
1001
0000
0100
0001
,
0100
0010
1000
0100
,
1001
0000
1001
0000
1001
0000
0100
0010
,
0100
0001
1000
0010
,
0000
1100
0000
0101
,
0000
1010
0011
1001
,
0010
0100
0002
0000
2003
0000
3100
0000
,
0010
0011
1100
0001
,
1000
0100
1000
0000
0001
0000
0100
0010
,
0100
0010
1000
0000
0001
0000
1001
0000
;

//---------------dance-single - ----------------
#NOTES:
     dance-single:
     :
     Easy:
     3:
     0.200221,0.282694,0.082932,0.000000,0.000000,159.000000,10.000000,0.000000,0.000000,0.000000,0.000000,0.200221,0.282694,0.082932,0.000000,0.000000,159.000000,10.000000,0.000000,0.000000,0.000000,0.000000:
0000
0000
0000
0000
,
0000
0000
0000
0000
,
0000
0000
0000
0000
,
0000
0000
0000
0000
,
0100
0000
0001
0000
,
1000
0000
0000
0000
,
0010
0000
1000
0000
,
0001
0000
0000
0000
,
1000
0000
1000
0000
,
0100
0000
0000
0000
,
0010
0000
0010
0000
,
0001
0000
0000
0000
,
0100
0000
0001
0000
,
1000
0000
0010
0000
,
1000
0000
0001
0000
,
1000
0000
0000
0000
,
0010
0010
0010
0000
,
0100
0000
0001
0000
,
1000
1000
1000
0000
,
0100
0000
0010
0000
,
0001
0001
0001
0000
,
1000
0000
0001
0000
,
0100
0010
1000
0001
,
0010
0100
0010
0000
,
1001
0000
0000
0000
,
0100
1000
0010
0000
,
1001
0000
0000
0000
,
0100
0001
0010
0000
,
0001
0000
1000
0000
,
0010
0000
0100
0000
,
0001
0000
1000
0000
,
0100
0000
0000
0000
,
1000
0100
1000
0100
,
1000
0000
0000
0000
,
0001
0100
0001
0100
,
0001
0000
0000
0000
,
1000
0000
0001
0000
,
0010
0100
0010
0000
,
0001
0000
1000
0000
,
0010
0100
0010
0000
,
1001
0000
1000
0000
,
0001
0000
0001
0000
,
0010
0000
0010
0000
,
0100
0000
0100
0000
,
1000
0000
0001
0000
,
0100
0000
0010
0000
,
1000
0000
0001
0000
,
0010
0000
0001
0000
,
0110
0000
0001
0010
,
0100
0000
1000
0000
,
0001
0000
1000
0010
,
0100
0000
0001
0000
,
1000
0000
1000
0000
,
0001
0000
0001
0000
,
1000
1000
0001
0001
,
0100
0000
0000
0000
,
0001
0100
0001
0000
,
0100
0000
0010
0000
,
1000
0100
1000
0000
,
0001
0000
1000
0000
,
0010
0100
0010
0000
,
1000
0000
0001
0000
,
1000
0100
0010
0001
,
1000
1000
1000
0000
,
0010
0000
0100
0000
,
0001
1000
0001
0000
,
0010
0000
0100
0000
,
1000
0001
1000
0000
,
0010
0000
0100
0000
,
0001
1000
0001
0000
,
0000
1001
0000
1001
,
0000
1001
0000
0000
,
0000
0110
0000
0110
,
0000
0110
0000
0000
,
1000
0000
0001
0000
,
0010
0000
0100
0100
;

//---------------dance-single - ----------------
#NOTES:
     dance-single:
     :
     Beginner:
     2:
     0.135060,0.188463,0.033173,0.000000,0.000000,110.000000,4.000000,0.000000,0.000000,0.000000,0.000000,0.135060,0.188463,0.033173,0.000000,0.000000,110.000000,4.000000,0.000000,0.000000,0.000000,0.000000:
0000
0000
0000
0000
,
0000
0000
0000
0000
,
0000
0000
0000
0000
,
0000
0000
0000
0000
,
1000
0000
0000
0000
,
0001
0000
0000
0000
,
0010
0000
0000
0000
,
0010
0000
0000
0000
,
0001
0000
0000
0000
,
1000
0000
1000
0000
,
0010
0000
0000
0000
,
0100
0000
0000
0000
,
0001
0000
0000
0000
,
1000
0000
0000
0000
,
0100
0000
0100
0000
,
0100
0000
0000
0000
,
1001
0000
0000
0000
,
1000
0000
1000
0000
,
0010
0000
0000
0000
,
0010
0000
0010
0000
,
0100
0000
0000
0000
,
0100
0000
0100
0000
,
0001
0000
0000
0000
,
0001
0000
1000
0000
,
0010
0000
0010
0000
,
0010
0000
0000
0000
,
0100
0000
0100
0000
,
0100
0000
0000
0000
,
0001
0000
1000
0000
,
0001
0000
1000
0000
,
0100
0000
0100
0000
,
0100
0000
0000
0000
,
1000
0000
0001
0000
,
0100
0100
0000
0000
,
0010
0000
1000
0000
,
0001
0001
0000
0000
,
0010
0000
0001
0000
,
1000
0000
0000
0000
,
0010
0000
1000
0000
,
0001
0001
0000
0000
,
1001
0000
0000
0000
,
1000
0000
0000
0000
,
0010
0000
0000
0000
,
0100
0000
0000
0000
,
0001
0000
0000
0000
,
0010
0000
0000
0000
,
0100
0000
0100
0000
,
0100
0000
0000
0000
,
1001
0000
0000
0000
,
1000
1000
0000
0000
,
0010
0010
0000
0000
,
0100
0100
0000
0000
,
0001
0001
0000
0000
,
1000
1000
0000
0000
,
0010
0010
0010
0000
,
0010
0000
0000
0000
,
1001
0000
0000
0000
,
0100
0100
0100
0000
,
0100
0000
0000
0000
,
1000
0000
0001
0000
,
0100
0000
0000
0000
,
0010
0010
0010
0000
,
0010
0000
0000
0000
,
1000
0000
1000
0000
,
0001
0000
0000
0000
,
0010
0000
0010
0000
,
0100
0000
0000
0000
,
0100
0000
0100
0000
,
1000
0000
0000
0000
,
1000
0000
1000
0000
,
0000
0010
0000
0010
,
0000
0010
0000
0000
,
0000
0100
0000
0100
,
0000
0100
0000
0000
,
0001
0000
0000
0000
,
0000
0000
1000
1000
;

//---------------dance-double - ----------------
#NOTES:
     dance-double:
     :
     Challenge:
     8:
     0.578153,0.659619,0.505884,0.124398,0.000000,412.000000,61.000000,15.000000,0.000000,0.000000,0.000000,0.578153,0.659619,0.505884,0.124398,0.000000,412.000000,61.000000,15.000000,0.000000,0.000000,0.000000:
// measure 0
00000000
00000000
00000000
00000000
,  // measure 1
00000000
00000000
00000000
00000000
,  // measure 2
00000000
00000000
00000000
00000000
,  // measure 3
00000000
00000000
00000000
00000000
,  // measure 4
00001000
00000001
00000100
00000010
,  // measure 5
00001000
00000100
00001000
00000000
00000000
00000000
00000000
00000000
,  // measure 6
00000100
00000000
00010100
00000000
00010100
00000000
00001000
00010000
,  // measure 7
00000100
00000000
00010100
00000000
00010100
00000000
00000100
00001000
,  // measure 8
00000001
00000000
00000100
00000010
00000010
00001000
00000010
00000100
,  // measure 9
00000001
00000000
00001000
00000100
00000100
00010000
00000100
00010000
,  // measure 10
00001000
00000000
00100000
00010000
00010000
01000000
00010000
10000000
,  // measure 11
00100000
00000000
10000000
01000000
01000000
00100000
01000000
10000000
,  // measure 12
00010000
01000000
00010000
01000000
00010000
01000000
00010000
01000000
,  // measure 13
00001000
00010000
00001000
00010000
00001000
00010000
00001000
00010000
,  // measure 14
00000100
00010000
00100000
00010000
00000100
00001000
00000010
00000100
,  // measure 15
00000001
00000000
00000000
00000000
,  // measure 16
00000101
00000000
00001010
00000000
00000101
00000000
00001000
00000100
,  // measure 17
00001000
00000010
00000100
00000001
00000000
00000001
00001000
00000000
,  // measure 18
00001100
00000000
00000011
00000000
00001100
00000000
00000001
00000010
,  // measure 19
00000001
00001000
00000020
00000000
00000230
00000000
00000301
00000000
,  // measure 20
00001001
00000000
00000110
00000000
00001001
00000000
00000001
00000010
,  // measure 21
00000100
00001000
00000010
00000100
00000000
00000100
00000001
00000000
,  // measure 22
00000100
00000001
00001000
00000100
00010000
00001000
01000000
00010000
,  // measure 23
01000000
00010000
01000000
00100000
10100000
00000000
00110000
00000000
,  // measure 24
11000000
00000000
11000000
00000000
11000000
00000000
10000000
01000000
,  // measure 25
00000000
01000000
00100000
00010000
10000000
00010000
10000000
00000000
,  // measure 26
01010000
00000000
01010000
00000000
01010000
00000000
00010000
01000000
,  // measure 27
00000000
01000000
00100000
10000000
00010000
10000000
00010000
00000000
,  // measure 28
10000000
01000000
00000000
01000000
00010000
00000000
00010000
00001000
,  // measure 29
00000000
00001000
00000100
00000001
00001000
00000000
00000001
00001000
,  // measure 30
00000001
00000000
00000000
00000010
00000000
00000000
00000100
00000000
,  // measure 31
00000000
00001000
00000001
00001000
00000010
00000100
00000010
00000000
,  // measure 32
00001000
00000100
00001000
00000010
00000100
00000010
00001000
00000001
,  // measure 33
00000010
00000000
00000011
00000000
00001001
00002002
00000000
00003003
,  // measure 34
00001000
00000010
00000100
00000010
00001000
00000100
00010000
00001000
,  // measure 35
00010000
00000000
00011000
00000000
00110000
00220000
00000000
00330000
,  // measure 36
00010000
01000000
00010000
10000000
01000000
10000000
00100000
01000000
,  // measure 37
00010000
10000000
01000000
00100000
00010000
10000000
00100000
00000000
,  // measure 38
10000000
00000000
00000000
01000000
00000000
00000000
00100000
00000000
,  // measure 39
00000000
00000000
10010000
00000000
10010000
20020000
00000000
30030000
,  // measure 40
10000000
00000000
01000000
00000000
00010000
00000000
00001000
00010000
,  // measure 41
01000000
10000000
00010000
00000000
01000000
01000000
01000000
00000000
,  // measure 42
00010000
00000000
01000000
00010000
00100000
00010000
01000000
00000000
,  // measure 43
00001000
00010000
00001000
00000000
00001000
00000100
00000001
00000000
,  // measure 44
00000001
00000000
00000010
00000000
00001000
00000000
00010000
00001000
,  // measure 45
00000010
00000001
00001000
00000000
00000010
00000010
00000010
00000000
,  // measure 46
00001000
00000000
00000010
00001000
00000100
00001000
00000010
00000000
,  // measure 47
00010000
00001000
00010000
00000000
00010000
00100000
10000000
00000000
,  // measure 48
00020000
01000000
01000000
01030000
,  // measure 49
20000000
01000000
01000000
31000000
,  // measure 50
10010000
10010000
00011000
00011000
,  // measure 51
00001001
00001001
00000110
00000110
,  // measure 52
00001000
00000010
00001000
00000010
00001000
00000010
00001000
00000010
,  // measure 53
00010000
00001000
00010000
00001000
00010000
00001000
00010000
00001000
,  // measure 54
00100000
00001000
00000100
00001000
00100000
00010000
01000000
00100000
,  // measure 55
10000000
00000000
00000000
00000000
,  // measure 56
10100000
00000000
01010000
00000000
10100000
00000000
00010000
00100000
,  // measure 57
00010000
01000000
00100000
10000000
00000000
10000000
00010000
00000000
,  // measure 58
00110000
00000000
11000000
00000000
00110000
00000000
10000000
01000000
,  // measure 59
10000000
00010000
02000000
00000000
03200000
00000000
10300000
00000000
,  // measure 60
10010000
00000000
01100000
00000000
10010000
00000000
10000000
01000000
,  // measure 61
00100000
00010000
01000000
00100000
00000000
00100000
10000000
00000000
,  // measure 62
00100000
10000000
00010000
00100000
00001000
00010000
00000010
00001000
,  // measure 63
00000010
00001000
00000010
00000100
00000101
00000000
00001100
00000000
,  // measure 64
00000011
00000000
00000011
00000000
00000011
00000000
00000001
00000010
,  // measure 65
00000100
00001000
00000010
00000100
00000010
00001000
00000100
00000000
,  // measure 66
00001100
00000000
00001100
00000000
00001100
00000000
00000001
00000100
,  // measure 67
00000001
00001000
00000100
00010000
00001000
01000000
00010000
00000000
,  // measure 68
01010000
00000000
01010000
00000000
01010000
00000000
10000000
01000000
,  // measure 69
10000000
00010000
01000000
00100000
10000000
01000000
00100000
00000000
,  // measure 70
00010000
01000000
01010000
00000000
10000000
01000000
11000000
00000000
,  // measure 71
00010000
10000000
10010000
00000000
01000000
00100000
10000000
00000000
,  // measure 72
00010000
00010000
01000000
00001000
00010000
00010000
00000100
00010000
,  // measure 73
00001000
00001000
00000100
00000100
00000001
00000010
00000100
00000000
,  // measure 74
00000010
00000001
00000200
00000000
00000320
00000000
00001030
00000001
,  // measure 75
00001000
00000010
00001000
00000001
00020000
00000000
00031000
00000000
;
