#VERSION:0.82;
#TITLE:Your Love Is My Drug;
#SUBTITLE:;
#ARTIST:Ke$ha;
#TITLETRANSLIT:;
#SUBTITLETRANSLIT:;
#ARTISTTRANSLIT:;
#GENRE:;
#ORIGIN:;
#CREDIT:;
#BANNER:Your Love Is My Drug.png;
#BACKGROUND:Your Love Is My Drug-bg.png;
#PREVIEWVID:;
#JACKET:jacket.png;
#CDIMAGE:;
#DISCIMAGE:;
#LYRICSPATH:;
#CDTITLE:;
#MUSIC:Your Love Is My Drug.ogg;
#OFFSET:0.010000;
#SAMPLESTART:40.003906;
#SAMPLELENGTH:13.714000;
#SELECTABLE:YES;
#DISPLAYBPM:120;
#BPMS:0.000=120.000,
176.000=240.000,
178.000=120.000;
#STOPS:176.000=1.510;
#DELAYS:;
#WARPS:;
#TIMESIGNATURES:0.000=4=4;
#TICKCOUNTS:0.000=4;
#COMBOS:0.000=1;
#SPEEDS:0.000=1.000=0.000=0;
#SCROLLS:0.000=1.000;
#FAKES:;
#LABELS:0.000=Song Start;
#BGCHANGES:4.000=Your Love Is My Drug.avi=1.000=0=0=1=====,
99999=-nosongbg-=1.000=0=0=0 // don't automatically add -songbackground-
;
#KEYSOUNDS:;
#ATTACKS:
;

//---------------dance-single - ----------------
#NOTEDATA:;
#CHARTNAME:;
#STEPSTYPE:dance-single;
#DESCRIPTION:;
#CHARTSTYLE:;
#DIFFICULTY:Challenge;
#METER:9;
#RADARVALUES:0.563057,0.629958,0.251732,0.244539,0.287693,479.000000,35.000000,34.000000,0.000000,0.000000,0.000000,0.000000,0.000000,0.563057,0.629958,0.251732,0.244539,0.287693,479.000000,35.000000,34.000000,0.000000,0.000000,0.000000,0.000000,0.000000;
#CREDIT:Ben Speirs;
#NOTES:
0000
0000
0000
0000
,
0000
0000
0000
0000
,
0000
0000
0000
0000
,
0000
0000
0000
0000
,
0001
0000
0000
0000
1000
0100
1000
0000
0100
0000
1000
0000
0001
0000
0001
0000
,
1000
0000
0000
0000
0001
0100
0001
0000
1000
0000
0001
0000
0001
0000
0000
0000
,
0100
0010
0100
0010
1000
1000
0001
0001
,
1000
0000
0001
0000
0100
0010
0100
0000
0001
0000
1000
0000
0100
0000
0000
0000
,
1000
0000
0001
0000
0010
0100
0010
0000
0001
0000
1000
0000
0010
0000
0100
0000
,
0001
0000
1000
0000
0100
0010
0100
0000
1000
0000
0001
0000
0100
0000
0000
0000
,
0001
1000
0001
1000
0010
0100
0010
0100
,
0001
0010
0100
1000
0010
0100
0001
0000
,
1000
0000
1000
0200
0000
0000
0320
0000
0000
0000
0031
0000
1000
0000
0010
0000
,
0100
0000
0100
0002
0000
0000
2003
0000
0000
0000
3100
0000
1000
0000
0001
0000
,
0100
0000
0100
0020
0000
0000
2030
0000
0000
0000
3100
0000
0010
0000
0001
0000
,
1000
0000
1000
0002
0000
0000
0203
0000
0000
0000
0310
0000
0100
0000
0001
0000
,
0101
0000
0000
0110
0000
0000
1010
0000
0000
0000
1001
0000
0001
0000
1000
0000
,
1100
0000
0000
0110
0000
0000
0011
0000
0000
0000
1001
0000
1000
0000
0100
0000
,
0010
0010
0001
1000
0010
0010
0100
0001
,
1000
0000
1000
0100
0000
0100
0010
0000
0000
0000
0001
0000
1000
0000
0001
0000
,
0011
0000
1000
0100
0010
0000
1100
0000
0001
0000
0100
0000
1001
0000
0000
0000
,
0010
1000
1000
0001
0001
1000
0010
1000
,
1100
0000
0001
0010
0100
0000
0011
0000
1000
0000
0010
0000
1001
0000
0000
0000
,
0001
0000
0001
0100
0000
0100
0010
0000
1000
0000
0100
0000
0010
0000
0001
0000
,
1001
0000
1000
0100
1000
0000
1001
0000
0001
0100
0001
0000
1001
0000
0000
0000
,
0001
0100
0010
1000
0100
0010
0001
0000
,
1100
0000
0001
0100
0001
0000
1010
0000
0001
0010
0001
0000
1100
0000
0000
0000
,
0001
0000
0001
0100
0000
0100
0020
0000
0000
0000
1030
0000
0100
0000
0010
0000
,
0002
0103
2000
3010
,
0002
0013
2000
3100
,
0002
0203
0310
0110
,
0020
2030
3200
0010
,
0320
0000
0000
0000
0032
0000
0000
0000
2000
0003
0000
0000
3010
0000
0000
0000
,
2000
3002
0203
0310
,
0200
0302
2003
3200
,
0320
0000
0032
0000
1003
0100
2000
0000
,
3001
0000
0100
0010
0100
0000
0001
1000
0001
0000
0100
0000
0010
0000
1000
0100
,
1000
0100
0010
0001
0010
0001
1000
0010
1000
0010
0100
0000
0001
0000
1000
0000
,
0001
0000
0100
0010
0100
0000
0001
0000
1000
0100
1000
0100
1000
0000
0001
0000
,
1000
0010
0010
0100
0001
1000
0101
0000
,
1000
0001
1000
0100
0010
0001
1100
0000
,
0001
1000
0001
1000
0010
0100
1001
0000
,
0010
1000
0100
0010
0001
1000
0101
0000
,
1000
0100
0010
0001
1000
0010
1001
0000
,
0100
0000
0000
0000
0000
0000
0000
0000
1001
0000
0010
0100
0010
0000
1001
0000
,
0100
0010
0100
0000
1001
0000
0000
0000
0001
0000
0001
0100
0000
0100
0010
0000
,
1000
0100
0010
0001
1100
0001
0100
0110
,
0010
0000
1000
0000
1002
0000
0000
0000
0103
0000
0100
0010
0000
0010
1000
0000
,
0001
0000
0010
0000
0100
0000
1000
0001
1000
0000
0010
0000
0100
0001
0100
0000
,
0010
0000
1000
0001
1000
0000
0000
0000
0001
0000
0001
0010
0000
0010
0100
0000
,
1000
0000
0010
0000
0100
0000
0001
0000
1001
0000
1000
0010
1000
0000
1001
0000
,
0001
0010
0001
0000
1001
0000
0000
0000
1000
0000
1000
0100
0000
0100
0010
0000
,
0001
0000
1000
0000
0010
0100
0010
0100
0001
1000
0001
1000
0001
1000
0010
0100
,
0010
0100
0010
0100
0001
0000
0000
0000
1000
0000
1000
0000
0100
0000
0010
0000
,
0001
0000
1000
0000
0010
0000
0100
0000
0001
1000
0001
1000
0001
1000
0010
0100
,
0010
0100
0010
0100
0001
0000
0000
0000
1000
0000
1000
0100
0000
0100
0010
0000
,
0001
0000
1000
0000
0010
0000
0100
0000
0001
0100
0001
1000
0100
1000
0001
0100
,
0001
1000
0100
1000
0001
0000
0000
0000
1000
0000
0100
0000
0010
0000
0001
0000
,
1000
0000
1000
0000
0001
0000
1000
0000
0001
0010
0001
1000
0010
1000
0001
0010
,
0001
1000
0010
1000
0001
0000
0000
0000
1000
0000
1000
0100
0000
0100
0010
0000
,
0001
1000
0001
0000
0100
0000
0010
0000
2000
0000
0100
0000
0000
0000
0100
0000
,
0000
0100
0000
0001
0000
0100
0000
0100
,
0000
0100
0000
0001
0000
0100
0000
0100
,
0000
0100
0000
0001
0000
0100
0000
0100
,
0000
0100
0000
0001
3002
0100
0000
0100
,
0000
0100
0000
1000
0000
0100
0000
0100
,
0000
0100
0000
1000
0000
0100
0000
0100
,
0000
0100
0000
1003
0000
0000
0000
0000
;

//---------------dance-single - ----------------
#NOTEDATA:;
#CHARTNAME:;
#STEPSTYPE:dance-single;
#DESCRIPTION:;
#CHARTSTYLE:;
#DIFFICULTY:Hard;
#METER:7;
#RADARVALUES:0.387358,0.411896,0.122270,0.266116,0.007192,323.000000,17.000000,37.000000,0.000000,0.000000,0.000000,0.000000,0.000000,0.387358,0.411896,0.122270,0.266116,0.007192,323.000000,17.000000,37.000000,0.000000,0.000000,0.000000,0.000000,0.000000;
#CREDIT:Ben Speirs;
#NOTES:
0000
0000
0000
0000
,
0000
0000
0000
0000
,
0000
0000
0000
0000
,
0000
0000
0000
0000
,
0100
0000
0010
0000
1000
0100
1000
0000
,
0010
0000
0100
0000
0001
1000
0001
0000
,
0010
0000
0001
0000
1000
0100
1000
0100
,
0010
0000
0001
0000
0100
0010
0100
0000
,
0002
0000
0100
0000
1003
0001
1000
0000
,
2000
0000
0100
0000
3001
1000
0001
0000
,
0200
0000
0310
0000
1000
0100
1000
0000
,
0001
0100
0001
0000
1000
0010
1000
0000
,
0001
0100
0001
1000
0001
0010
0001
0000
,
1000
0100
1000
0001
2000
0000
3010
0000
,
1000
0100
0010
0001
0100
0010
1000
0000
,
0001
0000
0000
1000
0000
0000
0020
0000
0000
0000
0000
0000
0130
0000
0000
0000
,
0001
0100
0001
1000
0001
0000
0100
0000
,
0010
1000
0010
0100
0001
0000
1000
0000
,
0100
0010
0100
0010
0001
0010
0001
0000
,
1000
0000
0000
0100
0000
0000
0001
0000
0000
0000
0000
0000
0000
0000
0000
0000
,
1100
0000
0001
0200
0000
0310
2000
0000
,
0000
3001
0010
0001
1000
0000
1100
0000
,
0011
0000
1000
0020
0000
0130
0002
0000
,
1003
0100
1000
0000
0001
0100
0001
0000
,
1001
0000
1000
0020
0000
0130
0002
0000
,
0000
1003
0100
1000
0001
0000
1100
0000
,
1001
0000
1000
0020
0000
0130
0002
0000
,
1003
0000
0001
0100
0010
1000
0100
0000
,
0020
0030
0002
0003
,
2000
3000
0020
0030
,
0200
0300
0002
0003
,
2000
3000
0002
0003
,
1000
0100
0010
0010
,
0001
1000
0010
0010
,
0100
0001
1000
1000
,
0100
0010
0001
0001
,
1000
0000
1100
0000
0001
1000
0001
0000
,
1000
0100
0010
0001
0100
0010
1000
0000
,
0001
0100
0001
1000
0100
0010
0001
1000
,
0000
0001
0100
0001
0000
1000
1100
0000
,
0010
0000
0000
0000
1000
0001
1001
0000
,
0100
0000
0000
0000
0001
1000
1001
0000
,
0010
0000
1000
0000
0100
0010
0110
0000
,
0001
0010
0100
1000
0010
0100
0001
0000
,
1000
0000
0000
0000
0101
0000
0010
2000
,
0000
3100
0020
0000
0030
0001
0010
0001
,
1000
0000
1100
0000
0001
0000
1000
0020
,
0000
0130
0002
0000
1003
0100
0010
0001
,
0100
0010
1000
0000
1001
0000
0010
2000
,
0000
3001
0200
0000
0300
0010
1000
0010
,
0100
0000
0101
0000
1001
0000
1000
0200
,
0000
0310
0002
0000
1003
0100
0010
0001
,
0100
0010
1000
0000
0001
0100
0001
1000
,
0100
1000
0002
0000
0103
0000
0010
0000
,
1000
0100
0010
0000
0001
0010
0001
1000
,
0010
1000
0002
0000
1003
0000
0101
0000
,
1000
0100
0010
0001
2000
0000
3010
1000
,
0100
1000
0002
0000
0103
0000
0010
0000
,
1000
0001
0010
0000
0002
0000
0103
0010
,
0100
0001
2000
0000
3100
1000
0010
0100
,
0001
1000
0010
0000
0200
0001
0000
0001
,
0000
0001
0000
0010
0000
0001
0000
0001
,
0000
0001
0000
0010
0000
0001
0000
0001
,
0000
0001
0000
0010
0000
0001
0000
0001
,
0000
0001
0000
0010
0320
1000
0000
1000
,
0000
1000
0000
0100
0000
1000
0000
1000
,
0000
1000
0000
0100
0000
1000
0000
1000
,
0000
1000
0000
0130
0000
0000
0000
0000
;

//---------------dance-single - ----------------
#NOTEDATA:;
#CHARTNAME:;
#STEPSTYPE:dance-single;
#DESCRIPTION:;
#CHARTSTYLE:;
#DIFFICULTY:Medium;
#METER:4;
#RADARVALUES:0.292831,0.363437,0.244539,0.222962,0.000000,220.000000,34.000000,31.000000,0.000000,0.000000,0.000000,0.000000,0.000000,0.292831,0.363437,0.244539,0.222962,0.000000,220.000000,34.000000,31.000000,0.000000,0.000000,0.000000,0.000000,0.000000;
#CREDIT:Ben Speirs;
#NOTES:
0000
0000
0000
0000
,
0000
0000
0000
0000
,
0000
0000
0000
0000
,
0000
0000
0000
0000
,
1000
0001
0100
0000
,
0001
1000
0010
0000
,
1000
0000
0001
0000
0010
0100
0010
0000
,
0001
0000
1000
0000
0010
0100
0010
0000
,
1000
0001
0100
0000
,
0001
1000
0100
0000
,
1000
0000
0001
0000
0010
0100
0010
0000
,
0001
0000
1000
0000
0010
0100
0010
0000
,
2000
0100
3100
0000
,
0002
0100
0103
0000
,
0002
2003
3020
0230
,
0301
1000
0001
1000
0010
0000
0000
0000
,
2000
0100
3100
0000
,
0002
0100
0103
0000
,
0002
2003
3020
0230
,
0301
1000
0001
1000
0010
0000
0000
0000
,
1001
0110
1001
0110
,
0000
1000
0100
0010
0001
0000
0000
0000
,
1001
0110
1001
0110
,
0002
0003
2000
3000
,
1001
0110
1001
0110
,
0000
1000
0010
0100
0001
0000
0000
0000
,
1001
0110
1001
0110
,
0002
0003
2000
3000
,
0020
0000
0030
0000
,
0200
0000
0300
0000
,
0002
0000
0003
0000
,
2000
0000
3000
0000
,
0020
0030
2000
3000
,
0002
0003
0200
0300
,
0010
0010
1000
1000
,
0001
1000
0001
0000
,
0100
0000
0010
0000
1000
0100
1000
0000
,
0010
0100
0001
0000
,
1000
0000
0001
0000
0010
0100
0010
0000
,
0001
1000
0010
0000
,
0202
0000
0303
0000
0001
0100
0001
0000
,
2200
0000
3300
0000
1000
0100
1000
0000
,
0010
0000
0000
0000
1000
0001
1000
0000
,
0010
0000
0100
0000
0001
1000
0001
0000
,
0100
0000
0101
1010
,
1100
0000
0011
0000
0000
1000
0100
0010
,
0001
0000
0011
1010
,
0101
1100
0010
1000
,
0001
0000
0101
1010
,
1100
0000
0011
0000
0000
0001
0010
0100
,
1000
0000
1100
1010
,
0101
1001
0010
0100
,
0001
0000
0000
0000
1000
0100
1000
0100
,
1000
0100
1000
0000
0000
0010
0010
0010
,
0000
0000
0000
0000
0100
0001
0100
0001
,
0100
0001
0100
0000
0010
0000
1000
0000
,
0001
0000
0000
0000
0010
0001
0010
0001
,
0010
0001
0010
0000
0000
0100
0100
0100
,
0000
0000
0000
0000
1000
0100
1000
0100
,
1000
0100
1000
0000
0010
0000
1000
0000
,
0001
0000
0100
0000
,
0100
0000
0010
0000
,
0010
0000
1000
0000
,
1000
0000
0001
0000
,
0001
0000
0200
0000
,
0000
0000
0320
0000
,
0000
0000
2030
0000
,
0000
0000
0000
3000
0000
0000
0000
0000
;

//---------------dance-single - ----------------
#NOTEDATA:;
#CHARTNAME:;
#STEPSTYPE:dance-single;
#DESCRIPTION:;
#CHARTSTYLE:;
#DIFFICULTY:Easy;
#METER:3;
#RADARVALUES:0.174671,0.242292,0.035962,0.158231,0.000000,143.000000,5.000000,22.000000,0.000000,0.000000,0.000000,0.000000,0.000000,0.174671,0.242292,0.035962,0.158231,0.000000,143.000000,5.000000,22.000000,0.000000,0.000000,0.000000,0.000000,0.000000;
#CREDIT:Ben Speirs;
#NOTES:
0000
0000
0000
0000
,
0000
0000
0000
0000
,
0000
0000
0000
0000
,
0000
0000
0000
0000
,
1000
0000
0010
0010
,
0100
0000
0001
0001
,
0010
0000
0100
0000
,
1000
0100
0010
0000
,
0001
0000
0100
0100
,
0010
0000
1000
1000
,
0100
0000
1000
0000
,
0001
0010
0100
1000
,
0020
0030
1000
0000
,
0002
0003
0100
0000
,
0002
0003
2000
3000
,
0100
0100
0000
0000
,
2000
3000
0010
0000
,
0200
0300
0001
0000
,
1000
1000
0001
0001
,
0100
0100
0100
0000
,
1001
0000
0010
0000
,
1000
0100
0010
0000
,
0001
0000
1000
1000
,
0010
0000
0100
0000
,
1001
0000
1000
0000
,
0001
0010
0100
0000
,
1000
0000
0010
0010
,
0100
0000
0001
0000
,
2000
0000
3000
0000
,
0002
0000
0003
0000
,
0200
0000
0300
0000
,
0020
0000
0030
0000
,
2000
3000
2000
3000
,
0002
0003
0002
0003
,
0200
0300
0200
0300
,
0020
0030
0020
0030
,
1001
0000
1000
0000
,
0010
1000
0001
0000
,
0100
0000
0001
0000
,
1000
0100
0010
0001
,
2000
3000
0010
0010
,
0200
0300
0001
0000
,
1000
0000
0001
0001
,
0010
0000
0001
1000
,
0010
0000
1001
0000
,
0100
0000
0010
1000
,
0100
0000
0010
0000
,
0001
0001
1000
0000
,
0010
0000
0110
0000
,
0100
0000
0001
1000
,
0100
0000
0010
0000
,
0001
0001
1000
0000
,
0010
0000
0100
0100
,
0100
0100
0000
0001
,
1000
0000
0010
0010
,
0010
0010
0000
1000
,
1000
0000
0100
0100
,
0100
0100
0000
1000
,
0010
0000
0100
0100
,
0100
0100
0000
0001
,
0001
0000
2000
0000
,
0000
0000
0000
0000
,
0000
0000
0000
0000
,
0000
0000
0000
0000
,
0000
3000
0002
0000
,
0000
0000
0000
0000
,
0000
0000
0000
0000
,
0000
0000
0000
0003
0000
0000
0000
0000
;

//---------------dance-single - ----------------
#NOTEDATA:;
#CHARTNAME:;
#STEPSTYPE:dance-single;
#DESCRIPTION:;
#CHARTSTYLE:;
#DIFFICULTY:Beginner;
#METER:2;
#RADARVALUES:0.105830,0.139172,0.028769,0.000000,0.000000,99.000000,4.000000,0.000000,0.000000,0.000000,0.000000,0.000000,0.000000,0.105830,0.139172,0.028769,0.000000,0.000000,99.000000,4.000000,0.000000,0.000000,0.000000,0.000000,0.000000,0.000000;
#CREDIT:Ben Speirs;
#NOTES:
0000
0000
0000
0000
,
0000
0000
0000
0000
,
0000
0000
0000
0000
,
0000
0000
0000
0000
,
0001
0000
1000
0000
,
0010
0000
0010
0000
,
1000
0000
0001
0000
,
0100
0000
0100
0000
,
0001
0000
0001
0000
,
1000
0000
1000
0000
,
0010
0000
0010
0000
,
0100
0000
0100
0000
,
0001
0001
0001
0000
,
0001
0000
0000
0000
,
1000
1000
1000
0000
,
1000
0000
0000
0000
,
0010
0000
1000
0000
,
0100
0100
0000
0000
,
0010
0000
0001
0000
,
0100
0100
0000
0000
,
1001
0000
0000
0000
,
1000
1000
0000
0000
,
0010
0000
0100
0000
,
0001
0000
0000
0000
,
1001
0000
0000
0000
,
0001
0001
0000
0000
,
0010
0000
0001
0000
,
0100
0000
0000
0000
,
0010
0000
0000
0000
,
1000
0000
0000
0000
,
0100
0000
0000
0000
,
0010
0000
0000
0000
,
0001
0000
1000
0000
,
0010
0000
0000
0000
,
1000
0000
0001
0000
,
0100
0000
0000
0000
,
1001
0000
0000
0000
,
0010
0010
0010
0000
,
1000
0000
0000
0000
,
0100
0100
0100
0000
,
0010
0000
0000
0001
,
0001
0000
0000
1000
,
1000
0000
0000
0000
,
0010
0000
0010
0000
,
0100
0000
0000
0000
,
0000
0000
1000
1000
,
0000
0000
0010
0000
,
1000
0000
0001
0000
,
0000
0000
1001
0000
,
0000
0000
0001
0000
,
0100
0000
0010
0000
,
0000
0000
1000
1000
,
0000
0000
0100
0100
,
0100
0000
0100
0000
,
0000
0000
1000
0000
,
0001
0000
0100
0000
,
0010
0000
1000
1000
,
1000
0000
1000
0000
,
0000
0000
0001
0000
,
1000
0000
0010
0000
,
0010
0000
0100
0000
,
0000
0000
0000
0000
,
0000
0000
0000
0000
,
0000
0000
0000
0000
,
0000
0000
0001
0000
;

//---------------dance-double - ----------------
#NOTEDATA:;
#CHARTNAME:;
#STEPSTYPE:dance-double;
#DESCRIPTION:;
#CHARTSTYLE:;
#DIFFICULTY:Challenge;
#METER:9;
#RADARVALUES:0.509628,0.629958,0.122270,0.179808,0.208578,454.000000,17.000000,25.000000,0.000000,0.000000,0.000000,0.000000,0.000000,0.509628,0.629958,0.122270,0.179808,0.208578,454.000000,17.000000,25.000000,0.000000,0.000000,0.000000,0.000000,0.000000;
#CREDIT:Ben Speirs;
#NOTES:
// measure 0
00000000
00000000
00000000
00000000
,  // measure 1
00000000
00000000
00000000
00000000
,  // measure 2
00000000
00000000
00000000
00000000
,  // measure 3
00000000
00000000
00000000
00000000
,  // measure 4
10000000
00000000
00000000
00000000
00010000
01000000
00010000
00000000
10000000
00000000
00010000
00000000
01000000
00000000
00010000
00000000
,  // measure 5
10000000
00000000
00000000
00000000
10000000
01000000
10000000
00000000
00010000
00000000
10000000
00000000
01000000
00000000
00000000
00000000
,  // measure 6
10000000
01000000
00100000
00010000
01000000
01000000
00001000
00001000
,  // measure 7
00010000
00001000
00000010
00000001
00001000
00000010
00000010
00000000
,  // measure 8
00001000
00000000
00000001
00000000
00000100
00000001
00000100
00000000
00000001
00000000
00001000
00000000
00000001
00000000
00001000
00000000
,  // measure 9
00000010
00000000
00001000
00000000
00000001
00000100
00000001
00000000
00001000
00000000
00000001
00000000
00001000
00000000
00000000
00000000
,  // measure 10
00000001
00000010
00000100
00001000
00000010
00000010
00010000
00010000
,  // measure 11
00001000
00100000
00010000
01000000
00100000
10000000
00010000
00000000
,  // measure 12
10000000
00000000
00000000
01000000
00000000
00000000
00100000
00000000
00010000
00000000
00100000
00000000
00010000
00000000
00000000
00000000
,  // measure 13
10000000
00000000
00000000
00010000
00000000
00000000
02000000
00000000
00100000
00000000
00000000
00000000
03100000
00000000
00000000
00000000
,  // measure 14
01000000
00000000
00000000
00010000
00000000
00000000
10000000
00000000
01000000
00000000
10000000
00000000
01000000
00000000
00000000
00000000
,  // measure 15
10000000
00010000
00100000
00001000
00010000
00000010
00001000
00000001
,  // measure 16
00000100
00000000
00000100
00000010
00000000
00000000
00001000
00000000
00000000
00000000
00000100
00000000
00000010
00000000
00000001
00000000
,  // measure 17
00001000
00000000
00001000
00000010
00000000
00000000
00000100
00000000
00000001
00000000
00001000
00000000
00000100
00000000
00000000
00000000
,  // measure 18
00010000
00010000
00001000
00001000
00100000
00010000
10000000
00100000
,  // measure 19
01000000
00010000
00100000
00001000
00010000
00000010
00000010
00001000
,  // measure 20
00001001
00000000
00000000
00000001
00000100
00000000
00000010
00000000
00000000
00001000
00000100
00000000
00000010
00000000
00000000
00000000
,  // measure 21
00000001
00000010
00000100
00001000
00000010
00000100
00000001
00001000
,  // measure 22
00000010
00000000
00010000
00000100
00010000
00000000
00001000
00000000
00100000
00010000
00100000
00000000
00010000
00000000
00000000
00000000
,  // measure 23
10000000
01000000
00100000
00010000
01000000
00100000
10000000
00000000
,  // measure 24
01010000
00000000
00000000
10000000
00100000
00000000
01000000
00000000
00000000
00010000
10000000
00000000
01000000
00000000
00000000
00000000
,  // measure 25
00100000
00000000
00010000
00000000
10000000
00000000
00100000
00000000
01000000
00000000
00010000
00000000
00100000
00000000
00001000
00010000
,  // measure 26
00001000
00000000
00010000
00000000
00000010
00001000
00000010
00000000
00000100
00000000
00000001
00000000
00001000
00000000
00000000
00000000
,  // measure 27
00000001
00000000
00000001
00000010
00000000
00000010
00000200
00000000
00000000
00000000
00001300
00000000
00000100
00000000
00010000
00000000
,  // measure 28
00002000
00203000
00320000
20030000
,  // measure 29
30200000
02300000
03020000
20030000
,  // measure 30
32000000
00100000
00010000
00001000
,  // measure 31
00010000
00100000
10000000
03200000
,  // measure 32
00320000
00000000
20030000
00000000
30100000
01000000
00100000
00000000
,  // measure 33
20000000
30020000
00230000
00302000
,  // measure 34
00003020
00000001
00000100
00001000
,  // measure 35
00010000
00001000
00000100
00000031
,  // measure 36
00001100
00000000
00000100
00000000
00000010
00000000
00000001
00001000
00000001
00000000
00000100
00000000
00000010
00000000
00001000
00000100
,  // measure 37
00001000
00000100
00010000
00001000
00010000
00001000
00100000
00010000
00100000
00010000
10000000
00000000
00100000
00000000
01000000
00000000
,  // measure 38
00010000
00000000
10000000
01000000
10000000
00000000
00100000
00000000
01000000
00010000
01000000
00010000
01000000
00000000
00010000
00000000
,  // measure 39
10000000
01000000
01000000
00100000
00010000
10000000
10010000
00000000
,  // measure 40
00010000
01000000
00100000
10000000
00010000
00010000
11000000
00000000
,  // measure 41
10000000
00100000
01000000
00010000
00100000
00100000
00011000
00000000
,  // measure 42
00001000
00010000
00000010
00010000
00000010
00000010
00001010
00000000
,  // measure 43
00001000
00000100
00000010
00000001
00000100
00000010
00001000
00000000
,  // measure 44
00000100
00000000
00000000
00000000
00000000
00000000
00000000
00000000
00011000
00000000
00100000
00010000
00100000
00000000
00011000
00000000
,  // measure 45
00000010
00001000
00000010
00000000
00011000
00000000
00000000
00000000
00010000
00000000
00100000
00000000
10000000
00000000
01000000
00000000
,  // measure 46
00100000
00000000
00010000
00000000
01000000
00000000
00001000
00000000
00011000
00000000
00000010
00001000
00000010
00000000
00011000
00000000
,  // measure 47
00100000
00010000
00100000
00000000
00011000
00000000
00000000
00000000
00000010
00000000
00000010
00002000
00000000
00000000
00003002
00000000
,  // measure 48
00000000
00000000
00001003
00000000
00000100
00000000
00000010
00000000
00000001
00000000
00000100
00000010
00000100
00000000
00000001
00000000
,  // measure 49
00001000
00000100
00001000
00000000
00000001
00000000
00000000
00000000
00001000
00000000
00000100
00000000
00000010
00000000
00000001
00000000
,  // measure 50
00001000
00000000
00001000
00000000
00000010
00000000
00010000
00000000
00010100
00000000
00000000
00010000
00001000
00000000
00100000
00000000
,  // measure 51
00000000
00010000
10000000
00000000
00010000
00000000
00000000
00000000
01000000
00000000
01000000
00000000
00100000
00000000
10000000
00000000
,  // measure 52
01000000
00100000
01000000
00000000
10000000
00000000
00010000
00000000
00100000
01000000
00100000
01000000
00100000
00000000
00010000
00100000
,  // measure 53
00010000
00100000
00010000
00000000
10000000
00000000
00000000
00000000
00100000
00000000
00100000
10000000
00000000
10000000
01000000
00000000
,  // measure 54
00100000
00010000
01000000
00001000
00110000
00001000
00010000
00001010
,  // measure 55
00000010
00000000
00010000
00000000
00011000
00000000
00000000
00000000
00000010
00000000
00000010
00002000
00000000
00000000
00003002
00000000
,  // measure 56
00000000
00000000
00001003
00000000
00000100
00000000
00000010
00000000
00000001
00000100
00000001
00000100
00000001
00000000
00001000
00000100
,  // measure 57
00001000
00000100
00001000
00000000
00000001
00000000
00000000
00000000
00001000
00000000
00001000
00000100
00000000
00000100
00000010
00000000
,  // measure 58
00000001
00000000
00001000
00000000
00000010
00000000
00000100
00000001
00000100
00000000
00000010
00000000
00001000
00000100
00001000
00000000
,  // measure 59
00000010
00000000
00010000
00001000
00010000
00000000
00000000
00000000
00001000
00000000
00100000
00010000
00100000
00000000
00010000
00000000
,  // measure 60
10000000
00000000
00100000
00000000
01000000
00010000
01000000
00010000
20000000
00000000
01000000
00000000
00000000
00000000
01000000
00000000
,  // measure 61
00000000
01000000
00000000
00010000
00000000
01000000
00000000
01000000
,  // measure 62
00000000
01000000
00000000
00010000
00000000
01000000
00000000
01000000
,  // measure 63
00000000
01000000
00000000
00010000
00000000
01000000
00000000
01000000
,  // measure 64
00000000
01000000
00000000
00010000
30020000
01000000
00000000
01000000
,  // measure 65
00000000
01000000
00000000
10000000
00000000
01000000
00000000
01000000
,  // measure 66
00000000
01000000
00000000
10000000
00000000
01000000
00000000
01000000
,  // measure 67
00000000
01000000
00000000
10030000
00000000
00000000
00000000
00000000
;
