#TITLE:Freestyler;
#SUBTITLE:;
#ARTIST:Bomfunk MCs;
#TITLETRANSLIT:;
#SUBTITLETRANSLIT:;
#ARTISTTRANSLIT:;
#GENRE:Drum'n'Bass;
#CREDIT:;
#BANNER:Freestyler.png;
#BACKGROUND:Freestyler-bg.png;
#LYRICSPATH:;
#CDTITLE:;
#MUSIC:Freestyler.ogg;
#OFFSET:0.000000;
#SAMPLESTART:46.892895;
#SAMPLELENGTH:13.714000;
#SELECTABLE:YES;
#BPMS:0.000000=163.850006
;
#STOPS:
;
#BGCHANGES:3.500=Freestyler.avi=1.000=0=0=1=====,
99999=-nosongbg-=1.000=0=0=0 // don't automatically add -songbackground-
;
#KEYSOUNDS:;
#ATTACKS:;

//---------------dance-single - ----------------
#NOTES:
     dance-single:
     :
     Hard:
     8:
     0.541181,0.597719,0.474380,0.027107,0.000000,485.000000,70.000000,4.000000,0.000000,0.000000,0.000000,0.541181,0.597719,0.474380,0.027107,0.000000,485.000000,70.000000,4.000000,0.000000,0.000000,0.000000:
// measure 0
0000
0000
0000
0000
,  // measure 1
0000
0000
0000
0000
,  // measure 2
0101
0000
0000
0000
,  // measure 3
0100
0001
0010
0100
1000
0000
1100
0000
,  // measure 4
0011
0000
0000
0000
,  // measure 5
0001
1000
0010
0000
,  // measure 6
1010
0000
0001
0000
0000
1000
0000
0000
,  // measure 7
0010
0000
0100
0010
0000
0100
0010
0000
,  // measure 8
1001
0000
0001
1000
,  // measure 9
0010
1000
0100
0000
0010
0000
0001
0000
,  // measure 10
1100
0000
0000
0000
,  // measure 11
0001
1000
0001
0100
0010
0000
0110
0000
,  // measure 12
0101
0000
1000
0000
,  // measure 13
0010
1000
0001
0000
,  // measure 14
1000
0100
0010
0000
0000
0001
0000
0000
,  // measure 15
0100
0000
0000
0010
0000
0000
0110
0000
,  // measure 16
1001
0000
1000
0000
0010
1000
0100
0000
,  // measure 17
0001
1000
0001
0000
0100
0001
0010
0000
,  // measure 18
0011
0000
1000
0000
0001
1000
0010
0000
,  // measure 19
0100
0010
0100
0010
1000
0100
0010
0000
,  // measure 20
1001
0000
0001
0000
0100
0001
0010
0000
,  // measure 21
1000
0001
1000
0000
0010
1000
0100
0000
,  // measure 22
1100
0000
0001
0000
1000
0001
0100
0000
,  // measure 23
0010
0100
0010
0100
0001
0010
0100
0000
,  // measure 24
1100
0000
0001
1000
0001
0100
0001
0000
,  // measure 25
1000
0010
1000
0100
1000
0000
0010
0100
,  // measure 26
0010
0100
0001
0000
1000
0000
0001
0100
,  // measure 27
0000
0010
1000
0000
0001
0010
0001
0000
,  // measure 28
0011
0000
1000
0001
1000
0010
1000
0000
,  // measure 29
0001
0100
0001
0010
0001
0000
0100
0010
,  // measure 30
0100
0010
1000
0000
0001
0000
1000
0010
,  // measure 31
0100
1000
0100
0010
0100
0001
0010
0100
,  // measure 32
2100
0000
0100
0000
3001
0000
1000
0100
,  // measure 33
0010
0001
1000
0001
0000
1000
0010
0000
,  // measure 34
1010
0011
1010
0011
,  // measure 35
1000
0010
0100
0001
0010
0100
1000
0000
,  // measure 36
0012
0000
0010
0000
1003
0000
0001
0010
,  // measure 37
0100
1000
0001
1000
0000
0001
0100
0000
,  // measure 38
0101
1100
0101
1100
,  // measure 39
0001
0100
0010
1000
0100
0010
0001
0000
,  // measure 40
2100
0000
3000
0000
1001
0000
0001
1000
,  // measure 41
0010
0100
0001
1000
0001
0000
1000
0000
,  // measure 42
1010
0011
1100
0101
,  // measure 43
1000
0100
0001
0100
1000
0010
0100
0000
,  // measure 44
0102
0000
0003
0000
1001
0000
1000
0001
,  // measure 45
0100
0010
1000
0001
1000
0000
0001
0000
,  // measure 46
0101
1100
0011
1010
,  // measure 47
0001
0010
1000
0010
0001
0100
0010
1000
,  // measure 48
0100
0000
1000
0100
0001
0010
0000
0000
,  // measure 49
0001
1000
0001
1000
0010
0000
1001
0000
,  // measure 50
0000
0000
0001
0100
1000
0010
0000
0000
,  // measure 51
1000
0001
1000
0001
0100
0000
1001
0000
,  // measure 52
1010
0000
1000
0100
0010
0001
1000
0010
,  // measure 53
0100
0100
0010
0100
0010
0000
0110
0000
,  // measure 54
0000
0000
1000
0000
0000
0010
0000
0000
,  // measure 55
0001
0000
0000
0100
0000
0000
1000
0000
,  // measure 56
0010
0010
0000
0001
0001
0000
0100
0100
,  // measure 57
0000
1000
1000
0000
0010
0010
0100
0000
,  // measure 58
1001
0000
0000
0000
,  // measure 59
0000
1000
0100
0001
,  // measure 60
1100
0000
0000
0000
,  // measure 61
0001
1000
0100
0010
0001
0000
1000
0000
,  // measure 62
0101
0000
0000
0000
,  // measure 63
0001
1000
0010
0000
,  // measure 64
1001
0000
0001
0000
0000
1000
0000
0000
,  // measure 65
0010
0100
0010
0000
1000
0001
0100
0000
,  // measure 66
1001
0000
0001
0100
0000
0001
1000
0000
,  // measure 67
0001
0010
0000
0001
1000
0000
0001
0000
,  // measure 68
1001
0000
1000
0100
0000
1000
0001
0000
,  // measure 69
1000
0010
0000
1000
0001
0000
0010
0000
,  // measure 70
1001
0000
0001
0100
0000
0010
1000
0000
,  // measure 71
0001
0010
0000
0100
1000
0000
0001
0000
,  // measure 72
0100
0010
0100
0000
0000
0001
0000
0000
,  // measure 73
1000
0000
0000
0010
0000
0000
0110
0000
,  // measure 74
1001
0000
0001
0000
0010
0001
0100
0000
,  // measure 75
0001
0010
0100
0000
0010
0001
1000
0000
,  // measure 76
1010
1100
0101
0011
,  // measure 77
0001
0100
1000
0100
0001
0010
0100
0000
,  // measure 78
1100
0000
1000
0000
0100
1000
0010
0000
,  // measure 79
1000
0100
0010
0000
0100
1000
0001
0000
,  // measure 80
0101
0011
1010
1100
,  // measure 81
1000
0010
0001
0010
1000
0100
0010
0000
,  // measure 82
0001
0010
0001
0100
0001
0000
1000
1000
,  // measure 83
0100
1000
0010
0100
0000
0001
1000
0000
,  // measure 84
1010
0000
0011
0000
1000
0001
0010
0001
,  // measure 85
1000
0010
1000
0001
0100
0000
1001
0000
,  // measure 86
1000
0100
1000
0010
1000
0000
0001
0001
,  // measure 87
0010
0001
0100
0010
0000
1000
0001
0000
,  // measure 88
0101
0000
1100
0000
0001
1000
0100
1000
,  // measure 89
0001
0100
0001
1000
0010
0000
1001
0000
,  // measure 90
0101
0000
0001
0100
1000
0010
0000
0000
,  // measure 91
1000
0100
0010
0001
1000
0000
1001
0000
,  // measure 92
0000
0000
1000
0100
0001
0010
0000
0000
,  // measure 93
0001
1000
0001
1000
0010
0000
1001
0000
,  // measure 94
0101
0000
1000
0100
0010
0001
0000
0100
,  // measure 95
0001
1000
0001
1000
0010
0000
1001
0000
,  // measure 96
1000
0100
0010
0001
1000
0010
0100
0001
,  // measure 97
0010
0010
0001
1000
1000
0010
0001
0010
,  // measure 98
0100
0000
0000
0000
;

//---------------dance-single - ----------------
#NOTES:
     dance-single:
     :
     Challenge:
     11:
     0.861629,0.929785,0.332066,0.060992,0.579421,832.000000,49.000000,9.000000,0.000000,0.000000,0.000000,0.861629,0.929785,0.332066,0.060992,0.579421,832.000000,49.000000,9.000000,0.000000,0.000000,0.000000:
0000
0000
0000
0000
,
0000
0000
0000
0000
,
1010
0000
0000
0000
,
0001
1000
0010
0010
0100
0100
0101
0000
,
1010
0000
0000
0000
,
0001
0000
1000
0100
0010
0001
1000
0000
,
0001
0000
1000
0100
1000
0000
0000
0001
0100
0000
0001
0000
0000
1000
0010
0000
,
0100
0001
1000
0000
0010
0000
1000
0100
0010
0000
0001
0000
1000
0000
0001
0000
,
1001
0000
0000
0000
0000
0000
0000
0000
1000
0000
0000
0000
0001
0000
0100
0010
,
0100
0001
2000
0000
3200
0000
0310
0000
,
0011
0000
0000
0000
,
0001
0010
0100
0100
1000
1000
1010
0000
,
0101
0000
0000
0000
1000
0001
1000
0001
1000
0000
0010
0000
0100
0000
0000
0000
,
0001
1000
0020
0000
0230
0000
0301
0000
,
0100
0001
0101
0000
1000
1100
0000
0001
,
0011
0000
1000
1010
0000
0001
1001
0000
,
0101
0000
0100
0000
0010
0000
1000
0000
0100
0010
0100
0000
0010
0000
0001
0000
,
1000
0001
1000
0000
0010
0000
0100
0000
0001
0000
1000
0000
0100
0000
0010
0000
,
0001
1000
0010
0100
0001
1000
0010
0100
,
0001
1000
0001
1000
0001
1000
0001
1000
0010
0000
0100
0000
0001
0000
1000
0000
,
1010
0000
0010
0000
0100
0000
0001
0000
0010
0100
0010
0000
0100
0000
1000
0000
,
0001
1000
0001
0000
0100
0000
0010
0000
1000
0000
0001
0000
0010
0000
0100
0000
,
1000
0001
0100
0010
1000
0001
0100
0010
,
1000
0001
1000
0001
1000
0001
1000
0001
0100
0000
0010
0100
0001
0000
1000
0000
,
0010
0000
0100
0000
0001
0000
1000
0000
0100
0010
0001
0000
1000
0000
0010
0000
,
0100
0001
1000
0000
0010
0000
0100
0000
0001
1000
0001
0000
1000
0000
0010
0000
,
0100
0001
0100
0000
0010
0000
1000
0000
0100
0000
0010
0000
0001
0000
1000
0000
,
0001
0100
0010
1000
0100
0010
0001
1000
0010
0000
0100
0000
0001
0000
1000
0000
,
0100
0000
1000
0000
0010
0000
0100
0000
0001
1000
0010
0000
0100
0000
0001
0000
,
1000
0100
0010
0000
0001
0000
1000
0000
0001
0100
0010
0000
1000
0000
0010
0000
,
1000
0100
0010
0100
0010
0110
0000
1001
,
0001
0010
0001
0000
0100
0000
0010
1000
0010
0000
0100
0000
0001
1000
0001
1000
,
0010
0100
0010
0100
0001
0010
0100
1000
,
0001
0100
0001
0000
0010
0000
0100
0010
0100
0000
0010
0000
0001
0000
1000
0000
,
0010
1000
0010
0000
1000
0100
1000
0000
0001
0100
0001
0000
1000
0001
1000
0000
,
0001
0100
0010
1000
0100
0010
0001
1000
0010
0000
1000
0000
0001
0000
0001
0000
,
0100
0010
0100
0010
1000
0100
0010
0001
,
1000
0010
1000
0000
0100
0000
0010
0100
0010
0000
0100
0000
1000
0000
0001
0000
,
0100
0001
0100
0000
0001
0010
0001
0000
1000
0010
1000
0000
0001
1000
0001
0000
,
1000
0010
0100
0001
0010
0100
1000
0001
0100
0000
0010
0000
1000
0000
0001
0000
,
0100
0001
0100
0001
0100
0001
0100
0001
2000
0000
0000
0000
3001
0000
1000
0000
,
0010
0100
0001
1000
1000
0010
0100
0001
,
1000
0100
0010
0000
0100
0010
0001
0000
0010
0001
1000
0000
0001
1000
0010
0000
,
1000
0100
0010
0001
0100
0010
1000
0100
0010
0000
0001
0000
0100
0000
0100
0000
,
0010
1000
0010
1000
0010
1000
0010
1000
0002
0000
0000
0000
1003
0000
0001
0000
,
0100
0010
1000
0001
0001
0100
0010
1000
,
0001
0010
0100
0000
0010
0100
1000
0000
0100
1000
0001
0000
1000
0001
0100
0000
,
0001
0010
0100
1000
0010
0100
0001
0010
0100
0000
1000
0000
0001
0000
0100
0000
,
0101
0000
0000
0000
1000
0010
0100
0010
1000
0010
0100
0000
0000
0000
0010
0000
,
1000
0100
0010
0001
1000
0000
1100
0000
,
0101
0000
0000
0000
0001
0010
0100
0010
0001
0010
0100
0000
0000
0000
0010
0000
,
0001
0100
0001
0100
0010
1000
0010
1000
0001
0010
0100
1000
0010
0100
0001
1000
,
0010
0000
0000
0000
1000
0100
1000
0001
1000
0100
1000
0000
0000
0000
0001
0000
,
1000
0010
0100
0001
1000
0000
1001
0000
,
1000
0010
0110
0000
0100
0101
0000
0001
,
0011
0000
1000
1010
0000
0001
0101
0000
,
1000
0011
0000
0001
1010
0000
0100
1001
,
0000
0010
1100
0000
0010
0101
0100
0010
,
1001
0000
0000
0000
0000
0000
0000
0000
1000
0000
0001
0000
1000
0000
0001
1000
,
0001
1000
0020
0000
0230
0000
0301
0000
,
0101
0000
0000
0000
,
0100
0001
1000
1000
0010
0010
1010
0000
,
0011
0000
0000
0000
,
2000
0000
3001
1000
0010
0100
0001
0000
,
1000
0000
0001
0010
0001
0000
0000
1000
0010
0000
1000
0000
0000
0001
0100
0000
,
0010
1000
0001
0000
0100
0000
0001
0010
0100
0000
1000
0000
0001
0000
1000
0000
,
0010
0100
0001
0100
0010
0100
1000
0100
,
0010
0100
0001
0100
0010
0100
1000
0100
,
0010
1000
0010
0100
0010
0001
0010
0100
,
0010
1000
0010
0100
0010
0001
0010
0100
,
0001
0010
1000
0001
0100
1000
0001
0100
,
1000
0001
0010
1000
0001
0010
0100
1000
,
0010
0100
0110
0000
0001
0101
0000
1000
,
1010
0000
1001
1001
0000
0110
0110
0000
,
1001
0000
0001
0000
0100
0000
0010
0000
1000
0100
0010
0000
0001
0000
1000
0000
,
0010
0100
0010
0100
0001
0000
0100
0000
0010
0000
1000
0000
0100
0000
0010
0000
,
0001
1000
0010
0000
1000
0001
0010
0000
0001
1000
0010
0000
1000
0001
0010
0000
,
0001
0010
0100
1000
0001
0100
0010
1000
0100
0000
0010
0000
0001
0000
1000
0000
,
0001
0000
1000
0000
0010
0000
0100
0000
0001
0010
0100
0000
1000
0000
0001
0000
,
0100
0010
0100
0010
1000
0000
0010
0000
0100
0000
0001
0000
0010
0000
0100
0000
,
1000
0001
0100
0000
0001
1000
0100
0000
1000
0001
0100
0000
0001
1000
0100
0000
,
1000
0100
0010
0001
1000
0010
0100
0001
0010
0000
0100
0000
1000
0000
0001
0000
,
1000
0100
0010
0100
1000
0100
0010
0100
1000
0000
0010
0000
0100
0000
0001
0000
,
1000
1000
0001
1000
0010
0100
0001
1000
,
0001
1000
0010
0000
1000
0001
0010
0000
0001
1000
0100
0000
1000
0001
0100
0000
,
0001
0010
0100
1000
0010
0100
0001
1000
0100
0010
0001
0000
1000
0000
1000
0000
,
0001
0010
0100
0010
0001
0010
0100
0010
0001
0000
0100
0000
0010
0000
1000
0000
,
0001
0001
1000
0001
0100
0010
1000
0001
,
1000
0001
0100
0000
0001
1000
0100
0000
1000
0001
0010
0000
0001
1000
0010
0000
,
1000
0100
0010
0001
0100
0010
1000
0001
0010
0100
1000
0000
0100
0000
1000
0000
,
1010
0000
0000
0000
0001
1000
0001
0100
0001
1000
0001
0000
0000
0000
0100
0000
,
0001
0001
1000
0010
0100
0000
0110
0000
,
1001
0000
0000
0000
1000
0100
1000
0001
1000
0100
1000
0000
0000
0000
0001
0000
,
1000
0100
0010
0001
0010
0100
1000
0001
0100
0000
0010
0000
1000
0000
0001
0000
,
0101
0000
0000
0000
1000
0010
0100
0010
1000
0010
0100
0000
0000
0000
0010
0000
,
1000
1000
0100
1000
0001
0000
0101
0000
,
1000
0000
0000
0000
0001
0100
0010
0100
0001
0100
0010
0000
0000
0000
0110
0000
,
0001
0100
0010
1000
0100
0010
0001
1000
0010
0000
0100
0000
0001
0000
0010
0000
,
1001
0000
0000
0000
;

//---------------dance-double - ----------------
#NOTES:
     dance-double:
     :
     Challenge:
     11:
     0.845171,0.929785,0.379504,0.027107,0.555702,813.000000,56.000000,4.000000,0.000000,0.000000,0.000000,0.845171,0.929785,0.379504,0.027107,0.555702,813.000000,56.000000,4.000000,0.000000,0.000000,0.000000:
00000000
00000000
00000000
00000000
,
00000000
00000000
00000000
00000000
,
00010100
00000000
00000000
00000000
,
00000100
00010000
00001000
00001000
00100000
00100000
00110000
00000000
,
10010000
00000000
10000000
00000000
,
00010000
10000000
00100000
00000000
01000000
00010000
10000000
00000000
,
10100000
00000000
00000000
00000000
00010000
00000000
00000000
10000000
00010000
00000000
10000000
00000000
00000000
00010000
10000000
00000000
,
00010000
00000000
01000000
00010000
00100000
00001000
00010000
00000100
,
00001100
00000000
00000000
00000000
00000000
00000000
00000000
00000000
00000001
00000000
00000000
00000000
00001000
00000000
00000001
00001000
,
00000001
00001000
00000010
00000000
00000100
00000000
00000001
00000000
,
00001010
00000000
00000000
00000000
,
00000001
00000100
00000010
00000010
00001000
00001000
00001100
00000000
,
00010100
00000000
00000000
00000000
00001000
00010000
00001000
00000000
,
00100000
00001000
00010000
00000000
00001000
00000000
01000000
00000000
,
00010000
10000000
00100000
00000000
01000000
00010000
00000000
00100000
,
00001000
00000000
00010000
00000100
00000000
00001000
00000110
00000000
,
00001001
00000000
00000001
00000000
00000100
00000000
00000010
00000000
00001000
00000100
00001000
00000000
00000010
00000000
00000100
00000000
,
00000001
00001000
00000001
00000000
00000100
00000000
00000010
00000000
00001000
00000000
00000100
00000000
00010000
00000000
00001000
00000000
,
00100000
00100000
00010000
01000000
00100000
10000000
01000000
00100000
,
00010000
10000000
00010000
10000000
00010000
10000000
00010000
10000000
00100000
00000000
00100000
00000000
01000000
00000000
00010000
00000000
,
00100000
00000000
00010000
00000000
01000000
00000000
00100000
00000000
10000000
01000000
10000000
00000000
00100000
00000000
01000000
00000000
,
00010000
10000000
00010000
00000000
01000000
00000000
00010000
00000000
00100000
00000000
00001000
00000000
00010000
00000000
00000100
00000000
,
00010000
00001000
00010000
00000000
00000100
00000000
00001000
00000000
00000010
00000000
00000100
00000000
00000001
00000000
00001000
00000000
,
00000010
00000100
00000010
00000100
00000010
00000100
00000010
00000100
00000001
00000000
00000100
00000000
00000010
00000000
00001000
00000000
,
00000100
00001000
00000100
00000000
00000010
00000000
00000001
00000000
00001000
00000010
00000100
00000000
00000001
00000000
00001000
00000000
,
00000010
00001000
00000100
00000000
00010000
00000000
00001000
00000000
00100000
00000000
00010000
00000000
01000000
00000000
00100000
00000000
,
10000000
01000000
10000000
01000000
10000000
00000000
00100000
00000000
01000000
00000000
00010000
00000000
10000000
00000000
00010000
00000000
,
00100000
00010000
01000000
00000000
00100000
00000000
01000000
00010000
00100000
00000000
00010000
00000000
00100000
00001000
00010000
00000100
,
00001000
00000000
00000010
00000000
00000100
00000000
00000001
00000000
00001000
00000010
00001000
00000000
00000001
00000000
00000010
00000000
,
00000001
00000100
00000001
00000000
00001000
00000000
00000010
00000100
00000010
00000000
00001000
00000000
00000100
00000000
00000010
00000000
,
00000001
00001000
00000001
00001000
00000001
00000000
00001000
00000000
00000010
00000000
00000100
00000000
00000001
00000000
00000000
00000000
,
00000001
00000100
00000001
00000000
00000100
00000000
00000010
00001000
00000010
00000000
00001000
00000000
00000100
00000010
00000100
00000010
,
00000001
00000000
00000010
00000000
00000100
00000000
00001000
00000000
00000010
00000100
00000010
00000000
00001000
00000000
00000100
00000000
,
00010000
00001000
00010000
00001000
00010000
00000000
00001000
00000000
00100000
00000000
00010000
00000000
01000000
00000000
00100000
00000000
,
10100000
00000000
00110000
00000000
10010000
00010000
10010000
10000000
,
00100000
01000000
00100000
00000000
10000000
00000000
00100000
01000000
00100000
00000000
01000000
00000000
00010000
00000000
00010000
00000000
,
10000000
00000000
01000000
00000000
00100000
00000000
00010000
00000000
01000000
00100000
01000000
00000000
00010000
00000000
00100000
00000000
,
00001000
00010000
00001000
00010000
00001000
00000000
00010000
00000000
00000100
00000000
00001000
00000000
00000010
00000000
00000100
00000000
,
00000101
00000000
00001100
00000000
00001001
00001000
00001001
00000001
,
00000100
00000010
00000100
00000000
00000001
00000000
00000100
00000010
00000100
00000000
00000010
00000000
00001000
00000000
00000100
00000000
,
00001000
00000001
00001000
00000001
00001000
00000001
00001000
00000001
00000200
00000000
00000000
00000000
00000310
00000000
00001000
00000000
,
00000100
00010000
00001000
00100000
00100000
00001000
00010000
00001000
,
01001000
00000000
10010000
00000000
10100000
00100000
01100000
01000000
,
00010000
00100000
00010000
00100000
00010000
00100000
00010000
00100000
01000000
00000000
10000000
00000000
00010000
00000000
01000000
00000000
,
00010000
10000000
00010000
10000000
00010000
10000000
00010000
10000000
00200000
00000000
00000000
00000000
01300000
00000000
00010000
00000000
,
00100000
00001000
00010000
00000100
00000100
00010000
00001000
00010000
,
00010010
00000000
00001001
00000000
00000101
00000100
00000110
00000010
,
00001000
00000100
00000010
00000000
00000100
00000000
00001000
00000100
00000010
00000000
00000001
00000000
00001000
00000001
00001000
00000001
,
00000100
00000000
00000000
00000000
00000001
00000100
00000010
00000100
00000001
00000100
00000010
00000000
00000000
00000000
00000100
00000000
,
00000001
00000001
00000100
00000010
00001000
00000000
00001100
00000000
,
00010000
00000000
00000000
00000000
00001000
00010000
00000100
00010000
00001000
00010000
00000100
00000000
00000000
00000000
00010000
00000000
,
00001000
00100000
00001000
00100000
00010000
00100000
00010000
10000000
00010000
10000000
00010000
10000000
00100000
10000000
00100000
10000000
,
00010000
00000000
00000000
00000000
10000000
01000000
00100000
01000000
10000000
01000000
00100000
00000000
00000000
00000000
00010000
00000000
,
00100000
00100000
00010000
01000000
00001000
00000000
01001000
00000000
,
00001000
01000000
01010000
00000000
00100000
10100000
00000000
10000000
,
11000000
00000000
00010000
00110000
00000000
01000000
01001000
00000000
,
00000100
00010010
00000000
00001000
00000101
00000000
00000010
00001100
,
00000000
00010000
00101000
00000000
00010000
10100000
00000000
01000000
,
01001000
00000000
00000000
00000000
00000000
00000000
00000000
00000000
00001000
00000000
00010000
00000000
00001000
00000000
00010000
00001000
,
00010000
00001000
00100000
00000000
00001000
00000000
00010000
00000000
,
00010100
00000000
00000000
00000000
,
00000100
00010000
00001000
00001000
00100000
00100000
00110000
00000000
,
00101000
00000000
00000000
00000000
00100000
00001000
00010000
00000000
,
00000100
00010000
00001000
00100000
00001000
00010000
00000100
00010000
,
00011000
00000000
00000000
00000000
00001000
00000000
00000000
00010000
00001000
00000000
00010000
00000000
00000000
00001000
00010000
00000000
,
00000100
00010000
00000100
00010000
00001000
00010000
00001000
00010000
00001000
00100000
00001000
00100000
00010000
00100000
00010000
00100000
,
00001000
01000000
00010000
10000000
00100000
00100000
01000000
01000000
,
00001000
00010000
00000010
00000100
00000001
00000010
00000100
00001000
,
00000010
00000100
00001000
00010000
00100000
10000000
01000000
00010000
,
00001000
00000010
00000001
00000100
00000010
00000100
00000001
00000010
,
00000100
00000010
00001000
00000010
00000001
00000100
00001000
00000100
,
00000010
00000100
00000001
00000010
00000100
00001000
00000010
00010000
,
00001000
00100000
00110000
00000000
00001000
00011000
00000000
00000100
,
00001100
00000000
00010100
00010100
00000000
00011000
00011000
00000000
,
00101000
00000000
00100000
00000000
00010000
00000000
10000000
00000000
00100000
01000000
00010000
00000000
00100000
00000000
01000000
00000000
,
00100000
00010000
00100000
00010000
10000000
00000000
00100000
00000000
01000000
00000000
00010000
00000000
00100000
00000000
00010000
00000000
,
01000000
00100000
01000000
00000000
00100000
10000000
00100000
00000000
10000000
01000000
00100000
00000000
01000000
00100000
01000000
00000000
,
00100000
00010000
00100000
00001000
00010000
00000100
00001000
00000010
00000100
00000000
00000001
00000000
00001000
00000000
00000001
00000000
,
00000100
00000000
00000010
00000000
00001000
00000000
00000001
00000000
00000100
00000010
00001000
00000000
00000100
00000000
00000010
00000000
,
00000100
00001000
00000100
00001000
00000001
00000000
00000100
00000000
00000010
00000000
00001000
00000000
00000100
00000000
00001000
00000000
,
00000010
00000100
00000010
00000000
00000100
00000001
00000100
00000000
00000001
00000010
00000100
00000000
00000010
00000100
00000010
00000000
,
00000100
00001000
00000100
00010000
00001000
00100000
00010000
01000000
00100000
00000000
10000000
00000000
00010000
00000000
01000000
00000000
,
00001000
01000000
00001000
01000000
00001000
01000000
00001000
01000000
00020000
00000000
00000000
00000000
10030000
00000000
00100000
01000000
,
00100000
01000000
00010000
00100000
00000000
00010000
00100000
00001000
,
00010000
00001000
00010000
00000000
00000100
00010000
00000100
00000000
00010000
00001000
00010000
00000000
00001000
00100000
00001000
00000000
,
00010000
00000100
00010000
00001000
00100000
00000100
00010000
00001000
00100000
00000000
00000100
00000000
00010000
00000000
00000100
00000000
,
00010000
00000010
00010000
00000010
00010000
00000010
00010000
00000010
00002000
00000000
00000000
00000000
00003001
00000000
00000100
00000010
,
00000100
00000010
00001000
00000100
00000000
00001000
00000100
00010000
,
00001000
00010000
00001000
00000000
00100000
00001000
00100000
00000000
00001000
00010000
00001000
00000000
00010000
00000100
00010000
00000000
,
00001000
00100000
00001000
00010000
00000100
00100000
00001000
00010000
00000100
00000000
00100000
00000000
00001000
00000000
00100000
00000000
,
00110000
00000000
00000000
00000000
00001000
00100000
00010000
00100000
00001000
00100000
00010000
00000000
00000000
00000000
00100000
00000000
,
00001000
00001000
00100000
00001000
00010000
00000000
00010100
00000000
,
00001010
00000000
00000000
00000000
00000010
00001000
00000100
00001000
00000010
00001000
00000100
00000000
00000000
00000000
00001000
00000000
,
00000001
00000100
00000001
00000100
00000010
00000100
00000010
00000100
00000010
00001000
00000010
00001000
00000100
00001000
00000100
00001000
,
00000001
00000000
00000000
00000000
00000100
00000001
00001000
00000001
00000100
00000001
00001000
00000000
00000000
00000000
00000001
00000000
,
00000100
00000100
00000010
00001000
00000100
00000000
00001100
00000000
,
00010100
00000000
00000000
00000000
00001000
00010000
00001000
00100000
00001000
00010000
00001000
00000000
00000000
00000000
00100000
00000000
,
00010000
00100000
00010000
00100000
00001000
00100000
00001000
00010000
00001000
00010000
00000100
00001000
00000010
00000100
00000001
00001000
,
00000010
00000000
00000000
00000000
;

//---------------dance-single - ----------------
#NOTES:
     dance-single:
     :
     Medium:
     6:
     0.354333,0.531306,0.345620,0.081322,0.000000,303.000000,51.000000,12.000000,0.000000,0.000000,0.000000,0.354333,0.531306,0.345620,0.081322,0.000000,303.000000,51.000000,12.000000,0.000000,0.000000,0.000000:
0000
0000
0000
0000
,
0000
0000
0000
0000
,
1001
0000
0000
0000
,
1000
0100
0010
0110
,
1001
0000
0000
0000
,
0001
0000
1000
0000
,
1010
0000
0001
0000
0000
1000
0000
0000
,
0020
0000
0100
0130
,
0110
0000
0000
0000
,
0010
0100
0001
1000
,
1001
0000
0000
0000
,
1000
0100
0010
0110
,
1001
0000
0001
0000
,
1000
0001
0100
0000
,
0000
0000
0001
0000
0000
1000
0000
0000
,
0010
0000
0000
0100
0000
0000
0010
0000
,
1001
0000
1000
0000
,
0100
1000
0010
0000
,
1000
0100
0010
0000
,
0001
0010
0001
0000
1000
0000
0001
0000
,
0100
0000
0001
0000
,
0100
0001
1000
0000
,
0010
1000
0100
0000
,
1000
0010
1000
0000
0010
0000
0100
0000
,
0001
0000
0100
0000
,
0010
0100
0010
0000
1000
0000
0000
0000
,
0010
1000
0100
0000
,
1000
0001
1000
0000
0001
1000
0001
0000
,
0100
0000
0001
0000
,
1000
0100
0010
0000
,
0001
0000
0100
0000
0001
1000
0000
1000
,
0000
0000
0000
1001
,
2100
0000
3001
1000
,
0010
1000
0001
0010
,
0011
0011
1010
1010
,
0001
0000
1000
0001
1000
0000
0000
0000
,
0002
0000
0103
0001
,
1000
1000
0010
0000
,
1010
1010
0011
0011
,
1000
0000
0001
1000
0001
0000
0000
0000
,
2000
0000
3100
1000
,
0010
0100
0001
0000
,
1001
1001
0010
0010
,
1001
0100
1001
0000
,
0002
0000
0103
0001
,
1000
1000
0001
0000
,
1001
1001
0100
0100
,
1001
1001
0010
0000
,
1010
0000
0001
0000
,
1000
0000
0100
0010
0100
0000
0010
0000
,
0001
0000
1000
0000
,
0001
0000
0100
0001
0100
0000
0001
0000
,
1000
0000
0010
0000
,
1000
0000
0100
1000
0100
0000
1000
0000
,
0000
0000
0001
0000
0000
1000
0000
0000
,
0010
0000
0000
0100
0000
0000
0001
0000
,
0000
1000
0000
0000
0100
0000
0000
0010
,
0000
0000
0001
0000
0000
1000
0000
0000
,
1001
0000
0000
0000
,
0000
0001
1000
0010
,
1010
0000
0000
0000
,
1000
0100
0010
0110
,
1001
0000
0000
0000
,
0001
0000
1000
0000
,
1010
0000
0001
0000
0000
1000
0000
0000
,
0010
0000
0100
0010
0000
0010
0100
0000
,
1001
0000
0000
0000
,
0001
0100
0100
0010
,
1001
0000
0000
0000
,
1000
0001
0100
0101
,
1010
0000
0001
0000
,
1000
0100
0010
0000
,
0000
0000
0001
0000
0000
1000
0000
0000
,
0010
0000
0000
0100
0000
0000
0110
0000
,
2001
0000
3100
1000
,
0001
0100
0010
0000
,
0101
0101
1000
1000
,
0101
1000
0202
0303
,
2001
0000
3010
1000
,
0100
0010
0001
0000
,
1100
1100
0001
0001
,
1100
0001
2200
3300
,
0001
0000
1000
0000
0010
0000
0100
0010
,
0100
0010
1000
0100
,
1000
0001
1000
0001
,
1000
0001
1000
0001
1000
0000
0000
0000
,
0002
1003
0010
0100
,
0001
0000
0010
0000
0100
0000
1000
0100
,
1000
0001
1100
0101
,
1000
0000
0001
1000
0001
0000
0000
0000
,
0000
0000
0001
0100
0001
0100
0000
0000
,
0001
0100
0010
0000
,
0000
0000
1000
0100
1000
0100
0000
0000
,
1000
0001
0010
0000
,
0000
0000
0001
1000
0001
1000
0000
0000
,
1000
0010
0100
0000
,
0000
0000
0010
1000
0010
1000
0000
0000
,
0100
1000
0010
0100
,
1001
0000
0000
0000
;

//---------------dance-single - ----------------
#NOTES:
     dance-single:
     :
     Easy:
     3:
     0.221700,0.298859,0.060992,0.040661,0.000000,214.000000,9.000000,6.000000,0.000000,0.000000,0.000000,0.221700,0.298859,0.060992,0.040661,0.000000,214.000000,9.000000,6.000000,0.000000,0.000000,0.000000:
0000
0000
0000
0000
,
0000
0000
0000
0000
,
1001
0000
0000
0000
,
1000
0000
0100
0010
,
0010
0000
0000
0000
,
0001
0000
0000
0000
,
1001
0000
0000
0000
,
1000
0000
0010
0000
,
1001
0000
0000
0000
,
1000
0000
0000
0000
,
0110
0000
0000
0000
,
0010
0000
0001
1000
,
1000
0000
0000
0000
,
0010
0000
0000
0000
,
0000
0000
0100
0000
0000
0100
0000
0000
,
0100
0000
0000
0100
0000
0000
0000
0000
,
1001
0000
0000
0000
,
1000
0000
0000
0000
,
0100
0000
1000
0000
,
0010
0010
0000
0100
,
0100
0000
0001
0000
,
1000
0000
0000
0000
,
0001
0000
0010
0000
,
0001
0001
0000
1000
,
1000
0000
0000
0000
,
0010
0000
0000
0000
,
1000
0000
0100
0000
,
1000
1000
0000
0001
,
0001
0000
0100
0000
,
0010
0000
0100
0000
,
0001
0000
0000
0000
,
1000
0000
0000
0000
,
0002
0003
0001
0000
,
0100
0001
0100
0000
,
0010
0010
0010
0010
,
0100
0010
0100
0000
,
0020
0030
0010
0000
,
1000
0010
1000
0000
,
1000
1000
1000
1000
,
0100
1000
0100
0000
,
2000
3000
1000
0000
,
0100
1000
0001
0000
,
0100
0100
0100
0100
,
0001
0100
0001
0000
,
2000
3000
0001
0000
,
1000
0000
0010
0000
,
0010
0010
0100
0100
,
0010
0100
0010
0000
,
0000
1000
0100
0000
,
1000
0001
1000
0000
,
0000
0001
0100
0000
,
0001
1000
0001
0000
,
0000
1000
0010
0000
,
1000
0001
1000
0000
,
0000
0000
0010
0000
0000
0010
0000
0000
,
0010
0000
0000
0010
0000
0000
0010
0000
,
0000
0010
0000
0000
0010
0000
0000
0010
,
0000
0000
0010
0000
0000
0010
0000
0000
,
1001
0000
0000
0000
,
0000
0000
0000
0000
,
0001
0000
0000
0000
,
0100
0100
0000
0010
,
0010
0000
0000
0000
,
1000
0000
0000
0000
,
1001
0000
0000
0000
,
1000
0000
0001
0000
,
0100
0000
0000
0000
,
0001
1000
0010
0010
,
1000
0000
0000
0000
,
1000
0100
0010
0010
,
0001
0000
0000
0000
,
1000
0000
0000
0000
,
0000
0000
0010
0000
0000
0010
0000
0000
,
0010
0000
0000
0010
0000
0000
0000
0000
,
1001
0000
1000
0000
,
0010
0000
0010
0000
,
0100
0100
0001
0001
,
0100
0001
0100
0000
,
0001
0000
1000
0000
,
0100
0000
1000
0000
,
0010
0010
1000
1000
,
0010
1000
0010
0000
,
2000
3000
1000
0000
,
0100
1000
0001
0000
,
0100
0100
0001
0001
,
0100
0001
0100
0000
,
0002
0003
0001
0000
,
0100
0001
1000
0000
,
0010
0010
0100
0100
,
0010
0100
0010
0000
,
0000
1000
0001
0000
,
1000
0100
1000
0000
,
0000
0001
1000
0000
,
0001
0010
0001
0000
,
0000
0100
0001
0000
,
1000
0010
1000
0000
,
0000
0001
1000
0000
,
0001
0100
0001
0000
,
1001
0000
0000
0000
;

//---------------dance-single - ----------------
#NOTES:
     dance-single:
     :
     Beginner:
     2:
     0.121983,0.199240,0.047438,0.000000,0.000000,119.000000,7.000000,0.000000,0.000000,0.000000,0.000000,0.121983,0.199240,0.047438,0.000000,0.000000,119.000000,7.000000,0.000000,0.000000,0.000000,0.000000:
0000
0000
0000
0000
,
0000
0000
0000
0000
,
0001
0000
0000
0000
,
0000
0000
0000
1000
,
1000
0000
0000
0000
,
0000
0000
0000
0000
,
0010
0000
0000
0000
,
0000
0000
0000
0100
,
0100
0000
0000
0000
,
0000
0000
0000
0000
,
0001
0000
0000
0000
,
0000
0000
0000
1000
,
1000
0000
0000
0000
,
0000
0000
0000
0000
,
0010
0000
0000
0000
,
0010
0000
0000
0000
,
1001
0000
0000
0000
,
1000
0000
0000
0000
,
0100
0000
0100
0000
,
0100
0000
0000
0000
,
0010
0000
0000
0000
,
0001
0000
0000
0000
,
1000
0000
1000
0000
,
1000
0000
0000
0000
,
0010
0000
0000
0000
,
1000
0000
0000
0000
,
0001
0000
0001
0000
,
0001
0000
0000
0000
,
0100
0000
0000
0000
,
0001
0000
0000
0000
,
1000
0000
0000
0000
,
0010
0000
0000
0000
,
1001
0000
0000
0000
,
0001
0000
0000
0000
,
0100
0100
0000
0000
,
0100
0100
0000
0000
,
0001
0000
0000
0000
,
1000
0000
0000
0000
,
0001
0001
0000
0000
,
0001
0001
0000
0000
,
1001
0000
0000
0000
,
1000
0000
0000
0000
,
0010
0010
0000
0000
,
0010
0010
0000
0000
,
1000
0000
0000
0000
,
0001
0000
0000
0000
,
1000
1000
0000
0000
,
1000
1000
0000
0000
,
0000
0010
0010
0000
,
0010
0000
0000
0000
,
0000
0100
0100
0000
,
0100
0000
0000
0000
,
0000
0001
0001
0000
,
0001
0000
0000
0000
,
0000
1000
0000
0000
,
1000
0000
0000
0000
,
0001
0000
0000
0000
,
0100
0000
0100
0000
,
1001
0000
0000
0000
,
0000
0000
0000
0000
,
0001
0000
0000
0000
,
0000
0000
0000
1000
,
1000
0000
0000
0000
,
0000
0000
0000
0000
,
0010
0000
0000
0000
,
0010
0000
0000
0000
,
1001
0000
0000
0000
,
0000
0000
0000
0000
,
1000
0000
0000
0000
,
0000
0000
0000
0100
,
0100
0000
0000
0000
,
0000
0000
0000
0000
,
0000
1000
0000
0000
,
0001
0000
0000
0000
,
1001
0000
0000
0000
,
0001
0000
0000
0000
,
0100
0100
0000
0000
,
0100
0100
0000
0000
,
0001
0000
0000
0000
,
1000
0000
0000
0000
,
0010
0010
0000
0000
,
0010
0010
0000
0000
,
1000
0000
1000
0000
,
1000
0000
0000
0000
,
0001
0001
0000
0000
,
0001
0001
0000
0000
,
0100
0000
0100
0000
,
0100
0000
0000
0000
,
0010
0010
0000
0000
,
0010
0010
0000
0000
,
0000
1000
1000
0000
,
1000
0000
0000
0000
,
0000
0100
0100
0000
,
0100
0000
0000
0000
,
0000
1000
1000
0000
,
1000
0000
0000
0000
,
0000
0001
0001
0000
,
0001
0000
0000
0000
,
1001
0000
0000
0000
;
