#VERSION:0.83;
#TITLE:Rolling Girl;
#SUBTITLE:;
#ARTIST:wowaka ft.Hatsune Miku;
#TITLETRANSLIT:;
#SUBTITLETRANSLIT:;
#ARTISTTRANSLIT:;
#GENRE:Vocaloid;
#ORIGIN:;
#CREDIT:;
#BANNER:Rolling Girl.png;
#BACKGROUND:Rolling Girl-bg.png;
#PREVIEWVID:;
#JACKET:jacket.png;
#CDIMAGE:;
#DISCIMAGE:;
#LYRICSPATH:;
#CDTITLE:;
#MUSIC:Rolling Girl.ogg;
#OFFSET:-0.011000;
#SAMPLESTART:78.789177;
#SAMPLELENGTH:13.714000;
#SELECTABLE:YES;
#BPMS:0.000=195.000;
#STOPS:;
#DELAYS:;
#WARPS:;
#TIMESIGNATURES:0.000=4=4;
#TICKCOUNTS:0.000=4;
#COMBOS:0.000=1;
#SPEEDS:0.000=1.000=0.000=0;
#SCROLLS:0.000=1.000;
#FAKES:;
#LABELS:0.000=Song Start;
#BGCHANGES:7.750=Rolling Girl.avi=1.000=0=0=1=====,
99999=-nosongbg-=1.000=0=0=0 // don't automatically add -songbackground-
;
#KEYSOUNDS:;
#ATTACKS:
;

//---------------dance-single - ----------------
#NOTEDATA:;
#CHARTNAME:;
#STEPSTYPE:dance-single;
#DESCRIPTION:;
#CHARTSTYLE:;
#DIFFICULTY:Hard;
#METER:9;
#RADARVALUES:0.687991,0.717487,0.384660,0.253875,0.003847,626.000000,576.000000,50.000000,33.000000,0.000000,0.000000,0.000000,0.000000,0.000000,0.687991,0.717487,0.384660,0.253875,0.003847,626.000000,576.000000,50.000000,33.000000,0.000000,0.000000,0.000000,0.000000,0.000000;
#CREDIT:Ben Speirs;
#NOTES:
// measure 0
0000
0000
0000
0000
,  // measure 1
0000
0000
0000
0000
,  // measure 2
0000
0000
0000
0000
,  // measure 3
0000
0000
0000
0000
,  // measure 4
0000
0000
0000
0000
,  // measure 5
0000
0000
0000
0000
,  // measure 6
0000
0000
0000
0000
,  // measure 7
0000
0000
0000
0000
,  // measure 8
0010
0000
0101
0000
1000
0100
0000
0001
,  // measure 9
0000
1000
0100
0010
0001
1000
0010
0100
,  // measure 10
0001
0000
0101
0000
0001
0100
0000
1000
,  // measure 11
0000
0001
1000
0010
0100
0001
0001
0000
,  // measure 12
0100
0000
1010
0000
0001
0010
0000
1000
,  // measure 13
0000
0001
0010
0100
1000
0001
0100
0010
,  // measure 14
1000
0000
1010
0000
1000
0010
0000
0001
,  // measure 15
0000
1000
0001
0100
0010
1000
1000
0000
,  // measure 16
0201
0000
0302
0000
0103
0010
0100
0001
,  // measure 17
0010
0100
1000
0001
0100
0010
1000
0000
,  // measure 18
2010
0000
3020
0000
1030
0010
0100
0010
,  // measure 19
1000
0100
0010
0001
1000
0010
0010
0000
,  // measure 20
1002
0000
2003
0000
3001
1000
0010
0100
,  // measure 21
0001
1000
0100
0010
0001
1000
0010
0000
,  // measure 22
0201
0000
0302
0000
0103
0001
1000
0010
,  // measure 23
0100
0001
0010
0100
1000
0001
0001
0000
,  // measure 24
2010
3002
0023
0130
,  // measure 25
2000
0000
0100
0000
3100
0000
1000
0100
,  // measure 26
0010
0000
0001
0000
1000
0010
1000
0010
,  // measure 27
0100
0000
0001
0000
0100
0010
1000
0000
,  // measure 28
0102
2003
3200
0310
,  // measure 29
0002
0000
0010
0000
0013
0000
0001
0010
,  // measure 30
0100
0000
1100
0000
0100
0000
1000
0010
,  // measure 31
0100
0000
0101
0000
0001
0100
0010
1000
,  // measure 32
0002
0000
0100
0000
0103
0000
0001
0100
,  // measure 33
0010
0000
1000
0000
0100
1000
0010
0100
,  // measure 34
0001
0000
0100
0000
0010
1000
0100
0000
,  // measure 35
0010
0001
0100
0000
0001
1000
0001
0000
,  // measure 36
2000
0000
0100
0000
3100
1000
0010
0100
,  // measure 37
0001
0000
0100
0000
0010
1000
0001
0000
,  // measure 38
0010
0000
0001
1000
0100
0010
0001
0000
,  // measure 39
1000
0010
0100
0000
0001
1000
0010
0010
,  // measure 40
0100
0000
1010
0000
0001
0010
0000
1000
,  // measure 41
0000
0001
0010
0100
1000
0001
0100
0010
,  // measure 42
1000
0000
1010
0000
1000
0010
0000
0001
,  // measure 43
0000
1000
0001
0100
0010
1000
1000
0000
,  // measure 44
0010
0000
0101
0000
1000
0100
0000
0001
,  // measure 45
0000
1000
0100
0010
0001
1000
0010
0100
,  // measure 46
0001
0000
0101
0000
0001
0100
0000
1000
,  // measure 47
0000
0001
1000
0010
0100
0001
0001
0000
,  // measure 48
2000
0000
3010
1000
0200
0000
0310
0001
,  // measure 49
0200
0000
0010
0000
0310
0100
0001
0010
,  // measure 50
0100
0000
1000
0000
0100
1000
0100
0000
,  // measure 51
0010
0100
1000
0000
0010
0010
1000
0000
,  // measure 52
0002
0000
0103
0001
0020
0000
0130
1000
,  // measure 53
0020
0000
0100
0000
0130
0010
2000
0000
,  // measure 54
0100
0000
3001
0000
1000
0100
0010
0001
,  // measure 55
1000
0000
0001
0000
0100
0001
1000
0000
,  // measure 56
1010
0000
0110
0000
0101
0000
0000
1001
,  // measure 57
0000
0000
0011
0000
1100
0000
0000
0001
,  // measure 58
0000
1000
0100
0010
0001
0100
0010
1000
,  // measure 59
0001
0100
0010
1000
0100
0010
0001
0000
,  // measure 60
2000
3010
0020
0130
,  // measure 61
0200
0301
0002
0013
,  // measure 62
0011
0110
1010
0110
,  // measure 63
0001
0010
0100
1000
0001
0100
1000
0100
,  // measure 64
0101
0000
1100
0000
0010
0010
0000
1100
,  // measure 65
0000
0000
0101
0000
0010
0010
0000
1001
,  // measure 66
0000
1000
0100
0010
0001
0100
0010
0100
,  // measure 67
0001
0010
0100
1000
0001
0100
0010
0000
,  // measure 68
1010
0000
0001
1000
0100
0000
0000
1010
,  // measure 69
0000
0000
0001
1000
0100
0000
0000
1010
,  // measure 70
0000
0010
1000
0100
0010
0001
0100
0010
,  // measure 71
0100
0001
0010
0100
1000
0001
0100
0000
,  // measure 72
0001
1000
0001
0000
1000
0100
0010
0001
,  // measure 73
1000
0001
1000
0000
0001
0010
0001
0000
,  // measure 74
1000
0010
0100
0001
0010
0100
0010
0001
,  // measure 75
0100
0010
1000
0100
0010
0001
1000
0000
,  // measure 76
0020
0000
1030
0001
0200
0000
0301
1000
,  // measure 77
0200
0000
0310
0001
2000
0000
3010
1000
,  // measure 78
0001
0100
0010
1000
0100
0010
0001
1000
,  // measure 79
0010
0100
0001
1000
0010
0010
0000
0000
,  // measure 80
1100
0000
0101
0000
0010
0001
0100
0010
,  // measure 81
1000
0100
0010
0001
0100
0010
1000
0000
,  // measure 82
1010
0000
0011
0000
1000
0100
0010
0001
,  // measure 83
0100
0010
1000
0001
0100
0010
1000
0000
,  // measure 84
1100
0000
0101
0000
1000
0100
0010
0001
,  // measure 85
0100
0010
0100
0001
0010
0100
1000
0000
,  // measure 86
0011
0000
1010
0000
0001
1000
0010
0100
,  // measure 87
0001
1000
0100
0010
0001
1000
0001
1000
,  // measure 88
1001
0000
0011
0000
0100
0100
0000
1001
,  // measure 89
0000
0000
1010
0000
0100
0100
0000
1001
,  // measure 90
0000
0001
0010
0100
1000
0010
0100
0010
,  // measure 91
1000
0100
0010
0001
1000
0010
0100
0000
,  // measure 92
0101
0000
1000
0001
0010
0000
0000
0101
,  // measure 93
0000
0000
1000
0001
0010
0000
0000
0101
,  // measure 94
0000
0100
0001
0010
0100
1000
0010
0100
,  // measure 95
0010
1000
0100
0010
0001
1000
0010
0000
,  // measure 96
1000
0100
1000
0100
0001
0010
0100
1000
,  // measure 97
0010
0100
0001
1000
0001
0100
1000
0010
,  // measure 98
1000
0010
0100
0001
1000
0100
0010
0001
,  // measure 99
0100
1000
0010
0100
0001
0100
1000
0010
,  // measure 100
0001
1000
0100
0010
0001
0100
0010
1000
,  // measure 101
0100
0001
0100
0010
1000
0001
0010
1000
,  // measure 102
0100
1000
0010
0100
0001
1000
0100
0010
,  // measure 103
0001
0000
0000
1000
0000
0000
0010
0000
0100
0000
0001
0000
0000
0000
0000
0000
;

//---------------dance-single - ----------------
#NOTEDATA:;
#CHARTNAME:;
#STEPSTYPE:dance-single;
#DESCRIPTION:;
#CHARTSTYLE:;
#DIFFICULTY:Medium;
#METER:6;
#RADARVALUES:0.418730,0.478324,0.223103,0.192330,0.000000,381.000000,352.000000,29.000000,25.000000,0.000000,0.000000,0.000000,0.000000,0.000000,0.418730,0.478324,0.223103,0.192330,0.000000,381.000000,352.000000,29.000000,25.000000,0.000000,0.000000,0.000000,0.000000,0.000000;
#CREDIT:Ben Speirs;
#NOTES:
0000
0000
0000
0000
,
0000
0000
0000
0000
,
0000
0000
0000
0000
,
0000
0000
0000
0000
,
0000
0000
0000
0000
,
0000
0000
0000
0000
,
0000
0000
0000
0000
,
0000
0000
0000
0000
,
1010
1000
0001
0010
,
0001
0000
1000
0000
0010
0000
0100
0001
,
0010
0010
0001
0100
,
0010
1000
0001
0000
,
1001
0001
0100
0001
,
1000
0000
0010
0000
0100
0000
0010
1000
,
0100
0100
1000
0010
,
0100
0001
1000
0000
,
0001
0000
0101
0000
0100
0000
0010
1000
,
0100
0000
0100
0000
1000
0000
0010
1000
,
0001
0000
0001
0000
0010
0000
0001
1000
,
0010
0100
0001
0000
,
1000
0000
1010
0000
0010
0000
0100
0001
,
1000
0000
1000
0000
0010
0000
1000
0100
,
0010
0000
0010
0000
0001
0000
1000
0001
,
1000
0010
1000
0000
,
0002
0003
2000
3000
,
0020
0000
0000
0000
0030
0000
0100
0010
,
0100
0000
0010
0000
1000
0100
1000
0000
,
0001
0010
0001
0000
,
0200
0300
0002
0003
,
2000
0000
0000
0000
3000
0000
0010
0100
,
0010
0000
1000
0000
0001
0000
0010
0100
,
0010
0001
1000
0000
,
0010
0000
0010
0000
1000
0000
0000
0001
,
0000
0100
0000
0010
0010
0000
0100
0000
,
0001
0000
1000
0000
0100
0000
0000
1000
,
0000
0001
0000
0010
0010
0000
0001
0000
,
1000
0000
0010
0000
0100
0000
0000
0010
,
0000
1000
0000
0100
0100
0000
1000
0000
,
0001
0000
0010
0000
0001
0000
0000
0100
,
0000
0100
0000
0010
0010
0000
0000
0000
,
0110
0110
0001
0100
,
0010
1000
0001
0010
,
0011
0011
1000
0001
,
0100
0000
0010
1000
0100
0000
0000
0000
,
1100
1100
0100
1000
,
0010
0100
0001
1000
,
1001
1001
0001
1000
,
0010
0000
0100
0001
1000
0000
0000
0000
,
0002
0003
2000
3000
,
0020
0000
0000
0000
0030
0000
0100
0001
,
0100
0010
1000
0100
,
0010
0010
0001
0000
,
2000
3000
0200
0300
,
0020
0000
0000
0000
0030
0000
0001
1000
,
0001
0000
1000
0000
0010
0000
1000
0100
,
1000
0001
0100
0000
,
0010
0000
0010
0000
0100
0000
0000
0001
,
0000
1000
0000
0010
0010
0000
1000
0000
,
0001
0000
0010
0000
0001
0000
0000
1000
,
0000
1000
0000
0100
0100
0000
1000
0000
,
0020
0030
0200
0300
,
0002
0003
2000
3000
,
0010
1000
0100
0010
,
0001
1000
1001
0000
,
0101
0000
0100
0000
0010
0000
0000
0101
,
0000
0100
0010
0000
,
0100
0001
0010
0100
,
1000
0001
1000
0000
,
0010
0000
1000
0100
0010
0000
0000
0000
,
0001
0000
1000
0100
0010
0000
0000
0000
,
0001
1000
0010
0100
,
0001
0001
1000
0000
,
1010
0000
1010
0000
0001
0000
0000
1010
,
0000
1010
0001
0000
,
1000
0100
0010
0001
,
0100
0100
0010
1000
,
0200
0300
0020
0030
,
0002
0003
2000
3000
,
0020
0100
0100
0130
,
0100
0000
0001
0000
1000
0001
0000
0000
,
1100
0100
1000
0010
,
0100
0001
1000
0000
,
0101
0100
0010
1000
,
0001
0000
0010
0001
1000
0000
0000
0000
,
1010
0010
0100
0001
,
1000
0100
0100
0000
,
0011
0010
0001
1000
,
0010
0000
0100
0000
0001
1000
0001
1000
,
0010
0000
0100
0000
0001
0000
0000
0110
,
0000
0000
0010
0000
0100
0000
0000
0001
,
0000
0100
0010
1000
,
0100
0100
0010
0001
,
1000
0000
0100
1000
0100
0000
0000
0000
,
0010
0000
0100
1000
0100
0000
0000
0000
,
1000
0010
0100
0001
,
1000
1000
0001
0000
,
1010
0000
1001
0000
0101
0000
0000
1000
,
0000
1100
0101
0000
,
0010
0001
0100
0010
,
1000
1000
0001
1000
,
0020
0030
0200
0300
,
0002
0003
2000
3000
,
0001
0010
0001
0000
1000
0010
1000
0000
,
0001
0000
1000
0000
0010
0010
0000
0000
;

//---------------dance-double - ----------------
#NOTEDATA:;
#CHARTNAME:;
#STEPSTYPE:dance-double;
#DESCRIPTION:;
#CHARTSTYLE:;
#DIFFICULTY:Challenge;
#METER:9;
#RADARVALUES:0.683595,0.717487,0.484671,0.123091,0.000000,622.000000,559.000000,63.000000,16.000000,0.000000,0.000000,0.000000,0.000000,0.000000,0.683595,0.717487,0.484671,0.123091,0.000000,622.000000,559.000000,63.000000,16.000000,0.000000,0.000000,0.000000,0.000000,0.000000;
#CREDIT:Ben Speirs;
#NOTES:
00000000
00000000
00000000
00000000
,
00000000
00000000
00000000
00000000
,
00000000
00000000
00000000
00000000
,
00000000
00000000
00000000
00000000
,
00000000
00000000
00000000
00000000
,
00000000
00000000
00000000
00000000
,
00000000
00000000
00000000
00000000
,
00000000
00000000
00000000
00000000
,
00010000
00000000
00011000
00000000
00010000
00001000
00000000
00000001
,
00000000
00001000
00000100
00000010
00000001
00001000
00000001
00000000
,
00000100
00000000
00000101
00000000
00000100
00000010
00001000
00000000
,
00000100
00000010
00000001
00000000
00001000
00000100
00010000
00000000
,
00001000
00000000
00011000
00000000
00001000
00010000
00000000
10000000
,
00000000
00010000
10000000
00100000
01000000
00010000
10000000
00000000
,
00100000
10000000
01000000
00000000
00100000
00010000
01000000
00000000
,
00100000
10000000
01000000
00100000
00010000
01000000
01000000
00000000
,
01010000
00000000
10100000
00000000
00010000
10000000
00100000
01000000
,
00010000
10000000
01000000
00100000
00010000
01000000
00100000
00000000
,
01100000
00000000
01010000
00000000
01000000
00010000
00100000
00001000
,
00010000
00000100
00001000
00000010
00001000
00000001
00000001
00000000
,
00000101
00000000
00001100
00000000
00000001
00000010
00000100
00000010
,
00000001
00001000
00000010
00000100
00000001
00001000
00000010
00000000
,
00001010
00000000
00000101
00000000
00001000
00000010
00000100
00000001
,
00000010
00000100
00001000
00000001
00000100
00000010
00000010
00000000
,
00002000
00003100
00020000
00031000
,
00200000
00000000
00010000
00000000
00310000
00000000
00100000
00010000
,
01000000
00000000
00100000
00000000
01000000
00100000
01000000
00000000
,
00100000
10000000
00010000
00000000
10000000
01000000
00100000
00000000
,
00020000
10030000
00200000
01300000
,
00020000
00000000
00100000
00000000
00130000
01000000
00100000
00010000
,
20000000
00000000
30100000
00000000
10000000
00100000
01000000
00010000
,
20000000
00000000
30010000
00000000
10000000
01000000
00100000
00000000
,
00010000
00000000
00110000
00000000
10010000
00000000
00000000
01010000
,
00000000
01000000
00000000
00100000
10000000
00000000
00010000
00000000
,
10000000
00000000
11000000
00000000
10010000
00000000
00000000
10000000
,
00000000
10010000
00000000
10000000
00100000
00000000
01000000
00000000
,
00010000
00000000
01000000
00000000
00010000
00100000
00001000
00010000
,
00000100
00000000
00001000
00000000
00000010
00000100
00000010
00000000
,
00001000
00000000
00000001
00000000
00001000
00000100
00000010
00000001
,
00001000
00000000
00000010
00000000
00001000
00000100
00010000
00000000
,
00001000
00000000
00011000
00000000
00010000
00001000
00000000
00000001
,
00000000
00001000
00000100
00000010
00000001
00001000
00000010
00000000
,
00000100
00000000
00000110
00000000
00000010
00001000
00000100
00000000
,
00000010
00000001
00000100
00000000
00000010
00001000
00000100
00000000
,
00010000
00000000
00011000
00000000
00001000
00010000
00000000
10000000
,
00000000
00010000
10000000
00100000
01000000
00010000
10000000
00000000
,
00100000
10000000
01000000
00000000
00100000
00010000
01000000
00000000
,
00100000
10000000
01000000
00100000
00001000
01000000
00001000
01000000
,
00100000
00000000
01100000
00000000
00010000
01000000
00100000
00000000
,
10000000
01000000
00100000
00000000
00010000
00000000
10010000
00000000
,
10000000
00000000
01000000
00000000
10000000
00100000
01000000
00000000
,
00010000
01000000
00100000
10000000
01000000
00100000
00010000
00000000
,
00100000
00010000
01010000
01000000
,
01001000
00000000
00001000
00000000
00010000
00000100
00001000
00000010
,
00000100
00000000
00000001
00000000
00000100
00000010
00000100
00000001
,
00001000
00000000
00000001
00000000
00000010
00000100
00000010
00000000
,
00000011
00000000
00000110
00000000
00001100
00000000
00000000
00000101
,
00000000
00001001
00001010
00000000
,
00000001
00000100
00000010
00001000
00000100
00000010
00000001
00000100
,
00000010
00001000
00000100
00000000
00001000
00000100
00010000
00000000
,
00002000
00013000
00200000
00310000
,
00002000
00013000
02000000
03010000
,
01010000
10100000
11000000
00110000
,
10000000
01000000
00100000
00010000
01000000
00100000
00000000
00000000
,
01100000
00000000
10010000
00000000
00100000
10000000
00000000
01100000
,
00000000
00000000
10010000
00000000
00100000
10000000
00000000
00010000
,
10000000
01000000
00100000
00010000
01000000
00100000
01000000
00010000
,
00100000
00001000
00010000
00000100
00001000
00000010
00000100
00000000
,
00001010
00000000
00001000
00000010
00000100
00000000
00000000
00001010
,
00000000
00000000
00001000
00000010
00000100
00000000
00000000
00000001
,
00000100
00000010
00000100
00000001
00000010
00000100
00001000
00000001
,
00000100
00000010
00001000
00000100
00001000
00000001
00000100
00000000
,
00000101
00000000
00001100
00000000
00010100
00000000
00000000
00000001
,
00000000
00001000
00000100
00000010
00000001
00000000
00000000
00000100
,
00000001
00000100
00000010
00001000
00000100
00000010
00000100
00000010
,
00000001
00000100
00000010
00001000
00000100
00001000
00000010
00000000
,
00002010
00003100
00001200
00010300
,
00012000
00013000
00120000
00130000
,
00110000
00000000
11000000
00000000
00010000
10000000
00100000
00000000
,
10000000
01000000
00100000
00010000
01000000
01000000
00000000
00000000
,
01010000
00000000
10100000
00000000
00010000
10000000
00100000
01000000
,
00010000
00100000
01000000
00100000
00010000
01000000
00001000
00000000
,
00011000
00000000
00010100
00000000
00000100
00001000
00000010
00000100
,
00000001
00000010
00000100
00001000
00000001
00000100
00000100
00000000
,
00000101
00000000
00001010
00000000
00000001
00000010
00000100
00000010
,
00000001
00000100
00000010
00001000
00000100
00010000
00000010
00000000
,
00010010
00000000
00011000
00000000
00001000
00010000
00001000
00100000
,
00010000
01000000
00100000
10000000
00100000
01000000
00100000
01000000
,
01010000
00000000
10100000
00000000
00010000
10000000
00000000
11000000
,
00000000
00000000
01010000
00000000
00100000
00010000
00000000
10000000
,
01000000
00100000
00010000
01000000
00100000
01000000
00010000
00100000
,
00001000
00010000
00000100
00001000
00000010
00000100
00000001
00000000
,
00001001
00000000
00000010
00001000
00000001
00000000
00000000
00001001
,
00000000
00000000
00000010
00000001
00001000
00000000
00000000
00000001
,
00000100
00000010
00000100
00000001
00000010
00000100
00001000
00000001
,
00000100
00000010
00001000
00000100
00010000
00001000
00010000
00000000
,
00001000
00010000
00100000
10000000
01000000
00100000
01000000
00100000
,
00010000
10000000
00100000
01000000
00010000
00100000
00001000
00010000
,
00000010
00000100
00000010
00000100
00000001
00000010
00000100
00000010
,
00000001
00000100
00000010
00010000
00000100
00010000
00001000
00010000
,
00000100
00001000
00000010
00000100
00000001
00000010
00000100
00001000
,
00000010
00000100
00001000
00010000
00100000
10000000
01000000
00100000
,
00010000
10000000
00100000
01000000
00010000
00100000
00010000
01000000
,
00001000
00010000
00000010
00000100
00000001
00001000
00000000
00000000
;

//---------------dance-single - ----------------
#NOTEDATA:;
#CHARTNAME:;
#STEPSTYPE:dance-single;
#DESCRIPTION:;
#CHARTSTYLE:;
#DIFFICULTY:Easy;
#METER:4;
#RADARVALUES:0.295639,0.358311,0.015386,0.053852,0.000000,269.000000,267.000000,2.000000,7.000000,0.000000,0.000000,0.000000,0.000000,0.000000,0.295639,0.358311,0.015386,0.053852,0.000000,269.000000,267.000000,2.000000,7.000000,0.000000,0.000000,0.000000,0.000000,0.000000;
#CREDIT:Ben Speirs;
#NOTES:
0000
0000
0000
0000
,
0000
0000
0000
0000
,
0000
0000
0000
0000
,
0000
0000
0000
0000
,
0000
0000
0000
0000
,
0000
0000
0000
0000
,
0000
0000
0000
0000
,
0000
0000
0000
0000
,
1000
1000
0100
0000
,
1000
0001
0100
0000
,
0001
0001
0100
0000
,
0001
0100
0010
0000
,
0100
0100
0010
0000
,
0100
0010
1000
0000
,
0010
0010
1000
0000
,
0010
1000
0001
0000
,
1000
0100
1000
0000
,
0001
1000
0001
0000
,
1000
0010
1000
0000
,
0001
0100
0100
0000
,
0001
0010
0001
0000
,
1000
0010
1000
0000
,
0001
1000
0001
0000
,
1000
0100
0100
0000
,
1000
0000
0001
0000
,
0200
0000
0300
0000
,
0100
0010
0100
0000
,
0001
0100
0001
0000
,
1000
0000
0001
0000
,
0020
0000
0030
0000
,
0001
0100
0001
0000
,
1000
0010
1000
0000
,
0001
0001
0010
0000
,
0001
0000
0100
0100
,
0010
0010
1000
0000
,
0100
0000
1000
1000
,
0010
0010
0100
0000
,
0010
0000
1000
1000
,
0100
0100
0010
0000
,
0001
0000
1000
0000
,
0001
0001
0100
0000
,
0001
0000
1000
0000
,
0010
0010
1000
0000
,
0001
0000
0010
0000
,
0100
0100
0010
0000
,
0001
0010
0001
0000
,
1000
1000
0001
0000
,
1000
0010
1000
0000
,
0001
0000
1000
0000
,
0020
0000
0030
0000
,
1000
0010
1000
0000
,
0001
0010
0001
0000
,
1000
0000
0001
0000
,
0200
0000
0300
0000
,
0001
0100
0001
0000
,
1000
0010
1000
0000
,
0001
0001
0010
0000
,
0001
0000
0100
0100
,
0010
0010
1000
0000
,
0001
0000
1000
1000
,
0100
0000
0010
0000
,
0001
0000
1000
0000
,
2002
0000
3003
0000
,
0010
0010
0010
0000
,
1000
1000
0001
0000
,
1000
1000
0001
0000
,
1000
0100
0010
0001
,
0100
0010
1000
0000
,
0001
0001
1000
0000
,
0001
0001
1000
0000
,
0001
1000
0010
0100
,
0001
1000
0001
0000
,
1000
1000
0100
0000
,
0001
0001
0100
0000
,
1000
1000
0010
0000
,
0001
0001
0010
0000
,
0001
0000
1000
0000
,
0010
0000
0100
0000
,
0002
0000
0003
0000
,
1000
0000
1000
0000
,
0010
0010
0100
0000
,
0001
0100
0001
0000
,
1000
1000
0100
0000
,
1000
0000
0001
0000
,
1000
1000
0010
0000
,
1000
0010
1000
0000
,
0001
0001
0010
0000
,
0001
0000
0100
0000
,
0001
0001
1000
0000
,
0001
0001
1000
0000
,
0001
1000
0010
0100
,
0001
1000
0001
0000
,
1000
1000
0001
0000
,
1000
1000
0001
0000
,
1000
0100
0010
0001
,
0100
0010
1000
0000
,
0001
0100
0001
0100
,
0001
0100
0001
0000
,
1000
0010
1000
0010
,
1000
0010
1000
0000
,
0001
0000
1000
0000
,
0100
0000
0010
0000
,
0001
0010
0100
1000
,
0001
0100
1001
0000
;

//---------------dance-single - ----------------
#NOTEDATA:;
#CHARTNAME:;
#STEPSTYPE:dance-single;
#DESCRIPTION:;
#CHARTSTYLE:;
#DIFFICULTY:Beginner;
#METER:2;
#RADARVALUES:0.154963,0.278686,0.023080,0.000000,0.000000,141.000000,138.000000,3.000000,0.000000,0.000000,0.000000,0.000000,0.000000,0.000000,0.154963,0.278686,0.023080,0.000000,0.000000,141.000000,138.000000,3.000000,0.000000,0.000000,0.000000,0.000000,0.000000,0.000000;
#CREDIT:Ben Speirs;
#NOTES:
0000
0000
0000
0000
,
0000
0000
0000
0000
,
0000
0000
0000
0000
,
0000
0000
0000
0000
,
0000
0000
0000
0000
,
0000
0000
0000
0000
,
0000
0000
0000
0000
,
0000
0000
0000
0000
,
0001
0000
0000
0000
,
1000
0000
0000
0000
,
0010
0000
0010
0000
,
0010
0000
0000
0000
,
1000
0000
0000
0000
,
0001
0000
0000
0000
,
0100
0000
0100
0000
,
0100
0000
0000
0000
,
0001
0001
0000
0000
,
0001
0000
0000
0000
,
1000
1000
0000
0000
,
1000
0000
0000
0000
,
0010
0010
0000
0000
,
0010
0000
0000
0000
,
0010
0010
0000
0000
,
0010
0000
0000
0000
,
1001
0000
0000
0000
,
0001
0000
0000
0000
,
0100
0000
0100
0000
,
0100
0000
0000
0000
,
0001
0000
0000
0000
,
1000
0000
0000
0000
,
0010
0000
0010
0000
,
0010
0000
0000
0000
,
1000
0000
0000
0000
,
0100
0000
0000
0000
,
0010
0000
0000
0000
,
0001
0000
0000
0000
,
0100
0000
0100
0000
,
0100
0000
0000
0000
,
0100
0000
0100
0000
,
0100
0000
0000
0000
,
1001
0000
0000
0000
,
0000
0000
0001
0001
,
0001
0000
0000
0000
,
0000
0000
1000
1000
,
1000
0000
0000
0000
,
0000
0000
0010
0010
,
0010
0000
0000
0000
,
0100
0000
0000
0000
,
1001
0000
0000
0000
,
1000
0000
0000
0000
,
0100
0000
0100
0000
,
0100
0000
0000
0000
,
1000
0000
0000
0000
,
0001
0000
0000
0000
,
0010
0000
0010
0000
,
0010
0000
0000
0000
,
0001
0000
0000
0000
,
1000
0000
0000
0000
,
0010
0000
0010
0000
,
0010
0000
0000
0000
,
1000
0000
0000
0000
,
0100
0000
0000
0000
,
0010
0000
0000
0000
,
0001
0000
0000
0000
,
1000
1000
1000
0000
,
0001
0001
0001
0000
,
0000
0000
0000
0000
,
0000
0000
0000
0000
,
0100
0100
0100
0000
,
0100
0100
0100
0000
,
0000
0000
0000
0000
,
0000
0000
0000
0000
,
0001
0001
0001
0000
,
1000
1000
1000
0000
,
0000
0000
0000
0000
,
0000
0000
0000
0000
,
0010
0000
0010
0000
,
0010
0000
0010
0000
,
0010
0000
0000
0000
,
0100
0000
0000
0000
,
0001
0001
0000
0000
,
0001
0000
0000
0000
,
1000
1000
0000
0000
,
1000
0000
0000
0000
,
0010
0010
0000
0000
,
0010
0000
0000
0000
,
0100
0100
0000
0000
,
0100
0000
0000
0000
,
0001
0001
0001
0000
,
1000
1000
1000
0000
,
0100
0000
0000
0000
,
0100
0000
0000
0000
,
1000
1000
1000
0000
,
0001
0001
0001
0000
,
0100
0000
0000
0000
,
0100
0000
0000
0000
,
0001
0000
0001
0000
,
0001
0000
0000
0000
,
1000
0000
1000
0000
,
1000
0000
0000
0000
,
0010
0000
0010
0000
,
0010
0000
0010
0000
,
0010
0000
0000
0000
,
0100
0100
0100
0000
;
