#TITLE:Perfect;
#SUBTITLE:;
#ARTIST:One Direction;
#TITLETRANSLIT:;
#SUBTITLETRANSLIT:;
#ARTISTTRANSLIT:;
#GENRE:We Never Go Out Of Style;
#CREDIT:;
#BANNER:Perfect.png;
#BACKGROUND:Perfect-bg.png;
#LYRICSPATH:;
#CDTITLE:;
#MUSIC:Perfect.ogg;
#OFFSET:-0.520000;
#SAMPLESTART:57.533905;
#SAMPLELENGTH:17.133999;
#SELECTABLE:YES;
#DISPLAYBPM:100.000000;
#BPMS:0.000000=100.000000
,128.000000=101.500000
,131.000000=100.000000
;
#STOPS:
;
#BGCHANGES:4.000=Perfect.avi=1.000=0=0=1=====,
99999=-nosongbg-=1.000=0=0=0 // don't automatically add -songbackground-
;
#KEYSOUNDS:;
#ATTACKS:;

//---------------dance-single - ----------------
#NOTES:
     dance-single:
     :
     Hard:
     7:
     0.393974,0.450443,0.079937,0.167867,0.135892,314.000000,10.000000,21.000000,0.000000,0.000000,0.000000,0.393974,0.450443,0.079937,0.167867,0.135892,314.000000,10.000000,21.000000,0.000000,0.000000,0.000000:
0000
0000
0000
0000
,
0000
0000
0000
0000
,
0000
0000
0000
0000
,
0000
0000
0000
0000
,
2000
0000
3100
0000
0010
0000
0001
1000
,
0020
0000
0130
0000
0001
1000
0100
0000
,
0020
0031
1000
0010
,
0100
0001
1000
0100
0010
0000
1001
0000
,
0001
0000
0100
0000
0000
0100
0000
0000
0010
0000
0000
0010
0000
0000
1000
0000
,
0001
0000
0100
0000
0000
0100
0000
0000
0001
0000
0000
0001
0000
0000
1000
0000
,
0100
0000
0000
0000
1000
0001
0000
1000
0000
0000
0001
0000
0010
0000
0100
0000
,
1000
0000
0000
1000
0001
0000
0100
0000
0000
0000
0010
0000
1001
0000
0000
0000
,
1000
0000
0010
0000
0000
0010
0000
0000
0100
0000
0000
0100
0000
0000
0001
0000
,
1000
0000
0010
0000
0000
0010
0000
0000
1000
0000
0000
1000
0000
0000
0001
0000
,
0010
0000
0000
0000
0001
1000
0000
0001
0000
0000
1000
0000
0100
0000
0010
0000
,
0001
0000
0000
0001
1000
0000
0010
0000
0000
0000
0100
0000
0001
0010
0100
1000
,
0020
0230
0302
2003
,
3200
0000
0320
0000
0031
1000
0010
1000
,
0002
0023
0230
2300
,
3020
0000
0230
0000
0301
1000
0010
0100
,
0001
0001
1000
1000
0100
0100
0010
0010
,
0001
0010
0100
1000
0000
0001
0100
0000
,
0010
0020
0000
0000
1030
0000
0001
0000
,
0100
0100
0010
0010
0000
0000
1001
0000
,
1100
0000
0100
1000
0001
0000
1000
0000
0100
0000
0100
0000
0010
0000
0001
0000
,
1000
0000
0010
1000
0001
0000
1000
0000
0010
0000
0100
0000
0100
0000
0100
0000
,
0001
0000
0100
0001
1000
0000
0001
0000
0010
0000
0010
0000
0001
0000
1000
0000
,
0010
0000
0100
0010
1000
0000
0001
0000
0010
0000
0100
0000
0100
0000
0100
0000
,
1000
0100
0010
0001
0100
1000
0001
0010
,
1000
0000
0001
0000
1000
0000
0001
0000
0010
0000
0001
0000
1000
0100
0010
0000
,
0001
0000
0002
0000
0103
0000
0010
0000
1000
0000
0001
0000
1000
0100
1000
0000
,
0010
0000
0020
0000
0130
0000
0001
0000
1000
0100
0010
0000
0001
0000
1000
0000
,
2010
0000
0000
3000
,
1001
0000
0100
0100
0001
1000
1000
0000
,
0010
0000
0000
1000
0000
0000
0001
0000
0000
0000
0100
0000
0001
0000
1000
0000
,
1001
0000
0010
0010
1000
0001
0001
0000
,
0100
0000
0000
0001
0000
0000
1000
0000
0000
0000
0010
0000
1000
0000
0001
0000
,
1000
0100
1000
0100
0010
0001
0010
0001
,
1000
0000
0010
0000
0100
0000
0001
0000
0000
0000
1000
0000
0010
0100
0010
0000
,
1000
0000
1000
0000
0100
0000
0010
0000
0000
0000
0001
0000
0100
0010
0100
0000
,
0001
0001
1000
1000
0000
0010
1001
0000
,
0011
0000
0010
0001
1000
0000
0001
0000
0010
0000
0010
0000
0100
0000
1000
0000
,
0001
0000
0100
0001
1000
0000
0001
0000
0100
0000
0010
0000
0010
0000
0010
0000
,
1000
0000
0010
1000
0001
0000
1000
0000
0100
0000
0100
0000
1000
0000
0001
0000
,
0100
0000
0010
0100
0001
0000
1000
0000
0100
0000
0010
0000
0010
0000
0010
0000
,
0001
0010
0100
1000
0010
0001
1000
0100
,
0001
0000
1000
0000
0001
0000
1000
0000
0100
0000
1000
0000
0001
0010
0100
0000
,
1000
0000
2000
0000
3010
0000
0100
0000
0001
0000
1000
0000
0001
0010
0001
0000
,
0100
0000
0200
0000
0310
0000
1000
0000
0001
0010
0100
0000
1000
0000
0001
0000
,
1100
0000
0000
0000
;

//---------------dance-double - ----------------
#NOTES:
     dance-double:
     :
     Challenge:
     7:
     0.369993,0.391690,0.063949,0.071943,0.127899,307.000000,8.000000,9.000000,0.000000,0.000000,0.000000,0.369993,0.391690,0.063949,0.071943,0.127899,307.000000,8.000000,9.000000,0.000000,0.000000,0.000000:
// measure 0
00000000
00000000
00000000
00000000
,  // measure 1
00000000
00000000
00000000
00000000
,  // measure 2
00000000
00000000
00000000
00000000
,  // measure 3
00000000
00000000
00000000
00000000
,  // measure 4
00020000
01030000
00100000
10000000
,  // measure 5
02000000
00000000
03100000
00000000
00010000
10000000
00100000
00000000
,  // measure 6
02000000
00000000
03010000
00000000
10000000
01000000
00010000
00000000
,  // measure 7
01000000
00010000
00001000
00010000
00001000
00000000
00011000
00000000
,  // measure 8
00001100
00000000
00000100
00000000
00000000
00000010
00000000
00000000
00000001
00000000
00000000
00001000
00000000
00000000
00000010
00000000
,  // measure 9
00000100
00000000
00000010
00000000
00000000
00001000
00000000
00000000
00000001
00000000
00000000
00000010
00000000
00000000
00000100
00000000
,  // measure 10
00001000
00000000
00000000
00000000
00000001
00000100
00000000
00000001
00000000
00000000
00001000
00000000
00000100
00000000
00000010
00000000
,  // measure 11
00000100
00000000
00000000
00010000
00001000
00000000
00000100
00000000
00000000
00000000
00001000
00000000
00010000
00000000
00000000
00000000
,  // measure 12
00110000
00000000
00100000
00000000
00000000
01000000
00000000
00000000
10000000
00000000
00000000
00010000
00000000
00000000
01000000
00000000
,  // measure 13
00100000
00000000
01000000
00000000
00000000
00010000
00000000
00000000
10000000
00000000
00000000
01000000
00000000
00000000
00100000
00000000
,  // measure 14
00010000
00000000
00000000
00000000
10000000
00100000
00000000
10000000
00000000
00000000
00010000
00000000
00100000
00000000
01000000
00000000
,  // measure 15
00100000
00000000
00000000
00001000
00010000
00000000
00100000
00000000
00000000
00000000
00010000
00000000
00001000
00000000
00000010
00000000
,  // measure 16
00000002
00000100
00000100
00000103
,  // measure 17
00000100
00000001
00000010
00000100
00001000
00000010
00000100
00000010
,  // measure 18
00002000
00000001
00000001
00003001
,  // measure 19
00000001
00000100
00000010
00001000
00000100
00010000
00001000
00100000
,  // measure 20
00020000
01000000
01000000
01030000
,  // measure 21
01000000
00010000
00100000
01000000
10000000
00100000
01000000
00100000
,  // measure 22
10000000
20000000
00000000
00000000
00000000
00000000
31000000
00000000
,  // measure 23
00010000
00010000
10000000
10000000
00000000
00000000
01100000
00000000
,  // measure 24
11000000
00000000
01000000
10000000
00100000
00000000
01000000
00000000
00010000
00000000
00010000
00000000
10000000
00000000
10000000
00000000
,  // measure 25
00010000
00000000
01000000
00010000
00100000
00000000
00010000
00000000
10000000
00000000
00100000
00000000
00100000
00000000
00100000
00000000
,  // measure 26
01000000
00000000
00010000
00100000
00001000
00000000
00010000
00000000
00001000
00000000
00001000
00000000
00000100
00000000
00000001
00000000
,  // measure 27
00001000
00000000
00000100
00000010
00000001
00000000
00001000
00000000
00000010
00000000
00000100
00000000
00000010
00000000
00000010
00000000
,  // measure 28
00001000
00000100
00000001
00000100
00001000
00000010
00000001
00000010
,  // measure 29
00001000
00000000
00000100
00000000
00010000
00000000
00001000
00000000
00001000
00000000
00010000
00000000
00100000
00010000
00100000
00000000
,  // measure 30
01000000
00000000
01000000
00000000
00010000
00000000
10000000
00000000
01000000
00000000
00100000
00000000
00010000
10000000
00010000
00000000
,  // measure 31
10000000
00000000
10000000
00000000
00100000
00000000
01000000
00000000
00010000
00100000
00001000
00000000
00010000
00000000
00010000
00000000
,  // measure 32
00002000
00000000
00000000
00003000
,  // measure 33
00000100
00000000
00000001
00001000
00000000
00001000
00000001
00000000
,  // measure 34
00000100
00000000
00000000
00000100
00000000
00000000
00000010
00000000
00000000
00000000
00000000
00000000
00001001
00000000
00000000
00000000
,  // measure 35
00001000
00000000
00000100
00010000
00000000
00010000
00000100
00000000
,  // measure 36
00010000
00000000
00000000
00001000
00000000
00000000
00010000
00000000
00000000
00000000
00000000
00000000
00011000
00000000
00000000
00000000
,  // measure 37
00001000
00010000
01000000
10000000
00100000
00100000
01000000
01000000
,  // measure 38
00010000
00000000
10000000
00000000
01000000
00000000
00100000
00000000
00000000
00000000
00010000
00000000
10000000
01000000
10000000
00000000
,  // measure 39
00010000
00000000
00010000
00000000
01000000
00000000
00100000
00000000
10000000
00000000
01000000
00000000
00100000
00010000
00100000
00000000
,  // measure 40
00001000
00010000
00000100
00002000
00000000
00000000
00003001
00000000
,  // measure 41
00000011
00000000
00000010
00000001
00000100
00000000
00000010
00000000
00001000
00000000
00001000
00000000
00000001
00000000
00000001
00000000
,  // measure 42
00001000
00000000
00000010
00001000
00000100
00000000
00001000
00000000
00000001
00000000
00000100
00000000
00000100
00000000
00000100
00000000
,  // measure 43
00000010
00000000
00001000
00000100
00010000
00000000
00001000
00000000
00010000
00000000
00010000
00000000
00100000
00000000
10000000
00000000
,  // measure 44
00010000
00000000
00100000
01000000
10000000
00000000
00010000
00000000
01000000
00000000
00100000
00000000
01000000
00000000
01000000
00000000
,  // measure 45
00010000
00100000
10000000
00100000
00010000
01000000
10000000
01000000
,  // measure 46
00010000
00000000
00100000
00000000
00001000
00000000
00010000
00000000
00010000
00000000
00001000
00000000
00000100
00001000
00000100
00000000
,  // measure 47
00000010
00000000
00000010
00000000
00001000
00000000
00000001
00000000
00000010
00000000
00000100
00000000
00001000
00000001
00001000
00000000
,  // measure 48
00000001
00000000
00000001
00000000
00000100
00000000
00000010
00000000
00001000
00000100
00010000
00000000
00001000
00000000
00001000
00000000
,  // measure 49
00100000
00000000
00000000
00000000
;

//---------------dance-single - ----------------
#NOTES:
     dance-single:
     :
     Medium:
     4:
     0.243236,0.274183,0.095924,0.127899,0.000000,185.000000,12.000000,16.000000,0.000000,0.000000,0.000000,0.243236,0.274183,0.095924,0.127899,0.000000,185.000000,12.000000,16.000000,0.000000,0.000000,0.000000:
0000
0000
0000
0000
,
0000
0000
0000
0000
,
0000
0000
0000
0000
,
0000
0000
0000
0000
,
0200
0010
0310
0000
,
2000
0100
3100
0000
,
1000
0010
0100
0001
,
1000
0100
0010
1001
,
0001
0100
0000
0100
0010
0000
1000
0000
,
0100
0010
0000
0010
0001
0000
1000
0000
,
0000
0000
0010
0000
1000
0000
0100
0010
,
0001
0000
1000
0000
,
0001
0100
0010
1010
,
1000
0100
0010
0011
,
0001
0000
1000
0100
0000
0100
0010
0000
,
0001
0000
1000
0010
0000
0010
0100
0000
,
0102
1000
1000
1000
,
1000
1000
1000
0103
,
2100
0001
0001
0001
,
0001
0001
0001
3100
,
0001
1000
0001
0000
0100
0000
0010
0000
,
1000
0001
1000
0000
0100
0000
0010
0000
,
0001
0002
0000
0000
0000
0000
0103
0000
,
2000
0000
0000
3001
,
1100
0000
0100
0100
1000
1000
0100
0000
,
0010
0001
1000
0000
,
0010
0000
0100
0100
0001
0001
0100
0000
,
0001
1000
0100
0000
,
1000
0010
0100
0001
,
1000
0100
0010
0001
0000
0000
0100
0000
,
0010
0020
0000
0000
1030
0000
0001
0000
,
0100
0200
0000
0000
0301
0000
1000
0000
,
2002
0000
0000
3003
,
0010
0000
1000
0001
0000
0000
1001
0000
,
0001
0100
0010
1000
0000
0000
0001
0000
,
0100
0000
0001
1000
0000
0000
1001
0000
,
1000
0100
0010
0001
0000
0000
1001
0000
,
0010
1000
0100
0001
,
0010
1000
0100
0001
,
1000
2000
0000
0000
0000
0000
3100
0000
,
0001
0002
0000
0000
0000
0000
0103
0000
,
1001
0000
0001
0001
0100
0100
0001
0000
,
0100
0010
1000
0000
,
1001
0000
1000
1000
0100
0100
1000
0000
,
0010
1000
0001
0000
,
0200
0310
1000
0100
,
0020
0000
0031
0000
1000
0000
0001
1000
,
0010
0020
0000
0000
0130
0000
0001
1000
,
0100
0200
0000
0000
0310
0000
0001
1000
,
0100
0000
0000
0000
;

//---------------dance-single - ----------------
#NOTES:
     dance-single:
     :
     Easy:
     3:
     0.166725,0.195845,0.063949,0.151880,0.000000,119.000000,8.000000,19.000000,0.000000,0.000000,0.000000,0.166725,0.195845,0.063949,0.151880,0.000000,119.000000,8.000000,19.000000,0.000000,0.000000,0.000000:
0000
0000
0000
0000
,
0000
0000
0000
0000
,
0000
0000
0000
0000
,
0000
0000
0000
0000
,
2000
0000
3000
0000
,
0002
0000
0003
0000
,
0200
0300
0020
0030
,
2000
3000
0000
1001
,
1000
0000
0010
0000
,
1000
0100
0010
0000
,
0001
0000
1000
0001
,
0100
0000
0010
0000
,
1001
0000
0001
0010
,
0100
0000
1000
0001
,
0100
0100
0100
0000
,
0010
0010
0010
0000
,
2000
3000
1000
0100
,
1000
1000
0100
0000
,
0020
0030
0001
0010
,
0001
0001
0010
0000
,
0002
0003
0001
1000
,
0001
0001
1000
0000
,
0020
0030
1000
0001
,
0200
0000
0300
1001
,
1001
0000
0100
1000
,
0010
0010
0100
0000
,
0001
0000
1000
0001
,
0010
0010
0100
0000
,
1000
0000
0010
1000
,
0001
0001
0100
0000
,
0002
0003
0001
0000
,
2000
3000
1000
0100
,
0020
0000
0000
0030
,
1001
0000
0100
0000
,
1000
0001
0100
0000
,
0010
0000
1000
0000
,
0001
0010
0100
0000
,
1000
1000
1000
0000
,
0001
0001
0001
0000
,
0200
0300
0100
0000
,
0020
0030
0000
1001
,
1001
0000
0100
0001
,
1000
1000
0100
0000
,
0010
0000
0001
1000
,
0010
0010
0100
0000
,
0002
0003
0001
1000
,
2000
3000
1000
0000
,
0020
0030
0010
1000
,
0200
0300
0100
0010
,
1001
0000
0000
0000
;

//---------------dance-single - ----------------
#NOTES:
     dance-single:
     :
     Beginner:
     1:
     0.097066,0.117507,0.023981,0.000000,0.000000,82.000000,3.000000,0.000000,0.000000,0.000000,0.000000,0.097066,0.117507,0.023981,0.000000,0.000000,82.000000,3.000000,0.000000,0.000000,0.000000,0.000000:
0000
0000
0000
0000
,
0000
0000
0000
0000
,
0000
0000
0000
0000
,
0000
0000
0000
0000
,
0100
0000
0000
0000
,
0001
0000
0000
0000
,
1000
0000
0000
0000
,
0010
0000
0000
0100
,
0100
0000
0001
0000
,
1000
0000
0100
0000
,
0010
0000
0001
0000
,
1000
0000
0000
0000
,
0010
0000
0100
0000
,
0001
0000
1000
0000
,
0100
0000
0010
0000
,
0001
0000
0000
0000
,
1000
1000
1000
0000
,
0001
0000
0000
0000
,
0100
0100
0100
0000
,
0010
0000
0000
0000
,
1000
0000
0100
0000
,
0010
0000
0001
0000
,
0100
0100
0000
0000
,
0100
0000
0000
0000
,
1001
0000
0100
0000
,
1000
1000
0000
0000
,
0010
0000
1000
0000
,
0001
0001
0000
0000
,
0100
0000
0001
0000
,
1000
1000
0000
0000
,
0100
0100
0000
0000
,
0100
0100
0000
0000
,
0010
0000
0000
0000
,
0001
0000
1000
0000
,
0001
0000
1000
0000
,
0010
0000
0100
0000
,
0010
0000
0100
0000
,
0001
0000
0000
0000
,
1000
0000
0000
0000
,
0100
0100
0000
0000
,
0100
0100
0000
0000
,
1001
0000
0001
0000
,
0100
0100
0000
0000
,
0010
0000
1000
0000
,
0001
0001
0000
0000
,
0010
0000
0001
0000
,
1000
0000
0010
0000
,
0100
0100
0000
0000
,
0100
0100
0000
0000
,
1001
0000
0000
0000
;
