#TITLE:Crashed the Wedding;
#SUBTITLE:;
#ARTIST:Busted;
#TITLETRANSLIT:;
#SUBTITLETRANSLIT:;
#ARTISTTRANSLIT:;
#CREDIT:;
#BANNER:Crashed the Wedding-bn.png;
#BACKGROUND:Crashed the Wedding-bg.png;
#LYRICSPATH:;
#CDTITLE:;
#MUSIC:Crashed the Wedding.mp3;
#OFFSET:-0.040;
#SAMPLESTART:36.780;
#SAMPLELENGTH:15.380;
#SELECTABLE:YES;
#BPMS:0.000=179.940,207.000=89.970,215.000=92.670,216.000=179.940,320.000=175.680;
#STOPS:105.000=0.670
,157.000=0.017
,170.000=1.020
,207.000=0.660
,217.000=0.680
,219.000=0.650
;
#BGCHANGES:-0.500=Crashed The Wedding.avi=1.000=0=0=1,
333.000=Crashed The Wedding-bg.png=1.000=0=0=1,
99999=-nosongbg-=1.000=0=0=0 // don't automatically add -songbackground-
;

//---------------dance-single - ----------------
#NOTES:
     dance-single:
     :
     Beginner:
     2:
     0.158,0.240,0.025,0.000,0.000:
0000
0000
0000
0000
,
0000
0000
0000
0000
,
0010
0000
0000
0000
,
1000
0000
0000
0000
,
0001
0000
0000
0000
,
1000
0000
0000
0000
,
0100
0000
0000
0000
,
1000
0000
0000
0000
,
0001
0000
0000
0000
,
0010
0000
0000
0000
,
0001
0000
0001
0000
,
0001
0000
0000
0000
,
0100
0000
0100
0000
,
0100
0000
0000
0000
,
0010
0000
0010
0000
,
0010
0000
0000
0000
,
1000
0000
1000
0000
,
1000
0000
0000
0000
,
0001
0000
0001
0000
,
0001
0000
0001
0000
,
1000
0000
1000
0000
,
1000
0000
1000
0000
,
0010
0000
0010
0000
,
0010
0000
0010
0000
,
0100
0000
0100
0000
,
0100
0000
0100
0000
,
1001
0000
0000
0000
,
0000
0000
0100
0000
,
0100
0000
0100
0000
,
0000
0000
0001
0000
,
0001
0000
0001
0000
,
0000
0000
1000
1000
,
1000
0000
0001
0001
,
0001
0000
0100
0100
,
0100
0100
0000
0000
,
0000
0000
0010
0000
,
0010
0000
0010
0000
,
0000
0000
1000
0000
,
1000
0000
1000
0000
,
0000
0000
0001
0001
,
0001
0000
1000
1000
,
1000
0000
0010
0010
,
0010
0010
0010
0000
,
0000
0000
0000
0000
,
0000
0000
0000
0100
,
0000
0100
0000
0000
,
0000
0000
0000
0001
,
0000
0001
0000
0000
,
0000
0000
0000
1000
,
0000
1000
0000
0000
,
0000
0000
0000
0010
,
0000
0010
0000
0000
,
0000
0000
0100
0000
,
0100
0000
0100
0000
,
1001
0000
0000
0000
,
0000
0000
0000
0000
,
0000
0000
0000
0000
,
0100
0100
0100
0100
,
0100
0000
0000
0000
,
0100
0100
0100
0100
,
0100
0000
0000
0000
,
0010
0000
0000
0000
,
1000
0000
0000
0000
,
0001
0000
0000
0000
,
1000
0000
0000
0000
,
0010
0000
0010
0000
,
0010
0000
1000
0000
,
1000
0000
1000
0000
,
1000
0000
0100
0000
,
0100
0100
0100
0000
,
0100
0100
0100
0000
,
0100
0100
0100
0100
,
0000
0000
0000
0000
,
0010
0000
0010
0000
,
0010
0000
0000
0000
,
0001
0000
0001
0000
,
0001
0000
0000
0000
,
1000
0000
1000
0000
,
1000
0000
0001
0000
,
0001
0000
0001
0000
,
0001
0000
0000
0000
,
1001
0000
0000
0000
;

//---------------dance-single - ----------------
#NOTES:
     dance-single:
     :
     Medium:
     8:
     0.440,0.491,0.228,0.017,0.000:
0000
0000
0000
0000
,
0000
0000
0000
0000
,
0010
0000
1000
0000
0001
0000
0100
0010
,
0000
0010
0100
0000
0001
0000
1000
0000
,
0001
0000
0010
0000
0100
0000
1000
0010
,
0000
0010
1000
0000
0010
0000
0100
0000
,
0001
0000
0010
0000
0100
0000
1000
0100
,
0000
1000
0100
0000
1000
0000
0010
0000
,
0100
0000
0001
0000
1000
0000
0001
0100
,
0000
0001
0100
0000
0010
0000
0100
0000
,
0000
0001
0100
1000
,
0010
1000
0001
0100
,
0000
1000
0100
0001
,
0010
0001
1000
0000
,
0010
0000
1000
0000
0001
0000
0000
0100
,
0010
0100
0001
0000
,
1000
0000
0001
0000
0100
0000
0010
1000
,
0100
0010
0001
0000
,
0010
0001
0100
0010
,
1000
0100
0001
0000
,
0010
0001
0100
0010
,
0100
0001
1000
0000
,
0010
1000
0001
0100
,
0010
0100
0001
0000
,
1000
0100
1000
0000
0010
0000
1000
0001
,
0100
0100
0010
1000
,
0001
0100
0001
0000
1000
0100
1000
0000
,
0010
0010
1000
0001
,
0100
0000
0010
0100
0000
0000
0001
0000
,
1000
0000
0100
1000
,
0010
0000
0100
0001
0000
0000
0010
0000
,
0001
0000
1000
0001
,
0100
0000
0010
1000
,
0100
0000
0000
0000
1000
0001
0100
0000
,
0010
0100
0001
0000
0010
0000
0010
0000
,
0001
0100
0010
0010
,
1000
0000
0100
1000
0000
1000
0001
0000
,
0100
0010
1000
0001
,
0010
0000
0100
0010
0000
0010
0100
0000
,
1000
0010
0100
0001
,
1000
0000
0010
0100
0001
0000
0010
0000
,
0100
1000
0001
1000
0001
0000
0100
0000
,
0110
0101
1000
0100
,
1000
0000
0010
0000
0100
0000
0001
1000
,
0001
0100
0010
0110
,
0000
1001
0000
0100
,
1000
0000
0001
0100
0010
0000
0110
0000
,
0000
1010
0000
1000
,
0001
0000
1000
0010
0100
0000
0101
0000
,
1001
1000
0100
0001
,
0010
0100
1000
0010
,
0100
0000
0001
0010
0100
1000
0001
0000
,
0100
0000
0001
0000
1000
0100
0001
0000
,
0010
0000
0001
0000
1000
0010
0100
0000
,
0010
1000
0100
0000
1000
0001
0100
0000
,
0010
0100
0001
0010
0100
1000
0001
0000
,
0000
0000
0000
0000
,
1001
1001
0110
0110
,
0001
0100
0010
1000
,
1010
1010
1001
1001
,
0100
0010
1000
0000
,
0001
1000
0100
0010
,
0001
0100
0010
0000
1000
0100
0010
0001
,
1000
0010
1000
0001
,
0110
0001
0101
1000
,
0100
0000
1000
0000
0010
0000
0100
0001
,
0000
0001
0100
0000
0010
1000
0001
0000
,
1000
0000
0100
0000
0010
0000
0001
1000
,
0000
1000
0001
0000
1000
0010
0100
0000
,
0001
1000
0001
1000
0001
0000
0000
0000
,
0100
0010
0100
0010
0100
0000
0000
0000
,
0001
1000
0001
1000
0001
1000
0001
0000
,
0000
0000
0000
0000
,
0110
0110
1001
1001
,
0100
1000
0010
1000
,
1001
1001
0101
0101
,
0010
1000
0001
0010
,
0100
0000
1000
0000
0001
1000
0100
0000
,
1000
0000
0010
0000
0100
0010
1000
0000
,
0001
0100
0010
0100
0001
1000
0100
0010
,
0001
0000
0000
0000
,
2002
0000
0000
0000
,
0000
0000
0000
0000
,
3003
0000
0000
0000
;

//---------------dance-single - ----------------
#NOTES:
     dance-single:
     :
     Hard:
     13:
     0.683,0.631,0.744,0.135,0.004: // measure 1
0000
0000
0000
0000
,  // measure 2
0000
0000
0000
0000
,  // measure 3
2010
0000
3100
0010
0001
0000
0100
0001
,  // measure 4
0000
1000
0100
1000
0001
0010
0001
0000
,  // measure 5
0102
0000
0103
0010
1000
0000
0001
1000
,  // measure 6
0000
1000
0010
0100
0001
1000
0010
0000
,  // measure 7
0210
0000
0310
0100
0001
0000
0010
0100
,  // measure 8
0000
0010
0001
0010
0100
1000
0001
0000
,  // measure 9
1001
1100
0101
1001
,  // measure 10
0010
0100
0010
0100
0001
1000
0001
1000
,  // measure 11
0010
1100
1001
0101
,  // measure 12
0010
0000
0101
0000
1001
0000
0100
1000
,  // measure 13
0001
1100
1001
0010
,  // measure 14
0100
0000
0101
0000
1001
0000
0010
1000
,  // measure 15
0001
0000
1100
0000
1001
0000
1000
0001
,  // measure 16
0100
0001
1000
0001
1000
0000
0100
1000
,  // measure 17
0001
1000
0010
0100
0001
1000
0010
0100
,  // measure 18
0010
0000
0000
0000
1100
0000
0000
0000
0001
0000
1000
0010
1000
0000
1000
0000
,  // measure 19
0001
0011
1001
1100
,  // measure 20
0010
0000
1001
0000
0101
0000
0001
1000
,  // measure 21
0010
1100
1001
0110
,  // measure 22
0100
0000
0101
0000
1001
0000
0100
1000
,  // measure 23
0001
0000
1010
0000
0101
0000
1000
0001
,  // measure 24
0100
1010
1001
0100
,  // measure 25
0001
0010
1000
0010
0001
0000
1000
0100
,  // measure 26
1100
0101
1001
0010
,  // measure 27
0100
0010
0100
0000
0001
1000
0001
0000
,  // measure 28
1100
1001
0101
1001
,  // measure 29
0010
1000
0010
0100
0001
1000
0001
0000
,  // measure 30
0010
0100
1000
0000
1100
0000
1001
0000
,  // measure 31
0101
0000
1001
0000
0010
0100
0001
0000
,  // measure 32
0010
0100
1000
0000
0001
1000
0100
1000
,  // measure 33
0001
0000
1000
1000
0010
0001
0010
1000
,  // measure 34
0001
0000
1000
1000
0001
0100
0010
0100
,  // measure 35
0001
1000
0100
0000
0011
0000
0101
0000
,  // measure 36
0100
0010
0100
0000
1010
0000
1001
0000
,  // measure 37
0101
0000
0100
0001
0100
0001
1000
0000
,  // measure 38
0100
1000
0001
0000
1100
0000
0101
0000
,  // measure 39
1001
0000
1000
0100
1000
0010
0100
0000
,  // measure 40
0010
0100
0001
0000
0101
0000
1100
0000
,  // measure 41
1001
0000
0110
0000
0001
0100
1000
0000
,  // measure 42
0100
0010
0100
0001
0100
0001
1000
0100
,  // measure 43
0010
0001
1000
0001
0100
0000
0010
0000
,  // measure 44
0100
0001
1000
0000
0100
0010
0000
0010
,  // measure 45
0001
1000
0100
2100
,  // measure 46
3010
0000
0102
0000
1003
0000
0010
1000
,  // measure 47
0100
0010
0001
0100
0010
1000
1020
0000
,  // measure 48
0130
0000
0102
0000
1003
0000
0100
1000
,  // measure 49
0010
0100
0001
1000
0100
1000
1100
0000
,  // measure 50
0101
0000
0010
0100
0001
0000
0010
0100
,  // measure 51
1000
0001
1000
0010
0001
0010
1000
0100
,  // measure 52
1000
0010
0100
0001
1000
0001
0200
0000
,  // measure 53
0302
0000
2003
0000
3100
1000
0002
0000
,  // measure 54
0203
0000
0310
0100
0001
0100
1000
0000
,  // measure 55
0010
0100
0010
0000
1000
0100
1000
0000
,  // measure 56
0001
0100
0001
1000
0100
1000
0001
0000
,  // measure 57
1000
0010
0001
0010
1000
0100
0010
0001
,  // measure 58
0011
0000
1001
0000
1100
0000
0010
1000
,  // measure 59
0100
1000
0010
0100
0001
1000
0001
0000
,  // measure 60
1100
0000
0101
0000
1001
0000
0010
1000
,  // measure 61
0100
1000
0001
0010
0100
0010
0001
0000
,  // measure 62
0011
1001
1100
0010
,  // measure 63
1010
0000
1001
0000
1000
0001
0100
0010
,  // measure 64
0110
0101
1100
1001
,  // measure 65
1010
0000
0100
0000
0001
0100
1000
0000
,  // measure 66
0010
0100
0001
0000
1000
0100
1000
0001
,  // measure 67
1000
0010
0100
0001
1000
0010
0100
0000
,  // measure 68
0001
0010
0100
0000
0010
0001
1000
0010
,  // measure 69
1000
0001
0100
0010
1000
0001
1000
0000
,  // measure 70
0100
0010
0001
1000
0010
0000
0100
0100
,  // measure 71
0010
0100
0001
1000
0100
0010
0010
0001
,  // measure 72
0001
1000
0010
0001
0010
1000
0100
0000
,  // measure 73
0010
0001
0100
1000
0100
0001
0010
1000
,  // measure 74
1010
0011
1001
1100
,  // measure 75
0001
1000
0100
0000
1000
0010
0001
0010
,  // measure 76
1000
0100
1000
0000
0001
0100
1000
0100
,  // measure 77
0010
1000
0100
0010
0001
1000
0010
0000
,  // measure 78
1000
0001
0100
0000
0010
0100
0001
0000
,  // measure 79
0010
0100
1000
0000
0001
1000
0010
0100
,  // measure 80
0110
0101
1100
0011
,  // measure 81
2002
0000
3003
0000
,  // measure 82
0202
0000
0000
0000
,  // measure 83
0000
0000
0000
0000
0000
0000
0000
0000
0000
0000
0000
0000
0000
0000
0000
0303
;

//---------------dance-single - ----------------
#NOTES:
     dance-single:
     :
     Easy:
     5:
     0.343,0.351,0.093,0.034,0.000:
0000
0000
0000
0000
,
0000
0000
0000
0000
,
0010
0000
1000
0000
,
0001
1000
0100
1000
,
0001
0000
0010
0000
,
0001
0010
0100
0010
,
0100
0000
1000
0000
,
0010
1000
0001
0100
,
0010
0000
0100
0000
,
0001
0000
1000
0000
,
0000
0001
1000
0100
,
0010
0001
1000
0000
,
0000
0010
0100
0001
,
0010
0100
1000
0000
,
0000
0010
0100
0001
,
1000
0100
0010
0000
,
0001
1000
0100
0010
,
0001
1000
0001
0000
,
1000
1000
0001
0001
,
0100
0010
1000
0001
,
0010
0010
0100
0100
,
0010
0001
1000
0010
,
0100
0100
0001
0001
,
0010
0100
1000
0010
,
1000
1000
0010
0010
,
0100
0001
1000
0010
,
0100
0100
0001
0001
,
1000
1000
0100
1000
,
0010
0100
0010
1000
,
0001
0010
0001
0001
,
0100
0010
0100
0001
,
1000
0000
0100
0100
,
0100
1000
0010
0010
,
0010
0100
0001
0010
,
0100
1000
0000
0000
,
0000
0000
0001
1000
,
0001
1000
0010
0100
,
0001
0010
0100
0010
,
0100
0010
0001
1000
,
0010
0100
0001
0001
,
1000
1000
0100
1000
,
0010
0100
0010
1000
,
0100
0010
1001
0010
,
0100
0001
0010
0100
,
1000
0001
0000
1001
,
0000
0110
0000
0001
,
0100
0001
0000
0101
,
0000
1100
0000
1000
,
0001
0100
0000
0010
,
1000
0001
0000
1000
,
0100
0010
0000
0001
,
1000
0001
0100
0010
,
0100
0001
1000
0100
,
1000
0001
0100
0010
,
1000
1000
0001
0001
,
0100
0100
0100
0100
,
0000
0000
0000
0000
,
0010
0010
1000
1000
,
0001
1000
0100
0010
,
0001
0001
0010
0010
,
0001
0100
0010
1000
,
0100
0100
1000
1000
,
0010
1000
0001
0100
,
0010
0010
0010
0010
,
0010
0000
0000
0000
,
0001
0100
0001
1000
,
0100
0010
0001
1000
,
0010
0100
0010
1000
,
0100
0010
0001
0000
,
1001
1000
0100
0000
,
1001
0001
0100
0000
,
0110
0100
0010
1000
,
0000
0000
0000
0000
,
1001
0001
0100
0010
,
1000
0100
1000
0010
,
0100
0010
1000
0001
,
0010
0100
1000
0010
,
1000
1000
0001
0001
,
0100
0010
0100
0001
,
1000
0100
0010
0001
,
2002
0000
0000
3003
,
0220
0000
0000
0000
,
0000
0000
0000
0000
,
0330
0000
0000
0000
;
