#VERSION:0.82;
#TITLE:Lazarus;
#SUBTITLE:;
#ARTIST:David Bowie;
#TITLETRANSLIT:;
#SUBTITLETRANSLIT:;
#ARTISTTRANSLIT:;
#GENRE:RIP Rocket Man;
#ORIGIN:;
#CREDIT:;
#BANNER:Lazarus.png;
#BACKGROUND:Lazarus-bg.png;
#PREVIEWVID:;
#JACKET:jacket.png;
#CDIMAGE:;
#DISCIMAGE:;
#LYRICSPATH:;
#CDTITLE:;
#MUSIC:Lazarus.ogg;
#OFFSET:0.000000;
#SAMPLESTART:66.493927;
#SAMPLELENGTH:17.133999;
#SELECTABLE:YES;
#DISPLAYBPM:130.000000;
#BPMS:0.000=129.950,
111.000=126.510,
112.000=129.950,
191.000=131.010,
192.000=129.950;
#STOPS:;
#DELAYS:;
#WARPS:;
#TIMESIGNATURES:0.000=4=4;
#TICKCOUNTS:0.000=4;
#COMBOS:0.000=1;
#SPEEDS:0.000=1.000=0.000=0;
#SCROLLS:0.000=1.000;
#FAKES:;
#LABELS:0.000=Song Start;
#BGCHANGES:0.000=Lazarus.avi=1.000=0=0=1=====,
99999=-nosongbg-=1.000=0=0=0 // don't automatically add -songbackground-
;
#KEYSOUNDS:;
#ATTACKS:
;

//---------------dance-single - ----------------
#NOTEDATA:;
#CHARTNAME:;
#STEPSTYPE:dance-single;
#DESCRIPTION:;
#CHARTSTYLE:;
#DIFFICULTY:Hard;
#METER:8;
#RADARVALUES:0.452733,0.478741,0.164825,0.172317,0.029968,378.000000,22.000000,23.000000,0.000000,0.000000,0.000000,0.000000,0.000000,0.452733,0.478741,0.164825,0.172317,0.029968,378.000000,22.000000,23.000000,0.000000,0.000000,0.000000,0.000000,0.000000;
#CREDIT:Ben Speirs;
#DISPLAYBPM:130.000000;
#NOTES:
0000
0000
0000
0000
,
0000
0000
0000
0000
,
0000
0000
0000
0000
,
0000
0000
0000
0000
,
1000
0000
0001
0100
0010
0000
1000
0000
,
2100
3010
0102
1003
,
1002
0000
0000
0000
0103
0000
0001
0010
,
0100
1000
0001
0000
1000
0001
0010
0000
,
0001
0000
1000
0010
0100
0000
0001
0000
,
0012
0103
2010
3001
,
2001
0000
0000
0000
3010
0000
1000
0100
,
0010
0001
1000
0000
0001
1000
0100
0000
,
1001
0000
0001
0100
0010
1000
0010
1000
,
0001
0000
1000
0000
0100
0010
0001
1000
,
0001
0000
0100
0000
0010
1000
0001
0000
,
1000
0200
0000
0000
0310
0000
0000
0000
0001
2000
0000
0000
3010
0000
0000
0000
,
0101
0000
1000
0000
0001
0010
0100
1000
,
0100
1000
0010
0000
0100
0001
1000
0010
,
0100
0000
0001
0000
1000
0100
0010
0000
,
0001
2000
0000
0000
3010
0000
0000
0000
1000
0002
0000
0000
0013
0000
0000
0000
,
1100
0000
0001
1000
0010
0100
0001
1000
,
0000
0001
1000
0000
0010
0100
0010
0000
,
0101
0000
1000
0000
0001
0010
0100
0000
,
1000
0002
0000
0000
0103
0000
0000
0000
0001
2000
0000
0000
3100
0000
0000
0000
,
0011
0000
0001
0100
1000
0010
0001
1000
,
0001
0100
0010
0000
1000
0100
0010
0001
,
1000
0000
0001
0100
0010
1000
0001
0000
,
1000
0200
0000
0000
0310
0000
0010
0000
0001
0000
1000
0000
0010
0000
0000
0000
,
1001
0000
0100
1000
0010
0100
0001
0000
,
2000
3100
0002
0013
,
2000
0000
0010
0000
3001
0000
1000
0100
,
0010
0001
1000
0000
0010
0100
0001
1000
,
0001
0000
0010
0001
0100
0010
1000
0000
,
0002
0013
2000
3100
,
0002
0000
0100
0000
1003
1000
0001
0010
,
0100
1000
0001
0001
0100
0010
1010
0000
,
0102
0000
0000
0000
1003
0001
1000
0010
,
1000
0000
0001
1000
0001
0100
0001
0000
,
1000
0100
0010
0000
0001
1000
0010
0000
,
0100
0000
0001
0000
1000
0001
1000
0000
,
2010
0000
0000
0000
3001
1000
0001
0100
,
0001
0000
1000
0001
1000
0010
1000
0000
,
0001
0010
0100
0000
1000
0001
0100
0000
,
0010
0000
1000
0000
0001
1000
0001
0000
,
1010
0010
0100
0001
1000
0100
0010
0001
,
1000
0010
1000
0001
0010
0100
1000
0001
,
0100
0010
0100
0001
1000
0100
0010
0001
,
1000
0000
0010
0100
0010
0000
1000
0000
0001
0000
1000
0000
0001
0000
0000
0000
,
0101
0100
0010
1000
0001
0010
0100
1000
,
0001
0100
0001
1000
0100
0010
0001
1000
,
0010
0100
0010
1000
0100
0100
0010
0001
,
0001
1000
0010
0010
0100
0001
1000
0000
,
0001
0100
0001
0100
0001
0100
0001
0100
,
0001
1000
0001
1000
0100
0010
0001
0000
,
1000
0100
1000
0100
1000
0100
1000
0100
,
1000
0001
1000
0001
1000
0010
0100
0000
,
0001
1000
0001
0100
0010
0010
0100
1001
,
0000
0100
1001
0000
0100
1001
0000
0100
,
0010
1001
0000
0001
0100
0010
1000
0010
,
1000
0001
0010
0100
1000
0001
0100
0000
,
0001
1000
0100
0000
1001
0000
0100
1000
,
1000
0001
0100
0100
0010
1000
0100
0000
,
0010
0001
1000
1000
0001
0001
0100
0100
,
0010
0010
1000
1000
0100
0010
0001
2000
,
0000
0000
0100
0000
,
0000
0000
0100
0000
,
0000
0000
0000
0000
,
0000
0000
0000
0000
0000
0000
0000
0010
,
0002
0000
0000
0000
,
0000
0000
0000
0000
,
0000
0000
0000
0000
,
3003
0000
0000
0000
;

//---------------dance-double - ----------------
#NOTEDATA:;
#CHARTNAME:;
#STEPSTYPE:dance-double;
#DESCRIPTION:;
#CHARTSTYLE:;
#DIFFICULTY:Challenge;
#METER:7;
#RADARVALUES:0.398148,0.452145,0.164825,0.277205,0.000000,313.000000,22.000000,37.000000,0.000000,0.000000,0.000000,0.000000,0.000000,0.398148,0.452145,0.164825,0.277205,0.000000,313.000000,22.000000,37.000000,0.000000,0.000000,0.000000,0.000000,0.000000;
#CREDIT:Ben Speirs;
#DISPLAYBPM:130.000000;
#NOTES:
// measure 0
00000000
00000000
00000000
00000000
,  // measure 1
00000000
00000000
00000000
00000000
,  // measure 2
00000000
00000000
00000000
00000000
,  // measure 3
00000000
00000000
00000000
00000000
,  // measure 4
10000000
01000000
00100000
00010000
,  // measure 5
00200000
00301000
00002000
00013000
,  // measure 6
00020000
00000000
00000000
00000000
00030100
00000000
00001000
00000010
,  // measure 7
00000000
00000010
00000100
00000000
00001001
00000000
00000000
00000000
,  // measure 8
00000001
00000010
00000100
00001000
,  // measure 9
00000200
00010300
00020000
00031000
,  // measure 10
00002000
00000000
00000000
00000000
00103000
00000000
00010000
01000000
,  // measure 11
00000000
01000000
00100000
00000000
10010000
00000000
00000000
00000000
,  // measure 12
10000000
00000000
00010000
00000000
01000000
00100000
00000000
00100000
,  // measure 13
10000000
00000000
00010000
00000000
10000000
01000000
00100000
00010000
,  // measure 14
10000000
00000000
00010000
00000000
01000000
00010000
00100000
00000000
,  // measure 15
00220000
00330000
00022000
00033000
,  // measure 16
00001100
00000000
00000100
00000000
00001000
00000010
00000000
00000010
,  // measure 17
00000100
00000000
00000001
00000000
00001000
00000100
00000010
00000001
,  // measure 18
00001000
00000000
00000001
00000100
00000010
00000000
00001000
00000000
,  // measure 19
00002200
00003300
00022000
00033000
,  // measure 20
00110000
00000000
00010000
10000000
00010000
10000000
00000000
00000000
,  // measure 21
00100000
10000000
00010000
00000000
10000000
01000000
00100000
00000000
,  // measure 22
00010000
10000000
00010000
00000000
01000000
00000000
00000000
00000000
,  // measure 23
02020000
03030000
00022000
00033000
,  // measure 24
00001010
00000000
00001000
00000001
00001000
00000001
00000000
00000000
,  // measure 25
00000100
00000001
00001000
00000000
00000001
00000010
00000100
00001000
,  // measure 26
00000010
00000000
00000100
00000000
00000001
00001000
00000100
00000000
,  // measure 27
00002200
00003300
00220000
00330000
,  // measure 28
00011000
00001000
00000100
00000001
,  // measure 29
00002000
00003100
00000200
00010300
,  // measure 30
00020000
00000000
00000000
00000000
00031000
00000000
00100000
00001000
,  // measure 31
00010000
00001000
00100000
00000000
00101000
00000000
00000000
00000000
,  // measure 32
00011000
00010000
00100000
10000000
,  // measure 33
00020000
00130000
00200000
00301000
,  // measure 34
00002000
00000000
00000000
00000000
00013000
00000000
00000100
00010000
,  // measure 35
00001000
00010000
00000100
00000000
00000100
00001000
00000010
00000100
,  // measure 36
00000002
00000000
00000100
00000000
00001003
00000100
00000010
00000001
,  // measure 37
00002000
00000000
00000100
00000000
00003001
00000100
00000010
00001000
,  // measure 38
00000100
00010000
00001000
00100000
,  // measure 39
00010000
00000000
01000000
00000000
00100000
10000000
00010000
00000000
,  // measure 40
20000000
00000000
00100000
00000000
30010000
00100000
01000000
10000000
,  // measure 41
00020000
00000000
00100000
00000000
10030000
00100000
01000000
00010000
,  // measure 42
00100000
00001000
00010000
00000100
,  // measure 43
00001000
00000000
00000010
00000000
00000100
00000001
00001000
00000000
,  // measure 44
00000001
00000100
00000001
00000100
00000001
00000100
00000001
00000000
,  // measure 45
00001000
00000100
00001000
00000100
00001000
00000100
00001000
00000000
,  // measure 46
00000020
00000000
00000130
00000000
00000001
00001000
00000100
00000000
,  // measure 47
00010000
00010000
00001000
00000000
00100000
00010000
01000000
00010000
,  // measure 48
10000000
00100000
10000000
00100000
10000000
00100000
10000000
00000000
,  // measure 49
00010000
00100000
00010000
00100000
00010000
00100000
00010000
00000000
,  // measure 50
02000000
00000000
03100000
00000000
10000000
00010000
00100000
00000000
,  // measure 51
00002000
00000000
00013000
00000000
00000100
00001000
00000001
00000000
,  // measure 52
00001000
00000100
00010000
00000100
00001000
00000100
00010000
00000100
,  // measure 53
00001000
00000100
00010000
00000100
00001000
00000100
00010000
00000100
,  // measure 54
00100000
00001000
00010000
00001000
00100000
00001000
00010000
00001000
,  // measure 55
00100000
00001000
00010000
00001000
00100000
00001000
00010000
00000000
,  // measure 56
00101000
00000000
00100000
00010000
01000000
00000000
00010000
01010000
,  // measure 57
00000000
00000000
11000000
00000000
00000000
10010000
00000000
00000000
,  // measure 58
00001000
00101000
00000000
00000000
00010100
00000000
00000000
00001000
,  // measure 59
00000100
00000010
00000001
00000000
00000100
00000010
00001000
00000000
,  // measure 60
00000001
00000100
00000010
00001000
00000100
00000010
00000001
00001000
,  // measure 61
00000001
00001000
00000100
00010000
00001000
00000000
00100000
00001000
,  // measure 62
00010000
00000000
00001000
00001000
00100000
00100000
00010000
00010000
,  // measure 63
01000000
01000000
00100000
10000000
01000000
00100000
00010000
00100000
,  // measure 64
00002000
00000000
00010000
00000000
,  // measure 65
00000000
00000000
00010000
00000000
,  // measure 66
00000000
00000000
00000000
00000000
,  // measure 67
00000000
00000000
00000000
00000000
00000000
00000000
00000000
00010000
,  // measure 68
00200000
00000000
00000000
00000000
,  // measure 69
00000000
00000000
00000000
00000000
,  // measure 70
00000000
00000000
00000000
00000000
,  // measure 71
00303000
00000000
00000000
00000000
;

//---------------dance-single - ----------------
#NOTEDATA:;
#CHARTNAME:;
#STEPSTYPE:dance-single;
#DESCRIPTION:;
#CHARTSTYLE:;
#DIFFICULTY:Medium;
#METER:5;
#RADARVALUES:0.262221,0.425548,0.172317,0.292190,0.000000,183.000000,23.000000,39.000000,0.000000,0.000000,0.000000,0.000000,0.000000,0.262221,0.425548,0.172317,0.292190,0.000000,183.000000,23.000000,39.000000,0.000000,0.000000,0.000000,0.000000,0.000000;
#CREDIT:Ben Speirs;
#DISPLAYBPM:130.000000;
#NOTES:
0000
0000
0000
0000
,
0000
0000
0000
0000
,
0000
0000
0000
0000
,
0000
0000
0000
0000
,
0100
0001
1000
0010
,
2000
3000
0002
0003
,
0200
0000
0000
0300
,
0010
1000
0001
0000
,
0010
0001
1000
0100
,
2000
3000
0002
0003
,
0020
0000
0000
0030
,
0001
1000
0010
0000
,
1001
0000
0000
0000
0100
0000
0001
1000
,
0000
1000
0100
0000
0010
0000
0000
0000
,
0001
1000
0010
0100
,
0202
0303
2020
3030
,
2002
0000
3003
0000
0001
0000
1000
0100
,
0000
0100
0010
0000
0001
0000
0000
0000
,
1000
0001
0100
0010
,
2020
3030
0220
0330
,
2002
0000
3003
0000
0001
0000
1000
0001
,
0000
0010
0100
0000
1000
0000
0001
0000
,
0100
0000
0001
1000
,
2020
3030
0022
0033
,
2002
0000
3003
0000
0001
0000
1000
0001
,
0000
0100
0010
0000
1000
0000
0100
0000
,
0010
0000
0001
1000
,
2020
3030
0202
0303
,
2002
3003
0100
1000
,
0020
0030
0200
0300
,
0002
0000
1000
0000
,
0000
0000
1003
0000
,
0001
0010
0100
0000
,
2000
3000
0020
0030
,
0200
0000
0001
0000
,
0000
0000
0301
0000
,
1001
0000
0100
1000
,
0010
0000
0100
0001
,
1000
0000
0100
0000
,
0010
0001
1000
0000
,
1010
0000
1000
0001
,
0010
0000
0001
0100
,
0010
0000
1000
0001
,
1000
0100
0010
0000
,
1001
0000
0100
0100
,
1000
0000
0010
0010
,
0100
0000
0001
1000
,
0010
0100
0001
0000
,
1001
0000
1000
0001
,
0100
0100
0010
0010
,
1000
0000
0001
0000
,
1000
0000
0001
0000
,
0110
0001
0100
1000
,
0010
0001
1000
0000
,
0110
0100
1000
0010
,
0001
0100
1000
0000
,
0010
0000
0000
0000
1001
0000
0000
0100
,
0000
0000
1010
0000
0000
0100
0000
0000
,
0011
0000
1001
0000
0100
0000
0000
1000
,
0000
0001
1000
0010
,
0000
0000
0100
0000
0001
1000
0000
0001
,
1000
0000
0001
1000
0000
0001
1000
0000
,
0010
0010
0100
0100
,
0001
0000
1000
0000
0100
0010
0001
0000
,
0200
0000
0010
0000
,
0000
0000
0010
0000
,
0000
0000
0000
0000
,
0000
0000
0000
0000
0300
0000
0000
0002
,
2000
0000
0000
0000
,
0000
0000
0000
0000
,
0000
0000
0000
0000
,
3003
0000
0000
0000
;

//---------------dance-single - ----------------
#NOTEDATA:;
#CHARTNAME:;
#STEPSTYPE:dance-single;
#DESCRIPTION:;
#CHARTSTYLE:;
#DIFFICULTY:Easy;
#METER:3;
#RADARVALUES:0.186231,0.212774,0.134857,0.119873,0.000000,140.000000,18.000000,16.000000,0.000000,0.000000,0.000000,0.000000,0.000000,0.186231,0.212774,0.134857,0.119873,0.000000,140.000000,18.000000,16.000000,0.000000,0.000000,0.000000,0.000000,0.000000;
#CREDIT:Ben Speirs;
#DISPLAYBPM:130.000000;
#NOTES:
0000
0000
0000
0000
,
0000
0000
0000
0000
,
0000
0000
0000
0000
,
0000
0000
0000
0000
,
1000
0000
0001
0000
,
0200
0300
0200
0300
,
0200
0000
0000
0300
,
0010
0000
1000
0000
,
0001
0000
0010
0000
,
0200
0300
0200
0300
,
0200
0000
0000
0300
,
1000
0000
0001
0000
,
1001
0000
0100
0000
,
0010
0000
1000
0100
,
0010
0000
0001
0000
,
1001
0000
1001
0000
,
0110
0000
1000
0000
,
0001
0000
1000
0001
,
0100
0000
0001
0000
,
1001
0000
1001
0000
,
0110
0000
0010
0000
,
0001
0000
1000
0010
,
0100
0000
0001
0000
,
1001
0000
0110
0000
,
1001
0000
1000
0000
,
0001
0000
0100
0001
,
1000
0000
0010
0000
,
1001
0000
0110
0000
,
1001
0000
0000
0000
,
0020
0030
0020
0030
,
0020
0000
0000
0030
,
1000
0000
0001
1000
,
0010
0000
1000
0000
,
0200
0300
0200
0300
,
0200
0000
0000
0300
,
0010
0000
0001
0000
,
1001
0000
1000
0100
,
1000
0000
0001
0100
,
0001
0000
1000
0000
,
0001
0000
0100
0000
,
1001
0000
1000
0010
,
1000
0000
0001
0010
,
0001
0000
1000
0000
,
0010
0000
0100
0000
,
1001
0000
0001
0100
,
0010
0000
1000
0010
,
0100
0000
0001
0000
,
1000
0000
0100
0000
,
1001
0000
1000
0010
,
0100
0000
0001
0100
,
0010
0000
1000
0000
,
0001
0000
0010
0000
,
0001
1000
0001
0000
,
0100
0100
0010
0000
,
1000
0001
1000
0000
,
0100
0100
0010
0000
,
0001
0000
1000
0000
,
0010
0000
0100
0000
,
0001
0000
1000
0000
,
0100
0010
0001
0000
,
1000
0100
1000
0100
,
1000
0000
0001
0000
,
0001
0100
0001
0100
,
0001
0000
1000
0000
,
0020
0000
0000
0000
,
0000
0000
0000
0030
,
0200
0000
0000
0000
,
0000
0000
0300
0000
,
2002
0000
0000
0000
,
0000
0000
0000
0000
,
0000
0000
0000
0000
,
3003
0000
0000
0000
;

//---------------dance-single - ----------------
#NOTEDATA:;
#CHARTNAME:;
#STEPSTYPE:dance-single;
#DESCRIPTION:;
#CHARTSTYLE:;
#DIFFICULTY:Beginner;
#METER:2;
#RADARVALUES:0.156263,0.203783,0.089904,0.000000,0.000000,134.000000,12.000000,0.000000,0.000000,0.000000,0.000000,0.000000,0.000000,0.156263,0.203783,0.089904,0.000000,0.000000,134.000000,12.000000,0.000000,0.000000,0.000000,0.000000,0.000000,0.000000;
#CREDIT:Ben Speirs;
#DISPLAYBPM:130.000000;
#NOTES:
0000
0000
0000
0000
,
0000
0000
0000
0000
,
0000
0000
0000
0000
,
0000
0000
0000
0000
,
0001
0000
1000
0000
,
0010
0000
0010
0000
,
0010
0000
0000
0000
,
0100
0000
0001
0000
,
1000
0000
0100
0000
,
0010
0000
0010
0000
,
0010
0000
0000
0000
,
0001
0000
1000
0000
,
1001
0000
0010
0000
,
0100
0000
0001
0000
,
1000
1000
1000
0000
,
0001
0000
1000
0000
,
0110
0000
0001
0000
,
1000
0000
0001
0000
,
0010
0000
1000
1000
,
0001
0000
1000
0000
,
0110
0000
0100
0000
,
1000
0000
0001
0000
,
0010
0000
0001
0001
,
1000
0000
0010
0000
,
1001
0000
0001
0000
,
1000
0000
0010
0000
,
1000
0000
0100
0100
,
0010
0000
0100
0000
,
1001
0000
0000
0000
,
0100
0000
0100
0000
,
0100
0000
0000
0000
,
0001
0000
1000
0000
,
1001
0000
0001
0000
,
0010
0000
0010
0000
,
0010
0000
0000
0000
,
0100
0000
1000
0000
,
1001
0000
0001
0001
,
0001
0000
1000
1000
,
1000
0000
0001
0000
,
1000
0000
0010
0000
,
1001
0000
0001
0001
,
0001
0000
1000
1000
,
1000
0000
0001
0000
,
0100
0000
0010
0000
,
1001
0000
1000
0010
,
0010
0000
0001
0010
,
0010
0000
1000
0000
,
0001
0000
0010
0000
,
1001
0000
0001
0100
,
0100
0000
1000
0100
,
0100
0000
0001
0000
,
1000
0000
0100
0000
,
1000
1000
1000
0000
,
0010
0000
0100
0000
,
0001
0001
0001
0000
,
0010
0000
0100
0000
,
1000
0000
0001
0000
,
0100
0000
0010
0000
,
1000
0000
0001
0000
,
1000
0000
1001
0000
,
0001
0010
0010
0000
,
0001
0000
1000
0000
,
1000
0010
0010
0000
,
1000
0000
0001
0000
,
0100
0000
0000
0000
,
0000
0000
0000
0000
,
0010
0000
0000
0000
,
0000
0000
0000
0000
,
1001
0000
0000
0000
;
