#VERSION:0.82;
#TITLE:False Alarm;
#SUBTITLE:;
#ARTIST:The Weeknd;
#TITLETRANSLIT:;
#SUBTITLETRANSLIT:;
#ARTISTTRANSLIT:;
#GENRE:R'n'B;
#ORIGIN:;
#CREDIT:;
#BANNER:False Alarm.png;
#BACKGROUND:False Alarm-bg.png;
#PREVIEWVID:;
#JACKET:jacket.png;
#CDIMAGE:;
#DISCIMAGE:;
#LYRICSPATH:;
#CDTITLE:;
#MUSIC:False Alarm.ogg;
#OFFSET:0.001000;
#SAMPLESTART:54.513939;
#SAMPLELENGTH:13.714000;
#SELECTABLE:YES;
#BPMS:0.000=174.000;
#STOPS:;
#DELAYS:;
#WARPS:;
#TIMESIGNATURES:0.000=4=4;
#TICKCOUNTS:0.000=4;
#COMBOS:0.000=1;
#SPEEDS:0.000=1.000=0.000=0;
#SCROLLS:0.000=1.000;
#FAKES:;
#LABELS:0.000=Song Start;
#BGCHANGES:4.000=False Alarm.avi=1.000=0=0=1=====,
99999=-nosongbg-=1.000=0=0=0 // don't automatically add -songbackground-
;
#KEYSOUNDS:;
#ATTACKS:
;

//---------------dance-single - ----------------
#NOTEDATA:;
#CHARTNAME:;
#STEPSTYPE:dance-single;
#DESCRIPTION:;
#CHARTSTYLE:;
#DIFFICULTY:Hard;
#METER:9;
#RADARVALUES:0.667529,0.637559,0.340576,0.286084,0.000000,594.000000,50.000000,42.000000,0.000000,0.000000,0.000000,0.000000,0.000000,0.667529,0.637559,0.340576,0.286084,0.000000,594.000000,50.000000,42.000000,0.000000,0.000000,0.000000,0.000000,0.000000;
#CREDIT:Ben Speirs;
#NOTES:
0000
0000
0000
0000
,
0000
0000
0000
0000
,
0000
0000
0000
0000
,
0000
0000
0000
0000
,
1000
0000
0100
0100
1000
0000
0010
0000
,
1000
1001
0001
1001
,
0001
0000
0100
0100
0001
0000
1000
0000
,
0001
0101
1000
1010
,
0002
0000
0203
0000
0320
0000
1030
0001
,
1000
0000
0100
1000
0001
1000
0001
0000
,
2000
0000
3020
0000
0230
0000
0301
1000
,
0001
0000
0010
0001
1000
0001
1000
0000
,
0020
0000
0130
0001
2000
0000
3002
0000
,
1003
0000
0100
0010
0001
0000
0100
0010
,
2000
0001
0100
3001
,
0002
0100
1000
0013
,
1000
1100
0001
0101
,
1000
0001
0010
0100
1000
0001
0100
0000
,
0010
1010
0001
0101
,
1000
0100
0010
0001
0100
0010
1000
0000
,
0001
0101
1000
1010
,
0001
0000
0011
0000
1000
0000
0100
0010
,
0002
0100
0100
0013
,
2000
0100
0010
3001
,
1000
0000
0100
1000
0001
0000
0100
0001
,
1000
0000
0010
1000
0001
0000
0010
0001
,
0200
0000
1000
0000
0310
0100
0001
0010
,
0200
0000
1000
0000
0301
0100
1000
0010
,
0100
0000
0001
0100
0010
0000
1000
0010
,
0100
0000
0001
1000
0100
0010
0001
1000
,
0020
0000
0100
0000
0130
0001
0010
0100
,
2000
0000
0100
0000
3100
1000
0010
0100
,
0001
0000
0001
1000
0010
0000
0010
0100
,
0001
0000
0100
0000
1001
0000
1000
0100
,
0010
0000
0010
0001
0100
0000
0100
0010
,
1000
0000
0010
0000
1001
0000
0001
0100
,
0010
1000
0010
1000
0100
0010
0001
1000
,
0010
0100
0010
0100
0001
0010
0100
1000
,
0001
0100
1000
0100
0001
0010
1000
0010
,
0002
0000
0000
0000
,
1003
0000
1100
0000
0010
1000
1100
0000
,
0101
0000
1001
0000
1010
0000
0100
1000
,
0001
0000
0100
0001
1000
0000
1010
0000
,
0011
0000
0101
0000
1001
0000
0010
1000
,
0100
0000
1000
0001
0100
0000
0101
0000
,
1010
1100
0011
1001
,
0010
1000
0100
0010
0001
0100
0010
1000
,
0001
0100
0010
0100
0002
0000
0000
0000
,
1003
0010
0100
0001
0010
0100
1000
0001
,
1000
0001
1000
0001
1000
0010
0100
0001
,
0010
1000
0010
0001
0100
0010
1000
0100
,
1000
0100
1000
0100
1000
0010
0100
0001
,
0010
1000
0010
0001
0100
0010
1000
0001
,
1000
0001
1000
0001
1000
0001
1000
0001
,
1000
0010
0100
0001
0010
0100
1000
0001
,
0100
0010
0100
0010
2000
0000
0000
0000
,
3001
0000
0101
0000
1001
0000
1000
0001
,
0100
0000
0001
1000
0100
0010
0010
0000
,
0100
1000
0100
1000
0001
0000
0100
0001
,
1000
0000
0001
1000
0010
0100
0100
0000
,
0002
0000
0203
0000
0320
0000
1030
0100
,
0010
0000
0001
1000
0010
0000
1000
0001
,
0200
1000
0000
0000
1000
0000
1300
0100
,
0001
2000
0000
0000
3100
0020
0000
0000
,
0031
0010
1000
0010
0001
0100
0010
1000
,
0100
0010
0001
0100
0010
1000
1000
0000
,
0001
1000
0010
1000
0100
0010
0001
0100
,
0010
0100
0001
1000
0100
0010
0010
0000
,
0100
1000
0010
0100
0001
0010
1000
0010
,
0001
0100
0010
1000
0001
0010
0100
1000
,
0020
0001
0000
0000
0001
0000
0031
0010
,
1000
0002
0000
0000
0000
0000
0003
0000
,
1000
1100
0110
0011
,
2000
0000
3001
1000
0010
0100
0001
0000
,
0200
0000
0310
0000
0100
0010
0100
0001
,
2000
0000
3001
0000
1000
0100
0010
0000
,
0001
0011
0110
1100
,
0002
0000
1003
0001
0100
0010
1000
0000
,
0020
0000
0130
0000
0010
0100
0010
1000
,
0002
0000
1003
0000
0001
0010
0100
2000
,
0000
3010
0100
0002
0000
0103
0001
2000
,
0000
0000
3001
0000
1000
0100
0010
0002
,
0000
0103
0010
2000
0000
3010
1000
0002
,
0000
0000
0103
0000
0001
0100
0010
0000
,
1000
0010
1000
0010
0100
0001
0100
0001
,
1000
0100
0010
0001
0100
0010
1000
0100
,
0010
1000
0010
0001
0100
1000
0100
0001
,
2000
0000
0000
3000
,
0001
0100
0010
1000
0100
0010
0011
0000
,
1010
1100
0101
1001
,
1000
0010
0100
0001
0010
0100
1100
0000
,
0101
1010
0011
1001
,
0001
0100
0010
1000
0100
0010
0110
0000
,
1001
1001
0110
1001
,
0001
1000
0100
0010
0001
1000
0010
0100
,
0001
0001
0100
0010
1000
1000
0010
0100
,
0001
0001
0100
0010
1000
0001
0010
0010
,
0100
0100
1000
1000
0010
0100
0001
1000
,
0100
0010
0001
1000
0010
0100
0001
0001
,
1000
1000
0010
0010
0100
0001
1000
0100
,
0010
0001
1000
0010
0100
0001
1000
1000
,
0001
0001
0010
0010
0100
0100
1000
1000
,
0010
1000
0100
0010
0001
1000
0010
0100
,
1000
0100
0010
0100
0002
0000
0000
0000
,
1003
0000
0000
0000
;

//---------------dance-single - ----------------
#NOTEDATA:;
#CHARTNAME:;
#STEPSTYPE:dance-single;
#DESCRIPTION:;
#CHARTSTYLE:;
#DIFFICULTY:Challenge;
#METER:11;
#RADARVALUES:0.941937,1.000000,0.163477,0.027246,0.561951,940.000000,24.000000,4.000000,0.000000,0.000000,0.000000,0.000000,0.000000,0.941937,1.000000,0.163477,0.027246,0.561951,940.000000,24.000000,4.000000,0.000000,0.000000,0.000000,0.000000,0.000000;
#CREDIT:Ben Speirs;
#NOTES:
0000
0000
0000
0000
,
0000
0000
0000
0000
,
0000
0000
0000
0000
,
0000
0000
0000
0000
,
0001
1000
0010
0010
0100
0001
1000
0000
,
0010
1000
0001
0000
0010
0001
1000
0000
,
0100
1000
0010
0010
0100
0001
1000
0000
,
0010
1000
0001
0000
0100
0000
1001
0000
,
0001
0100
0001
0100
0010
0100
0010
0100
,
1000
0100
1000
0100
0010
1000
0200
0000
,
1300
0010
1000
0010
0100
0010
0100
0010
,
0001
0010
0001
0010
0100
0001
0020
0000
,
0031
1000
0001
1000
0010
0100
0001
1000
,
0100
0010
0100
0010
0001
1000
0010
0100
,
0001
0001
0100
0010
1000
0001
0010
0001
,
1000
1000
0100
1000
0010
0010
0100
0001
,
1000
0100
0010
0100
0001
0100
0010
0100
,
1000
0010
0100
0001
1000
0100
0010
0001
,
1000
0010
0100
0010
0001
0010
0100
0010
,
1000
0001
0010
0100
1000
0001
0100
0010
,
1000
0100
0010
0001
0100
0010
1000
0001
,
0010
0001
1000
0010
1000
0001
0010
0001
,
0100
0100
0010
0100
0001
0010
0100
1000
,
0010
0010
0100
0001
1000
1000
0100
1000
,
0010
0100
0010
0000
0100
0000
0001
0000
1000
0100
1000
0000
0010
0000
0100
0000
,
0001
1000
0001
0000
0010
0000
0001
0000
1000
0100
1000
0000
0010
0000
0100
0000
,
0001
1000
0001
0000
0100
0000
0010
0000
1000
0000
0100
0000
0010
0000
0001
0000
,
1000
0100
1000
0000
0010
0000
0100
0000
0001
0000
1000
0000
0010
0000
0100
0000
,
0001
1000
0001
0000
0100
0000
0010
0000
0100
0001
0100
0000
0010
0000
1000
0000
,
0100
1000
0100
0000
0010
0000
0001
0000
1000
0001
1000
0000
0010
0000
0100
0000
,
0001
1000
0001
0000
0100
0000
0010
0000
1000
0000
0100
0000
0010
0000
0001
0000
,
1000
0100
1000
0000
0010
0000
0100
0000
0001
0000
1000
0000
0100
0000
0010
0000
,
0001
0100
0001
0100
0001
0000
0100
0000
0010
1000
0010
1000
0010
0000
1000
0000
,
0100
1000
0100
1000
0100
0000
1000
0000
1001
0000
1000
0000
0010
0000
0100
0000
,
0001
1000
0001
1000
0001
0000
1000
0000
0010
0100
0010
0100
0010
0000
0100
0000
,
0001
0100
0001
0100
0001
0000
0100
0000
0010
0000
1000
0000
0100
0000
0010
0000
,
0001
1000
0001
1000
0010
1000
0010
1000
0001
1000
0001
1000
0100
1000
0100
1000
,
0001
1000
0001
1000
0100
1000
0100
1000
0010
1000
0010
1000
0001
1000
0001
1000
,
0001
0010
0100
1000
0010
0100
0001
1000
0100
0010
0001
1000
0010
0100
0002
0000
,
0000
0000
0000
0003
,
1000
0100
0010
0001
1000
0000
0010
0000
0100
0000
0001
0000
0101
0000
0100
0000
,
0101
0000
0100
0000
0101
0000
0100
0000
0010
1000
0001
0000
0100
0000
0001
1000
,
0100
1000
0010
0100
0001
1000
1010
1000
,
1010
0000
1000
0000
1010
0000
1000
0000
0010
1000
0001
0000
0010
0000
0001
1000
,
0010
0100
0001
1000
0100
0010
0011
0001
,
0011
0001
0011
0001
0011
0001
0011
0001
,
1000
0010
0100
0001
1000
0100
0010
0001
,
1000
0000
0001
0000
0100
0000
0010
0000
1000
0010
0100
0001
0100
0010
1000
0001
,
0010
0000
0001
0000
1000
0000
0010
0000
0100
0000
0001
0000
1000
0010
1000
0010
,
0100
0001
0100
0001
1000
0100
1000
0100
0010
0000
0001
0000
1000
0000
0010
0000
,
0100
0000
0001
0000
1000
0000
0100
0000
0010
0000
0001
0000
1000
0001
1000
0001
,
0100
0010
0100
0010
1000
0100
1000
0100
0010
0000
0001
0000
1000
0000
0010
0000
,
0100
0000
0001
0000
1000
0000
0100
0000
0010
0000
0001
0000
0100
0001
0100
0001
,
1000
0100
1000
0100
0010
0001
0010
0001
1000
0010
1000
0010
0100
0010
0100
0010
,
1000
0100
0010
0001
1000
0010
0100
0001
,
1000
0000
1000
0000
0001
0000
0001
0000
1000
0100
0010
0001
0010
0100
1000
0001
,
0100
0100
0010
0010
1000
1000
0001
0001
,
1000
0100
0010
0001
1000
0010
0100
0001
,
1000
1000
0001
0001
0100
0100
0010
0010
,
1000
0010
0100
0001
1000
0100
0010
0001
,
1000
1000
0001
0001
0010
0010
0001
1000
,
0010
0010
0100
0001
1000
1000
0100
1000
,
0010
0100
0001
0100
0010
1000
0100
0010
,
0001
0010
1000
0010
0001
0100
1000
0100
,
0010
0010
1000
1000
0100
0010
0001
1000
,
0010
0010
0100
0100
0001
1000
0100
0010
,
0001
0001
1000
1000
0010
0100
0001
0001
,
1000
1000
0010
1000
0100
0010
0001
1000
,
0010
0010
0100
0100
0001
0001
1000
0100
,
0010
0010
0001
1000
0010
0010
0100
0001
,
1000
0100
0001
0100
0010
0100
1000
0001
,
0100
1000
0100
0010
1000
0001
0010
0100
,
1000
0010
0100
0000
0001
0000
1000
0000
0100
0010
0001
0000
1000
0000
0010
0000
,
0100
0001
1000
0000
0100
0000
0010
0000
0001
1000
0010
0000
0100
0000
0001
0000
,
1000
0100
0010
0000
0001
0000
1000
0000
0010
0000
0100
0000
0001
0000
1000
0000
,
0001
0010
0100
0000
1000
0000
0010
0000
0100
0000
0001
0000
1000
0000
0100
0000
,
0010
0001
0100
0000
0010
0000
1000
0000
0001
0010
0100
0000
1000
0000
0001
0000
,
0100
0010
1000
0000
0001
0000
0010
0000
0100
1000
0010
0000
0100
0000
0001
0000
,
1000
0100
0010
0000
0001
0000
1000
0000
0010
0000
0100
0000
0001
0000
1000
0000
,
0010
0100
0001
0000
1000
0000
0100
0000
0010
0000
0001
0000
1000
0000
0010
0000
,
1000
0100
1000
0010
1000
0000
0001
0000
0100
0010
0100
0001
0100
0000
0010
0000
,
1000
0100
1000
0100
1000
0000
0001
0000
0010
0000
0100
0000
1000
0000
0001
0000
,
0100
0001
0100
0010
0100
0000
0001
0000
1000
0001
1000
0010
1000
0000
0001
0000
,
0100
0001
0100
0001
0100
0000
0010
0000
1000
0000
0100
0000
0010
0000
0001
0000
,
1000
0010
0100
0001
1000
0100
1000
0001
0100
0010
1000
0001
0100
0010
0100
0001
,
0010
0001
1000
0100
0010
0001
0100
0010
1000
0100
1000
0100
1000
0010
0100
0001
,
1000
0100
0010
0100
1000
0010
0100
0001
1000
0100
0010
0001
0100
0010
2000
0000
,
0000
0000
0000
3000
,
0001
0010
0100
1000
0001
0000
0100
0000
0010
0000
1000
0000
1010
0000
0010
0000
,
0110
0000
0010
0000
1010
0000
0010
0000
0100
0001
1000
0000
0010
0000
1000
0001
,
0010
0001
0100
0010
1000
0001
0101
0001
,
0011
0000
0001
0000
0101
0000
0001
0000
0100
0001
1000
0000
0100
0000
1000
0001
,
0100
0010
1000
0001
0010
0100
1100
1000
,
1010
1000
1100
1000
1001
1000
1100
1000
,
0010
0100
0001
0000
1000
0000
0100
0000
0010
0000
0001
0000
1000
0000
0010
0000
,
0100
0001
1000
0000
0010
0000
1000
0000
0001
0010
0100
0000
1000
0000
1000
0000
,
0010
0000
1000
0000
0001
0000
0100
0000
0010
0000
1000
0000
0001
0100
0001
0100
,
0010
1000
0010
1000
0001
0010
0001
0010
0100
0000
1000
0000
0001
0000
0100
0000
,
0010
0000
1000
0000
0001
0000
0010
0000
0100
0000
1000
0000
0001
1000
0001
1000
,
0010
0100
0010
0100
0001
0010
0001
0010
0100
0000
1000
0000
0001
0000
0100
0000
,
0010
0000
1000
0000
0001
0000
0010
0000
0100
0000
1000
0000
0010
1000
0010
1000
,
0001
0010
0001
0010
0100
1000
0100
1000
0001
0100
0001
0100
0010
0100
0010
0100
,
0001
0010
0100
1000
0001
0100
0010
1000
,
0001
0000
0001
0000
1000
0000
1000
0000
0001
0010
0100
1000
0100
0010
0001
1000
;

//---------------dance-double - ----------------
#NOTEDATA:;
#CHARTNAME:;
#STEPSTYPE:dance-double;
#DESCRIPTION:;
#CHARTSTYLE:;
#DIFFICULTY:Challenge;
#METER:9;
#RADARVALUES:0.711318,0.636026,0.333765,0.108984,0.000000,666.000000,49.000000,16.000000,0.000000,0.000000,0.000000,0.000000,0.000000,0.711318,0.636026,0.333765,0.108984,0.000000,666.000000,49.000000,16.000000,0.000000,0.000000,0.000000,0.000000,0.000000;
#CREDIT:Ben Speirs;
#NOTES:
// measure 0
00000000
00000000
00000000
00000000
,  // measure 1
00000000
00000000
00000000
00000000
,  // measure 2
00000000
00000000
00000000
00000000
,  // measure 3
00000000
00000000
00000000
00000000
,  // measure 4
00000100
00000000
00000010
00000010
00001000
00000000
00001100
00000000
,  // measure 5
00000010
00000000
00000101
00000000
00001000
00000100
00010000
00001000
,  // measure 6
01000000
00000000
00010000
00010000
10000000
00000000
11000000
00000000
,  // measure 7
00010000
01010000
00100000
10010000
,  // measure 8
10000000
01000000
10000000
01000000
00010000
01000000
00010000
01000000
,  // measure 9
00010000
00001000
00010000
00001000
00000100
00000001
00002000
00000000
,  // measure 10
00003001
00000010
00000001
00000010
00001000
00000010
00001000
00000010
,  // measure 11
00001000
00010000
00001000
00010000
00100000
10000000
00020000
00000000
,  // measure 12
10030000
00100000
01000000
00010000
00100000
01000000
00100000
00010000
,  // measure 13
10000000
00100000
01000000
00010000
10000000
01000000
00100000
00010000
,  // measure 14
10000000
00200000
00000000
00000000
01000000
00000000
01300000
00000000
,  // measure 15
00100000
20000000
00000000
00000000
31000000
00200000
00000000
00000000
,  // measure 16
00310000
00100000
00001000
00010000
00000100
00000010
00000001
00000100
,  // measure 17
00000010
00001000
00000100
00000010
00000001
00001000
00001000
00000000
,  // measure 18
00000001
00000100
00000010
00001000
00000100
00010000
00001000
00100000
,  // measure 19
00010000
01000000
00100000
10000000
00010000
01000000
01000000
00000000
,  // measure 20
00100000
10000000
01000000
00100000
00010000
01000000
00001000
00010000
,  // measure 21
00000100
00000010
00000001
00000100
00000010
00001000
00000100
00000010
,  // measure 22
00000001
00002000
00000000
00000000
00003010
00000100
00000010
00000000
,  // measure 23
00000100
00000002
00000000
00000000
00001003
00000200
00000000
00000000
,  // measure 24
00000310
00000001
00001000
00000010
00000100
00000100
00000010
00001000
,  // measure 25
00000100
00000100
00000010
00000001
00000100
00000100
00000010
00001000
,  // measure 26
00000100
00010000
00000100
00000010
00000001
00000100
00000010
00001000
,  // measure 27
00000100
00010000
00000100
00000010
00000001
00000100
00000010
00001000
,  // measure 28
00000100
00010000
00001000
00010000
00100000
00010000
00100000
10000000
,  // measure 29
01000000
00100000
00010000
10000000
00100000
01000000
00010000
00100000
,  // measure 30
00001000
00100000
00010000
10000000
00100000
01000000
00010000
00100000
,  // measure 31
00001000
00100000
00010000
10000000
00100000
01000000
00010000
10000000
,  // measure 32
01000000
01000000
00010000
01000000
10000000
10000000
00100000
01000000
,  // measure 33
00010000
00010000
00100000
00000000
00110000
00000000
00010000
00100000
,  // measure 34
00001000
00001000
00010000
00100000
00010000
00010000
00001000
00010000
,  // measure 35
00001000
00001000
00000100
00000000
00000110
00000000
00000100
00000001
,  // measure 36
00001000
00001000
00000001
00000001
00000010
00000100
00001000
00000010
,  // measure 37
00000100
00000100
00000010
00000010
00001000
00000100
00000010
00000001
,  // measure 38
00000100
00001000
00010000
00100000
10000000
01000000
00010000
00002000
,  // measure 39
00000000
00000000
00000000
00000000
,  // measure 40
00013000
00100000
10000000
01000000
00100000
00010000
00110000
00000000
,  // measure 41
00011000
00000000
00001100
00000000
00010100
00000000
00001000
00010000
,  // measure 42
00000100
00000010
00000001
00000100
00000010
00001000
00001010
00000000
,  // measure 43
00001100
00000000
00010100
00000000
00011000
00000000
00001000
00010000
,  // measure 44
00100000
10000000
01000000
00100000
00010000
10000000
10100000
00000000
,  // measure 45
11000000
01010000
00011000
00001100
,  // measure 46
00000001
00000010
00000100
00001000
00000010
00000100
00000001
00001000
,  // measure 47
00000010
00000010
00001000
00001000
00000200
00000000
00010300
00000000
,  // measure 48
00001000
00010000
00100000
10000000
01000000
00100000
00010000
01000000
,  // measure 49
10000000
01000000
00100000
01000000
10000000
01000000
00100000
10000000
,  // measure 50
01000000
00100000
00010000
10000000
00100000
01000000
00010000
00100000
,  // measure 51
00001000
00100000
00010000
00100000
00001000
00100000
00001000
00010000
,  // measure 52
00000100
00000010
00000001
00000100
00000010
00001000
00000001
00000100
,  // measure 53
00001000
00000100
00000001
00000100
00001000
00000100
00000010
00000100
,  // measure 54
00000001
00001000
00000100
00000010
00000001
00001000
00000010
00000100
,  // measure 55
00000001
00000001
00001000
00001000
00000020
00000000
00000000
00000000
,  // measure 56
00001030
00000000
00001100
00000000
00010100
00000000
00000100
00010000
,  // measure 57
00001000
00000000
00010000
00001000
00100000
00010000
00010000
00000000
,  // measure 58
00100000
00010000
00100000
00010000
10000000
00000000
00100000
10000000
,  // measure 59
00010000
00000000
01000000
00010000
10000000
01000000
01000000
00000000
,  // measure 60
11000000
00000000
00010000
00000000
10000000
00000000
00100000
10000000
,  // measure 61
00010000
00000000
01000000
00010000
00100000
00000000
00010000
00100000
,  // measure 62
00001000
00020000
00000000
00000000
00100000
00000000
00100000
00000000
,  // measure 63
00130000
00010000
00002000
00000000
00003010
00000001
00000200
00000000
,  // measure 64
00000310
00001000
00000010
00001000
00000100
00000010
00000001
00000100
,  // measure 65
00000010
00001000
00000100
00010000
00000010
00000100
00000100
00000000
,  // measure 66
00000010
00000100
00001000
00000100
00000010
00000100
00000001
00000100
,  // measure 67
00000010
00001000
00000100
00000010
00000100
00001000
00001000
00000000
,  // measure 68
00000100
00001000
00000100
00001000
00000100
00010000
00000100
00010000
,  // measure 69
00001000
00010000
00001000
00010000
00100000
00010000
00100000
00010000
,  // measure 70
00100000
10000000
01000000
00000000
00100000
00000000
00010000
10000000
,  // measure 71
00100000
01000000
00010000
00000000
00100000
00001000
00010000
00000000
,  // measure 72
00011000
00000000
00001000
00100000
00010000
00000000
00100000
00001000
,  // measure 73
00010000
00000100
00000100
00001000
00000100
00010000
00001000
00000000
,  // measure 74
00010100
00000000
00010100
00000000
00001000
00010000
00000100
00000000
,  // measure 75
00010100
00000000
00101000
00000000
00001000
00100000
00010000
00000000
,  // measure 76
00110000
00101000
00011000
00010100
,  // measure 77
00100100
00000000
00011000
00000000
00100100
00000000
00000100
00010000
,  // measure 78
00001000
00010000
00001000
00010000
00100000
00010000
00001000
00100000
,  // measure 79
00001000
00010000
00001000
00000100
00001000
00010000
00001000
00010000
,  // measure 80
00100000
10000000
01000000
00100000
00010000
10000000
00100000
01000000
,  // measure 81
00010000
00100000
01000000
10000000
00010000
01000000
00100000
00000000
,  // measure 82
01000000
00010000
00100000
00001000
00010000
00001000
00000100
00000010
,  // measure 83
00001000
00000100
00000010
00000001
00001000
00000010
00000100
00000000
,  // measure 84
00000001
00000001
00000100
00000010
00001000
00000100
00000010
00000100
,  // measure 85
00001000
00001000
00000100
00001000
00000010
00000100
00000001
00000100
,  // measure 86
00001000
00010000
00100000
10000000
01000000
00100000
00010000
20000000
,  // measure 87
00000000
00000000
00000000
30000000
,  // measure 88
00010000
10000000
00100000
00000000
10000000
00000000
11000000
00000000
,  // measure 89
10010000
01010000
00011000
00001000
,  // measure 90
00010000
00000010
00001000
00000000
00000010
00000000
00000110
00000000
,  // measure 91
00001010
00001100
00000101
00001001
,  // measure 92
00000010
00000001
00000100
00000010
00001000
00000100
00010100
00000000
,  // measure 93
00011000
00101000
00011000
00001010
,  // measure 94
00000010
00001000
00000100
00000010
00000001
00000100
00000010
00001000
,  // measure 95
00000100
00000100
00010000
00010000
00001000
00100000
00001000
00000000
,  // measure 96
01000000
01000000
00001000
01000000
00010000
10000000
00100000
00100000
,  // measure 97
10000000
10000000
01000000
01000000
00100000
00010000
10000000
00100000
,  // measure 98
01000000
00010000
00100000
00010000
00100000
00001000
00010000
00010000
,  // measure 99
00001000
00001000
00000010
00000010
00000001
00001000
00000010
00000100
,  // measure 100
00000001
00001000
00000100
00000010
00000001
00000100
00000010
00000010
,  // measure 101
00000100
00000100
00001000
00001000
00010000
00010000
00001000
00001000
,  // measure 102
00000100
00000010
00001000
00000100
00000010
00000001
00001000
00000010
,  // measure 103
00010000
00000100
00010000
00001000
00200000
00000000
00310000
00000000
;

//---------------dance-single - ----------------
#NOTEDATA:;
#CHARTNAME:;
#STEPSTYPE:dance-single;
#DESCRIPTION:;
#CHARTSTYLE:;
#DIFFICULTY:Medium;
#METER:7;
#RADARVALUES:0.496268,0.600691,0.517676,0.108984,0.000000,418.000000,76.000000,16.000000,0.000000,0.000000,0.000000,0.000000,0.000000,0.496268,0.600691,0.517676,0.108984,0.000000,418.000000,76.000000,16.000000,0.000000,0.000000,0.000000,0.000000,0.000000;
#CREDIT:Ben Speirs;
#NOTES:
0000
0000
0000
0000
,
0000
0000
0000
0000
,
0000
0000
0000
0000
,
0000
0000
0000
0000
,
1000
0010
0010
1000
,
0100
0010
0001
0000
,
0100
0001
0001
0100
,
0010
1000
0010
1001
,
0001
0001
1000
1000
,
0010
0000
1000
0001
0000
0000
0000
0000
,
0010
0010
0001
0001
,
1000
0000
0010
1000
0000
0000
0000
0000
,
0001
0001
1000
1000
,
0100
0000
1000
0001
1000
0000
0100
0010
,
0002
0000
0003
0000
,
1000
0010
0100
0000
0001
0001
0000
0000
,
1000
0000
0001
0000
1000
0000
0010
0100
,
0010
0000
0100
0010
0100
0000
0000
0000
,
0001
0000
1000
0000
0001
0000
0010
0100
,
0010
0000
0100
0010
0100
0000
0000
0000
,
1000
0100
0010
0001
,
1000
0000
0010
0000
0100
0000
0001
1000
,
0020
0000
0030
0000
,
0200
0000
0300
0000
,
0001
1000
0010
0010
,
1000
0100
1000
1000
,
0001
0000
0010
0000
0001
0000
1000
0100
,
1000
0010
0100
0000
,
0010
0010
1000
0001
,
0100
0000
0100
0000
0001
0000
1000
0100
,
1000
0000
0010
0000
0100
0000
0001
0100
,
0001
0100
0010
0000
,
1000
0000
0010
0100
,
0001
0100
1001
0000
,
0001
0000
1000
0100
,
0010
0001
1000
0000
,
0001
0001
0100
0100
,
0010
1000
0010
0000
1000
0100
1000
0000
,
0001
1000
0001
1000
0001
1000
0001
0020
,
0000
0000
0000
0030
,
0001
1000
0010
1001
,
0110
1001
0110
1000
,
0010
0100
0001
0110
,
1001
0110
1001
0010
,
0001
1000
0100
0110
,
1001
0110
1001
0110
,
0001
0100
0001
0000
1000
0100
1000
0000
,
0001
0010
0001
0000
1000
0000
0000
0000
,
0001
1000
0010
0000
0000
0000
1100
0000
,
0101
0011
1010
0001
,
1000
0100
0010
0000
0000
0000
1100
0000
,
0101
1010
0011
1000
,
0001
1000
0010
0000
0000
0000
0101
0000
,
1010
1100
0011
1001
,
1000
0000
0001
0000
0100
0010
0100
0000
,
0001
1000
0001
1000
0020
0000
0030
0000
,
0100
0100
0010
0010
,
0100
0000
0010
0000
1000
0100
1000
0000
,
0001
0001
0010
0010
,
0001
0000
1000
0000
0010
1000
0010
0000
,
0100
0100
0010
0010
,
1000
0000
0100
1000
0100
0000
1000
0001
,
0200
0300
0010
0010
,
2000
3000
0002
0003
,
1000
1100
0001
0101
,
1000
0000
1100
0000
0001
0010
0100
0000
,
1000
1010
0001
0011
,
1000
0000
1010
0000
0001
1000
0010
0000
,
0100
0101
1000
1100
,
0001
0011
1000
1010
,
0002
0100
0103
0010
,
2000
0100
3100
0000
,
1000
0100
1000
0000
0010
0000
0100
0000
,
0001
1000
0001
0000
0100
0000
0010
0000
,
2000
3100
1000
0010
,
0200
0310
1000
0001
,
0010
0001
0010
0000
0001
0000
1000
0000
,
0010
1000
0010
0000
0100
0000
0001
0000
,
2000
3001
0100
0001
,
0020
0031
1000
0100
,
1100
1100
0101
0101
,
1001
0000
1001
0000
0010
1000
0001
0000
,
0101
0101
1100
1100
,
1001
0000
1001
0000
0010
0001
1000
0000
,
0100
1000
0100
1000
0001
1000
0001
1000
,
0010
1000
0001
0100
,
0001
0100
0001
0100
0010
1000
0010
0200
,
0000
0000
0000
0300
,
0001
0100
0010
0000
0000
0000
1010
0000
,
1100
0101
1001
0010
,
1000
0001
0010
0000
0000
0000
1100
0000
,
0110
0011
1001
1000
,
0010
1000
0001
0000
0000
0000
1010
0000
,
1001
0101
1001
1010
,
0001
0000
1000
0000
0010
0100
0001
0000
,
0010
0001
1000
0000
0100
1000
0010
0000
,
1000
0100
1000
0000
0010
0000
1010
0000
,
1100
1010
1100
0010
,
0100
0001
0100
0000
0010
0000
0101
0000
,
0110
0101
0110
0001
,
1000
0001
1000
0000
0010
0000
1001
0000
,
1100
1001
0101
1001
,
0010
0000
1000
0000
0100
0010
0001
0000
,
0100
0010
1000
0001
2000
0000
3001
0000
;

//---------------dance-single - ----------------
#NOTEDATA:;
#CHARTNAME:;
#STEPSTYPE:dance-single;
#DESCRIPTION:;
#CHARTSTYLE:;
#DIFFICULTY:Easy;
#METER:5;
#RADARVALUES:0.294842,0.318013,0.013623,0.088550,0.000000,288.000000,2.000000,13.000000,0.000000,0.000000,0.000000,0.000000,0.000000,0.294842,0.318013,0.013623,0.088550,0.000000,288.000000,2.000000,13.000000,0.000000,0.000000,0.000000,0.000000,0.000000;
#CREDIT:Ben Speirs;
#NOTES:
0000
0000
0000
0000
,
0000
0000
0000
0000
,
0000
0000
0000
0000
,
0000
0000
0000
0000
,
0010
0000
0100
0000
,
0001
0000
1000
1000
,
0100
0000
0010
0000
,
0001
1000
0010
1001
,
0001
0000
1000
0000
,
0010
1000
0100
0000
,
1000
0000
0001
0000
,
0100
0001
1000
0000
,
0010
0000
1000
0000
,
0100
1000
0001
0000
,
0020
0030
0000
0000
,
0002
0003
2000
3000
,
0010
0010
0100
0100
,
0001
1000
0100
0000
,
1000
1000
0001
0001
,
0010
0001
0100
0000
,
0010
0010
0100
0100
,
0001
1000
0010
0000
,
2000
3000
0000
0000
,
0002
0003
0200
0300
,
0010
1000
0010
0000
,
1000
0100
1000
0000
,
0001
0100
0001
0000
,
1000
0001
1000
0000
,
0010
1000
0001
0000
,
0010
0001
0100
0000
,
0001
1000
0100
0000
,
1000
0001
0010
0000
,
0002
0003
1000
0000
,
0010
0000
1001
0000
,
2000
3000
0001
0000
,
0100
0100
0001
0000
,
1000
0100
1000
0100
,
0010
0000
0010
0000
,
0001
0010
0100
1000
,
0010
0000
0000
0000
,
1000
0001
0000
0100
,
0100
0100
0100
0000
,
0001
1000
0000
0010
,
0010
0010
0010
0000
,
1000
0001
0000
0100
,
0100
0100
0100
0100
,
0001
0000
1000
0000
,
0010
1000
0001
0000
,
0010
0100
0000
1000
,
1000
1000
1000
0000
,
0100
0010
0000
0001
,
0001
0001
0001
0000
,
0010
0100
0000
1000
,
1000
1000
1000
1000
,
0010
0000
0100
0000
,
0001
0001
1000
1000
,
0010
0000
0010
0000
,
0010
1000
0001
0000
,
0100
0000
0100
0000
,
0100
0001
1000
0000
,
0001
1000
0001
0000
,
1000
0001
1000
0000
,
0002
0003
0000
0000
,
2000
3000
0020
0030
,
1000
0100
1000
0001
,
1000
0010
1000
0000
,
0001
1000
0001
0100
,
0001
0010
0001
0000
,
0100
0100
0010
0010
,
1000
0001
1000
0000
,
0002
0003
0000
0000
,
2000
3000
0000
0000
,
0010
0000
1000
0000
,
0100
0000
0010
0001
,
0100
0000
0010
1000
,
0100
0000
1000
0001
,
0100
0000
0010
0000
,
1000
0000
0001
1000
,
0100
0000
1000
0001
,
0010
0000
0001
0000
,
1000
0100
1000
0100
,
1000
0000
0100
1000
,
0001
0100
0001
0100
,
0001
0000
0100
0001
,
1000
0010
1000
0010
,
0100
0100
0100
0100
,
0001
1000
0100
0010
,
0001
0000
0000
0000
,
0001
0010
0000
0100
,
0100
0100
0100
0000
,
1000
0001
0000
1000
,
1000
1000
1000
0000
,
0010
1000
0000
0001
,
0001
0001
0001
0001
,
0100
0000
0010
0000
,
1000
0010
0100
0000
,
0001
1000
0100
0010
,
0010
0010
0010
0000
,
0001
0010
0001
1000
,
1000
1000
1000
0000
,
0100
1000
0001
0100
,
0100
0100
0100
0100
,
0010
0000
1000
0000
,
0100
0100
0010
0010
;

//---------------dance-single - ----------------
#NOTEDATA:;
#CHARTNAME:;
#STEPSTYPE:dance-single;
#DESCRIPTION:;
#CHARTSTYLE:;
#DIFFICULTY:Beginner;
#METER:3;
#RADARVALUES:0.157638,0.246747,0.034058,0.000000,0.000000,157.000000,5.000000,0.000000,0.000000,0.000000,0.000000,0.000000,0.000000,0.157638,0.246747,0.034058,0.000000,0.000000,157.000000,5.000000,0.000000,0.000000,0.000000,0.000000,0.000000,0.000000;
#CREDIT:Ben Speirs;
#NOTES:
0000
0000
0000
0000
,
0000
0000
0000
0000
,
0000
0000
0000
0000
,
0000
0000
0000
0000
,
1000
0000
0000
0000
,
0001
0000
0000
0000
,
0100
0000
0000
0000
,
0010
0000
0010
0000
,
1000
1000
0000
0000
,
1000
0000
0000
0000
,
0001
0001
0000
0000
,
0001
0000
0000
0000
,
0100
0100
0000
0000
,
0100
0000
0000
0000
,
0010
0000
0000
0000
,
1000
0000
0000
0000
,
0001
0001
0000
0000
,
0001
0000
0000
0000
,
1000
1000
0000
0000
,
1000
0000
0000
0000
,
0010
0010
0000
0000
,
0010
0000
0000
0000
,
1000
0000
0000
0000
,
0001
0000
0000
0000
,
0100
0000
0100
0000
,
0100
0000
0000
0000
,
0001
0000
0000
0000
,
1000
0000
0000
0000
,
0010
0000
0010
0000
,
0010
0000
0000
0000
,
1000
0000
0000
0000
,
0001
0000
0000
0000
,
1000
0000
1000
0000
,
1000
0000
0000
0000
,
0001
0000
0001
0000
,
0001
0000
0000
0000
,
0100
0000
0100
0000
,
0100
0000
0100
0000
,
0010
0000
0010
0000
,
0010
0000
0000
0000
,
1001
0000
0000
1000
,
1000
1000
1000
0000
,
0000
0000
0000
0010
,
0010
0010
0010
0000
,
0000
0000
0000
0100
,
0100
0100
0100
0100
,
0000
0000
0000
0000
,
0001
0000
0001
0000
,
1001
0000
0000
1000
,
1000
1000
1000
0000
,
0000
0000
0000
0001
,
0001
0001
0001
0000
,
0000
0000
0000
0010
,
0010
0010
0010
0010
,
0000
0000
0000
0000
,
0001
0000
0001
0000
,
1001
0000
0000
0000
,
1000
0000
1000
0000
,
1000
0000
0000
0000
,
0010
0000
0010
0000
,
0010
0000
0000
0000
,
1000
0000
0000
0000
,
1000
0000
0000
0000
,
0001
0000
0000
0000
,
0001
0001
0001
0000
,
0000
0000
0000
0000
,
1000
1000
1000
0000
,
0000
0000
0000
0000
,
0100
0100
0100
0000
,
0000
0000
0000
0000
,
1000
0000
0000
0000
,
1000
0000
0000
0000
,
0001
0000
0001
0000
,
0001
0000
0000
0000
,
0010
0000
0000
0000
,
0010
0000
0000
0000
,
0001
0000
0001
0000
,
0001
0000
0000
0000
,
1000
0000
0000
0000
,
1000
0000
0000
0000
,
0010
0000
0010
0000
,
0010
0000
0000
0000
,
0100
0000
0100
0000
,
0100
0000
0000
0000
,
0001
0000
0001
0000
,
0001
0000
0001
0000
,
1000
0000
1000
0000
,
1000
0000
0000
0000
,
1001
0000
0000
0010
,
0010
0010
0010
0000
,
0000
0000
0000
0100
,
0100
0100
0100
0000
,
0000
0000
0000
0001
,
0001
0001
0001
0001
,
0000
0000
0000
0000
,
1000
0000
0000
0000
,
1001
0000
0000
1000
,
1000
1000
1000
0000
,
0000
0000
0000
0001
,
0001
0001
0001
0000
,
0000
0000
0000
0010
,
0010
0010
0010
0010
,
0000
0000
0000
0000
,
0001
0000
1000
0000
;
