#VERSION:0.82;
#TITLE:Worth It;
#SUBTITLE:;
#ARTIST:Fifth Harmony (feat. Kid Ink);
#TITLETRANSLIT:;
#SUBTITLETRANSLIT:;
#ARTISTTRANSLIT:;
#GENRE:Harmonious Horns;
#ORIGIN:;
#CREDIT:;
#BANNER:Worth It.png;
#BACKGROUND:Worth It-bg.png;
#PREVIEWVID:;
#JACKET:jacket.png;
#CDIMAGE:;
#DISCIMAGE:;
#LYRICSPATH:;
#CDTITLE:;
#MUSIC:Worth It.ogg;
#OFFSET:0.000000;
#SAMPLESTART:19.208225;
#SAMPLELENGTH:13.714000;
#SELECTABLE:YES;
#BPMS:0.000=100.000;
#STOPS:;
#DELAYS:;
#WARPS:;
#TIMESIGNATURES:0.000=4=4;
#TICKCOUNTS:0.000=4;
#COMBOS:0.000=1;
#SPEEDS:0.000=1.000=0.000=0;
#SCROLLS:0.000=1.000;
#FAKES:;
#LABELS:0.000=Song Start;
#BGCHANGES:4.000=Worth It.avi=1.000=0=0=1=====,
99999=-nosongbg-=1.000=0=0=0 // don't automatically add -songbackground-
;
#KEYSOUNDS:;
#ATTACKS:
;

//---------------dance-single - ----------------
#NOTEDATA:;
#CHARTNAME:;
#STEPSTYPE:dance-single;
#DESCRIPTION:;
#CHARTSTYLE:;
#DIFFICULTY:Hard;
#METER:7;
#RADARVALUES:0.404368,0.404205,0.348097,0.000000,0.077864,271.000000,38.000000,0.000000,0.000000,0.000000,0.000000,0.000000,0.000000,0.404368,0.404205,0.348097,0.000000,0.077864,271.000000,38.000000,0.000000,0.000000,0.000000,0.000000,0.000000,0.000000;
#CREDIT:Ben Speirs;
#NOTES:
0000
0000
0000
0000
,
0000
0000
0000
0000
,
0100
0010
1000
0010
0000
1000
0001
0000
,
0100
0001
0010
0001
1000
0010
0100
0000
,
1001
1001
0100
0010
0000
0010
0001
0000
,
0011
0011
0001
1000
0000
1000
0010
0000
,
1010
1010
0010
0100
0000
0100
0001
0000
,
0101
0101
1000
0100
0000
0010
0001
0000
,
1100
1001
0100
0010
0000
0010
1000
0000
,
1010
1001
0010
0100
0000
0100
1000
0000
,
1100
0101
1000
0010
0000
0010
0100
0000
,
0101
1001
1000
0100
0000
0010
0001
0000
,
1000
0000
1000
0000
0010
0000
0000
0000
0000
0000
0000
0000
1000
0000
0000
0001
,
0100
0100
0010
0000
0000
0000
1000
0000
,
0100
0000
0100
0000
0010
0000
0000
0000
0000
0000
0000
0000
0001
0000
0000
1000
,
0010
0000
0010
0000
0100
0000
0000
0001
0010
0000
0010
0000
0100
0000
0000
1000
,
0001
0000
0001
0000
0100
0000
0010
0000
0000
0000
0010
0000
1000
0000
0000
0100
,
0010
0010
0001
1000
0000
1000
0010
0000
,
0100
0000
0100
0000
0001
0000
1000
0000
0000
0000
1000
0000
0100
0000
0000
0010
,
0001
0000
0000
0001
1000
0000
1000
0000
0000
0000
0010
0000
0010
0000
0000
0000
,
1000
0100
0010
0001
1001
0000
0010
1000
,
0100
0010
0001
1000
1001
0000
0010
0000
,
0001
0010
0100
1000
1001
0000
0100
0001
,
0010
0100
1000
0001
1001
0000
0100
0000
,
0010
0000
0010
0000
1000
0100
1000
0000
0000
0000
0001
0000
0100
0000
0000
0000
,
0001
0000
0001
0000
0010
0100
0010
0000
0000
0000
0001
0000
1000
0000
0000
0000
,
0010
0000
0010
0000
0100
0001
0100
0000
0000
0000
0010
0000
1000
0000
0000
0000
,
0100
0000
0000
0100
1000
0000
0001
0000
0000
0000
0100
0000
0100
0000
0000
0000
,
0001
1000
0010
0100
0001
1000
0100
0000
,
0010
0001
1000
0010
0100
0010
1000
0000
,
0001
0010
0100
1000
0010
1000
0001
0000
,
0100
0010
0100
0001
0010
0100
1000
0000
,
0001
0000
0000
0001
1000
0000
1000
0000
0000
1000
0100
0000
0100
0000
0000
0000
,
0010
0000
0000
0010
0001
0000
0001
0000
0000
0001
0100
0000
0100
0000
0000
0000
,
0010
0100
0010
0100
0001
1000
0001
1000
,
0100
0010
0100
0010
0100
0000
0010
0000
0001
0000
1000
0000
0010
0000
0000
0000
,
1001
1001
0100
0010
0000
0010
1000
0000
,
1100
1100
0001
0100
0000
0100
0010
0000
,
1010
1010
0001
0010
0000
0010
0001
0000
,
1100
1100
0001
0100
0000
0010
1000
0000
,
1001
0101
1000
0100
0000
0100
0010
0000
,
0011
1001
0010
1000
0000
1000
0001
0000
,
0101
1100
0010
0001
0000
0001
1000
0000
,
1010
0101
1000
0100
0000
0001
0100
0000
,
0011
1100
0000
0000
0000
0000
0000
0000
;

//---------------dance-single - ----------------
#NOTEDATA:;
#CHARTNAME:;
#STEPSTYPE:dance-single;
#DESCRIPTION:;
#CHARTSTYLE:;
#DIFFICULTY:Challenge;
#METER:9;
#RADARVALUES:0.683107,0.626517,0.522145,0.000000,0.691614,465.000000,57.000000,0.000000,0.000000,0.000000,0.000000,0.000000,0.000000,0.683107,0.626517,0.522145,0.000000,0.691614,465.000000,57.000000,0.000000,0.000000,0.000000,0.000000,0.000000,0.000000;
#CREDIT:Ben Speirs;
#NOTES:
0000
0000
0000
0000
,
0000
0000
0000
0000
,
0100
0000
0001
0010
0100
1000
0001
0000
0000
0000
1000
0100
0010
0001
1000
0000
,
0001
0000
0100
0010
0100
0010
0100
0010
0100
0001
0010
0100
1000
0001
1000
0000
,
1100
0000
1100
0000
0100
1000
0001
0000
1000
0000
0010
1000
0100
0010
0001
0000
,
0011
0000
0011
0000
1000
0001
0100
0000
0010
0000
0100
0001
0010
0100
1000
0000
,
1100
0000
1001
0000
0100
0001
1000
0000
0010
0000
1000
0100
0010
0001
1000
0000
,
1010
0000
0001
0010
0001
0000
1001
0000
0100
0010
0100
0001
0010
0100
1000
0000
,
0101
0000
0001
0100
0001
1000
0001
0100
0001
0000
1000
0100
0010
0001
1000
0000
,
1100
0000
1000
0100
1000
0001
1000
0100
1000
0000
0100
1000
0010
0100
0001
0000
,
1010
0000
0010
1000
0001
1000
0010
0000
1001
0000
1000
0100
0010
0001
1000
0000
,
0101
0000
1000
0100
1000
0000
0001
0000
0100
0010
0100
0000
1001
0000
0000
0000
,
0001
0000
0001
0100
0010
0100
0001
1000
0100
0000
0010
0001
1000
0000
0001
0100
,
0010
0000
0010
0000
1000
0100
1000
0010
0100
0000
0001
0010
0100
0000
1000
0000
,
0010
0000
0110
0000
0100
0000
0001
0010
0100
0000
1000
0010
0100
0000
0001
1000
,
0001
0010
0001
1000
0001
0000
1000
0000
1000
0100
1000
0001
1000
0000
0001
0000
,
0100
0000
0100
0010
0000
0000
0010
1000
0000
0000
1000
0100
0000
0000
0100
0010
,
0001
0000
0001
1000
0000
0000
0010
0000
0010
0000
0100
0010
0100
0000
0110
0000
,
0001
0000
0001
1000
0000
0000
1000
0100
0000
0000
0100
0010
0000
0000
0010
0001
,
1000
0000
1000
0010
0000
0000
0010
0100
0001
1000
0001
0100
0010
0000
0110
0000
,
0001
0100
0010
1000
0001
0010
0100
1000
0001
0000
0000
0000
0100
0010
0100
0010
,
1000
0000
0000
1000
0100
0010
0001
1000
0001
0000
0000
0000
1001
0000
0000
0000
,
1000
0010
0100
0001
1000
0100
0010
0001
1000
0000
0000
0000
0010
0100
0010
0100
,
0001
0000
0000
0001
0010
0100
1000
0001
1000
0000
0000
0000
1001
0000
0000
0000
,
1000
0100
0010
0100
0010
0001
0010
0001
1000
0000
0001
0000
1001
0000
0000
0000
,
0001
0100
0010
0100
0010
1000
0010
1000
0001
0000
1000
0000
1001
0000
0000
0000
,
1000
0000
0001
0100
0001
0100
0010
1000
0010
0000
0000
0000
1000
0000
0001
0100
,
0001
0000
0000
0000
1000
0100
1000
0100
0010
0000
0001
0000
1000
0000
0000
0000
,
0101
0000
1001
0000
1100
0000
0010
0000
0001
1000
0001
1000
0001
0000
0100
0000
,
1010
0000
1000
0100
1000
0000
0101
0000
1000
0100
0010
0000
1001
0000
0000
0000
,
1010
0000
1001
0000
0011
0000
0100
0000
1000
0001
1000
0001
1000
0000
0010
0000
,
0101
0000
0001
0010
0001
0000
1010
0000
0001
0010
0100
0000
1001
0000
1000
0000
,
1010
0000
0110
0000
0101
0000
1000
0000
0001
0010
0100
1000
0001
0000
1000
0100
,
1000
0000
0001
0100
0001
0000
1000
0000
0010
1000
0001
0000
0101
0000
1001
0000
,
0101
0000
0110
0000
1010
0000
0001
0000
1000
0100
0010
0001
1000
0000
0001
0000
,
0100
0010
1000
0100
0010
0000
0001
0000
1000
0000
0010
0100
0010
0100
0001
0000
,
0011
0000
0011
0000
0010
0001
1000
0000
0001
0000
0100
0001
0010
0100
1000
0000
,
1100
0000
1100
0000
0001
1000
0010
0000
0100
0000
0010
1000
0100
0010
0001
0000
,
0011
0000
1001
0000
0010
1000
0001
0000
0100
0000
0001
0010
0100
1000
0001
0000
,
0101
0000
1000
0100
1000
0000
1001
0000
0010
0100
0010
1000
0100
0010
0001
0000
,
1010
0000
1000
0010
1000
0001
1000
0010
1000
0000
0001
0010
0100
1000
0001
0000
,
0011
0000
0001
0010
0001
1000
0001
0010
0001
0000
0010
0001
0100
0010
1000
0000
,
0101
0000
0100
0001
1000
0001
0100
0000
1001
0000
0001
0010
0100
1000
0001
0000
,
1010
0000
0101
0000
1000
0100
0010
0001
1000
0010
0100
0001
0010
0100
1000
0000
,
1100
0011
0000
0000
0000
0000
0000
0000
;

//---------------dance-single - ----------------
#NOTEDATA:;
#CHARTNAME:;
#STEPSTYPE:dance-single;
#DESCRIPTION:;
#CHARTSTYLE:;
#DIFFICULTY:Medium;
#METER:4;
#RADARVALUES:0.257801,0.262733,0.064123,0.036642,0.000000,186.000000,7.000000,4.000000,0.000000,0.000000,0.000000,0.000000,0.000000,0.257801,0.262733,0.064123,0.036642,0.000000,186.000000,7.000000,4.000000,0.000000,0.000000,0.000000,0.000000,0.000000;
#CREDIT:Ben Speirs;
#NOTES:
0000
0000
0000
0000
,
0000
0000
0000
0000
,
0100
0000
0001
0000
0000
1000
0100
0000
,
1000
0000
0001
0000
0000
0010
0100
0000
,
1000
1000
0100
0000
0010
0000
0001
0000
,
0100
0100
0010
0000
1000
0000
0100
0000
,
0010
0010
0001
0000
1000
0000
0001
0000
,
0100
0000
0100
0100
0000
0100
0100
0000
,
0001
0001
0010
0000
0001
0000
1000
0000
,
0010
0010
1000
0000
0100
0000
0010
0000
,
0001
0001
0100
0000
0010
0000
1000
0000
,
0100
0000
0100
0100
0000
0100
0100
0000
,
1000
1000
0000
0000
0000
0000
0000
0000
,
0001
0001
0000
0000
0000
0000
0000
0000
,
0100
0100
0000
0000
0000
0000
0000
0000
,
0010
0010
0000
0000
1000
1000
0000
0000
,
0001
0000
1000
0100
0000
0100
0010
0000
,
0001
0000
0100
0010
0000
0010
1000
0000
,
0001
0000
0010
0100
0000
0100
1000
0000
,
0010
0000
0010
0010
0000
0010
0010
0000
,
1000
1000
0101
1000
,
0101
1000
0101
0000
,
0001
0001
1100
0001
,
1100
0001
1100
0000
,
0001
0000
0100
0100
0000
0000
0010
0000
,
1000
0000
0100
0100
0000
0000
0010
0000
,
0001
0000
1000
1000
0000
0000
0001
0000
,
0100
0000
0100
0100
0000
0100
0100
0000
,
2001
0100
0100
3100
,
0002
0100
0100
0103
,
2000
0010
0010
3010
,
0002
0010
0010
0013
,
0001
0000
1000
1000
0000
0001
0001
0000
,
0100
0000
0010
0010
0010
0000
0000
0000
,
0100
0000
0001
0001
0000
1000
1000
0000
,
0100
0000
0100
0100
0000
0000
0100
0000
,
1000
1000
0010
0000
0100
0000
0001
0000
,
0010
0010
0100
0000
1000
0000
0001
0000
,
0100
0100
0010
0000
1000
0000
0100
0000
,
0010
0000
0010
0000
0010
0010
0010
0000
,
0001
0001
0001
0000
0100
0000
0010
0000
,
1000
1000
1000
0000
0001
0000
1000
0000
,
0010
0010
0010
0000
1000
0000
0001
0000
,
0100
0100
0100
0000
0001
0001
0001
0000
,
1000
1000
0000
0000
0000
0000
0000
0000
;

//---------------dance-single - ----------------
#NOTEDATA:;
#CHARTNAME:;
#STEPSTYPE:dance-single;
#DESCRIPTION:;
#CHARTSTYLE:;
#DIFFICULTY:Easy;
#METER:2;
#RADARVALUES:0.168814,0.221683,0.183209,0.036642,0.000000,105.000000,20.000000,4.000000,0.000000,0.000000,0.000000,0.000000,0.000000,0.168814,0.221683,0.183209,0.036642,0.000000,105.000000,20.000000,4.000000,0.000000,0.000000,0.000000,0.000000,0.000000;
#CREDIT:Ben Speirs;
#NOTES:
0000
0000
0000
0000
,
0000
0000
0000
0000
,
0100
0000
0001
0000
,
1000
0000
0100
0000
,
1001
0000
0000
0010
,
1001
0000
0000
0010
,
1001
0000
0000
0010
,
1001
0000
0000
0100
,
1001
0000
0000
0100
,
1001
0000
0000
0100
,
1001
0000
0000
0100
,
1001
0000
0000
0100
,
1000
0010
0000
0010
,
0100
0001
0000
0001
,
0010
0100
0000
0100
,
1000
0010
0100
0001
,
1000
1000
0000
1000
,
0001
0001
0000
0001
,
0100
0100
0000
0100
,
0010
0010
0000
0010
,
0000
1000
1000
0000
,
0001
0001
0001
0000
,
0000
0010
0010
0000
,
0010
0010
0010
0000
,
0100
1000
0001
0000
,
0100
0010
1000
0000
,
0100
0010
0001
0000
,
0100
0001
1000
0000
,
2002
0000
0000
3003
,
0010
1000
0001
0000
,
2002
0000
0000
3003
,
0100
0001
1000
0000
,
0100
0100
0100
0000
,
0010
0010
0010
0000
,
0001
1000
0001
1000
,
0010
0010
0010
0000
,
1001
0000
0000
0010
,
1001
0000
0000
0010
,
1001
0000
0000
0010
,
1001
0000
0000
0010
,
1001
0000
0000
0100
,
1001
0000
0000
0100
,
1001
0000
0000
0100
,
1001
0000
0000
0110
,
1001
0000
0000
0000
;

//---------------dance-single - ----------------
#NOTEDATA:;
#CHARTNAME:;
#STEPSTYPE:dance-single;
#DESCRIPTION:;
#CHARTSTYLE:;
#DIFFICULTY:Beginner;
#METER:1;
#RADARVALUES:0.094222,0.120918,0.091604,0.000000,0.000000,62.000000,10.000000,0.000000,0.000000,0.000000,0.000000,0.000000,0.000000,0.094222,0.120918,0.091604,0.000000,0.000000,62.000000,10.000000,0.000000,0.000000,0.000000,0.000000,0.000000,0.000000;
#CREDIT:Ben Speirs;
#NOTES:
0000
0000
0000
0000
,
0000
0000
0000
0000
,
0010
0000
0000
0000
,
1000
0000
0000
0000
,
1001
0000
0000
0000
,
0100
0000
0000
0000
,
1001
0000
0000
0000
,
0100
0000
0000
0000
,
1001
0000
0000
0000
,
0010
0000
0000
0000
,
1001
0000
0000
0000
,
0010
0000
0000
0000
,
0100
0000
0000
0000
,
0001
0000
0000
0000
,
1000
0000
0000
0000
,
0100
0000
0100
0000
,
0010
0000
0000
0001
,
0001
0000
0000
1000
,
1000
0000
0000
0010
,
0010
0000
0100
0000
,
0000
0001
0001
0000
,
1000
0000
1000
0000
,
0000
0100
0100
0000
,
0010
0000
0010
0000
,
0001
0000
1000
0000
,
0010
0000
0100
0000
,
0001
0000
0000
0000
,
1000
0000
0001
0000
,
1001
0000
0000
0000
,
0100
0100
0100
0000
,
0010
0000
0000
0000
,
0001
0001
0001
0000
,
1000
0000
0000
0000
,
0010
0010
0010
0000
,
0100
0000
0000
0000
,
0001
0000
1000
0000
,
1001
0000
0000
0000
,
0010
0000
0000
0000
,
1001
0000
0000
0000
,
0010
0000
0000
0000
,
1001
0000
0000
0000
,
0100
0000
0000
0000
,
1001
0000
0000
0000
,
0100
0000
0000
0000
,
1001
0000
0000
0000
;

//---------------dance-double - ----------------
#NOTEDATA:;
#CHARTNAME:;
#STEPSTYPE:dance-double;
#DESCRIPTION:;
#CHARTSTYLE:;
#DIFFICULTY:Challenge;
#METER:9;
#RADARVALUES:0.650392,0.646727,0.540466,0.000000,0.563367,438.000000,59.000000,0.000000,0.000000,0.000000,0.000000,0.000000,0.000000,0.650392,0.646727,0.540466,0.000000,0.563367,438.000000,59.000000,0.000000,0.000000,0.000000,0.000000,0.000000,0.000000;
#CREDIT:Ben Speirs;
#NOTES:
// measure 0
00000000
00000000
00000000
00000000
,  // measure 1
00000000
00000000
00000000
00000000
,  // measure 2
10000000
00000000
00100000
01000000
00100000
01000000
00100000
00000000
00000000
00000000
01000000
00010000
01000000
00010000
01000000
00000000
,  // measure 3
00100000
00000000
10000000
01000000
10000000
00000000
00010000
00000000
00100000
00010000
00100000
00010000
01000000
00010000
01000000
00000000
,  // measure 4
01010000
00000000
01001000
00000000
00010000
00001000
00010000
00000000
00000100
00000000
00001000
00000100
00001000
00000100
00010000
00000000
,  // measure 5
00011000
00000000
00010100
00000000
00000100
00001000
00000100
00000000
00001000
00000000
00000010
00001000
00000010
00001000
00000001
00000000
,  // measure 6
00000011
00000000
00001010
00000000
00000001
00001000
00000001
00000000
00001000
00000000
00000010
00001000
00000100
00000010
00000001
00000000
,  // measure 7
00001100
00000000
00000000
00000001
00000100
00000000
00000101
00000000
00000000
00001000
00000100
00000000
00001100
00000000
00000001
00000000
,  // measure 8
00001001
00000000
00000101
00000000
00001000
00000100
00000010
00000001
00000100
00000000
00000010
00001000
00000100
00000000
00010000
00000000
,  // measure 9
00010100
00000000
00011000
00000000
00010000
00001000
00100000
00010000
01000000
00000000
00010000
10000000
00100000
00000000
01000000
00000000
,  // measure 10
01100000
00000000
01010000
00000000
01000000
00100000
10000000
00000000
00010000
00000000
10000000
01000000
00100000
00010000
10000000
00000000
,  // measure 11
11000000
00000000
00000000
00010000
01000000
00000000
01010000
00000000
00000000
00000000
10000000
00000000
11000000
00000000
00000000
00000000
,  // measure 12
10010000
00000000
10010000
00000000
10000000
01000000
00010000
00001000
00010000
00000000
00001000
00010000
00001000
00000000
00010000
00000000
,  // measure 13
00011000
00000000
00011000
00000000
00010000
00001000
00000100
00000001
00001000
00000000
00000001
00001000
00000001
00000000
00001000
00000000
,  // measure 14
00001001
00000000
00001001
00000000
00000001
00000010
00001000
00010000
00001000
00000000
00010000
00001000
00010000
00000000
00011000
00000000
,  // measure 15
00001000
00010000
00100000
10000000
00010000
00000000
10010000
00000000
10000000
00100000
00010000
00001000
00010000
00000000
00011000
00000000
,  // measure 16
00001000
00010000
00100000
00100000
00000000
00000000
10000000
10000000
00000000
00000000
01000000
01000000
00000000
00000000
10000000
00000000
,  // measure 17
00010000
00000000
01000000
01000000
00000000
00000000
00010000
00000000
10000000
01000000
00100000
00000000
00010000
00000000
01000000
00001000
,  // measure 18
00010000
00000000
00000100
00000100
00000000
00000000
00001000
00001000
00000000
00000000
00000001
00000001
00000000
00000000
00000100
00000000
,  // measure 19
00000010
00000000
00001000
00001000
00000001
00000000
00000010
00000000
00000001
00001000
00000100
00000000
00001100
00000000
00000001
00000000
,  // measure 20
00000100
00000000
00000010
00000000
00001000
00000100
00001000
00000100
00010000
00000000
00000000
00000000
00001000
00000000
00010000
00000000
,  // measure 21
00011000
00000000
00000000
00000000
00001000
00100000
00010000
00100000
00010000
00000000
00000000
00000000
01000000
00000000
00000000
00000000
,  // measure 22
00010000
10000000
00100000
10000000
00100000
00000000
01000000
00010000
01000000
00000000
00000000
00000000
00010000
10000000
01000000
10000000
,  // measure 23
01000000
00000000
00000000
00000000
10000000
00100000
10000000
00100000
01000000
00000000
00010000
00000000
10000000
00000000
00000000
00000000
,  // measure 24
00010000
00000000
10000000
01000000
00010000
00000000
00001000
00000000
00010000
00000000
00001000
00000000
00000100
00000000
00000001
00000000
,  // measure 25
00001000
00000000
00000001
00000010
00001000
00000000
00010000
00001000
00010000
00000000
00001000
00000000
00010000
00000000
00000000
00000000
,  // measure 26
00010010
00000000
00010010
00000000
00010000
00000000
00001000
00100000
00010000
00000000
01000000
00000000
00100000
00000000
00000000
00000000
,  // measure 27
01010000
00000000
11000000
00000000
00010000
00000000
10000000
00000000
00100000
10000000
00010000
00000000
00100000
00000000
00000000
00000000
,  // measure 28
10010000
00000000
11000000
00000000
01010000
00000000
10000000
00000000
00100000
01000000
00100000
01000000
00010000
00000000
00100000
00000000
,  // measure 29
00101000
00000000
00100000
00001000
00010000
00000000
00000100
00000000
00001000
00000010
00001000
00000000
00000001
00000000
00000100
00000000
,  // measure 30
00000101
00000000
00001000
00000100
00001000
00000000
00000001
00000000
00000010
00000100
00000010
00000100
00001000
00000000
00000001
00000000
,  // measure 31
00000100
00000010
00000100
00000010
00001000
00000000
00000100
00000000
00001000
00000100
00010000
00000000
00001000
00000000
00100000
00000000
,  // measure 32
00010000
00000000
00110000
00000000
00101000
00000000
00110000
00000000
00100000
00010000
10000000
00010000
10000000
00000000
00100000
00000000
,  // measure 33
01000000
00000000
01000000
00100000
10000000
00000000
00010000
00000000
00010000
10000000
01000000
00000000
00100000
00000000
00010000
00000000
,  // measure 34
00110000
00000000
00011000
00000000
00001100
00000000
00001000
00000000
00000001
00000010
00000100
00001000
00000001
00000000
00001000
00000000
,  // measure 35
00000010
00001000
00000100
00000010
00000001
00000000
00000100
00000000
00000010
00000000
00001000
00000100
00001000
00000100
00010000
00000000
,  // measure 36
00010100
00000000
00011000
00000000
00010000
00001000
00010000
00001000
00100000
00000000
00010000
00100000
00010000
01000000
00100000
00000000
,  // measure 37
01100000
00000000
10100000
00000000
10000000
00100000
10000000
00100000
01000000
00000000
00010000
10000000
00010000
10000000
00100000
00000000
,  // measure 38
11000000
00000000
01010000
00000000
10000000
01000000
00100000
00000000
00010000
00000000
01000000
00100000
10000000
00010000
10000000
00000000
,  // measure 39
11000000
00000000
00010000
01000000
00010000
00000000
01001000
00000000
00001000
01000000
00001000
00000000
00010000
00010000
00000100
00000000
,  // measure 40
00001100
00000000
00001001
00000000
00000001
00000010
00000100
00001000
00000001
00000100
00000010
00001000
00000001
00000001
00000100
00000000
,  // measure 41
00000101
00000000
00000001
00000100
00000010
00001000
00000100
00010000
00001000
00010000
00000100
00001000
00000010
00000010
00000100
00000000
,  // measure 42
00000110
00000000
00001000
00000100
00010000
00001000
00100000
00000000
00010000
00000000
01000000
00010000
10000000
00100000
01000000
00000000
,  // measure 43
10010000
00000000
10000000
01000000
00010000
00000000
00001000
00000000
00010000
00001000
00000100
00000001
00001000
00000100
00010000
00000000
,  // measure 44
00010100
00011000
00000000
00000000
00000000
00000000
00000000
00000000
;
