#TITLE:That's What I Like;
#SUBTITLE:;
#ARTIST:Flo Rida feat. Fitz;
#TITLETRANSLIT:;
#SUBTITLETRANSLIT:;
#ARTISTTRANSLIT:;
#GENRE:;
#CREDIT:;
#BANNER:;
#BACKGROUND:;
#LYRICSPATH:;
#CDTITLE:;
#MUSIC:That's What I Like.ogg;
#OFFSET:0.004000;
#SAMPLESTART:104.996918;
#SAMPLELENGTH:14.694003;
#SELECTABLE:YES;
#BPMS:0.000000=128.000000
;
#STOPS:
;
#BGCHANGES:4.000=That's What I Like.avi=1.000=0=0=1=====,
99999=-nosongbg-=1.000=0=0=0 // don't automatically add -songbackground-
;
#KEYSOUNDS:;
#ATTACKS:;

//---------------dance-single - ----------------
#NOTES:
     dance-single:
     :
     Hard:
     7:
     0.443356,0.471990,0.280176,0.438225,0.000000,432.000000,393.000000,39.000000,61.000000,0.000000,0.000000,0.443356,0.471990,0.280176,0.438225,0.000000,432.000000,393.000000,39.000000,61.000000,0.000000,0.000000:
// measure 0
0000
0000
0000
0000
,  // measure 1
0000
0000
0000
0000
,  // measure 2
0000
0000
0000
0000
,  // measure 3
0000
0000
0000
0000
,  // measure 4
2002
0000
0000
3003
0000
1000
0100
0020
,  // measure 5
0002
0000
0033
0010
0001
1000
0001
0000
,  // measure 6
2200
0000
3300
0002
0000
0003
0000
0000
,  // measure 7
0202
0000
0303
2000
0000
3010
0100
0001
,  // measure 8
2000
0000
3100
1000
0200
0000
0310
0001
,  // measure 9
0020
0000
0031
1000
0001
1000
0020
0000
,  // measure 10
0230
0001
0010
0310
,  // measure 11
0020
0000
1030
0100
0100
0000
1100
0000
,  // measure 12
0012
0000
1000
0000
0103
0001
1000
0001
,  // measure 13
0200
0000
0301
0100
1000
0100
0020
0000
,  // measure 14
2030
0000
3100
1000
0100
0000
1000
0000
,  // measure 15
0002
0000
0103
0001
0100
0010
0010
0100
,  // measure 16
0002
0000
0013
0100
0020
0000
0130
1000
,  // measure 17
0200
0000
1300
0001
1000
0100
0020
0000
,  // measure 18
0032
0000
1003
0001
1000
0000
0010
0000
,  // measure 19
1000
0100
1000
0001
0010
0100
0100
0000
,  // measure 20
0110
1001
0110
1001
,  // measure 21
0000
0000
0000
0000
0000
0001
0100
0010
,  // measure 22
2000
0000
3100
0000
1000
0001
1000
0000
,  // measure 23
0100
1000
0010
0100
0001
1000
0002
0000
,  // measure 24
0203
0000
0310
0000
0100
0001
1000
0000
,  // measure 25
0001
0010
0100
0000
1000
0001
0100
0000
,  // measure 26
1001
0000
0001
1000
0010
0100
0001
0000
,  // measure 27
0100
0010
0100
0001
0010
0010
0010
0000
,  // measure 28
0002
0000
1003
0000
1000
0100
1000
0000
,  // measure 29
2000
3100
0002
0103
,  // measure 30
1001
0000
1010
0000
0001
1000
0100
0000
,  // measure 31
1001
0000
0101
0000
0010
0001
0100
0000
,  // measure 32
0001
0100
0010
0100
0001
1000
0001
0000
,  // measure 33
2200
0000
3300
0001
0001
1000
0001
0000
,  // measure 34
1020
0000
0130
0000
0001
0100
1000
0000
,  // measure 35
0100
0010
0100
0010
1000
0100
0010
0100
,  // measure 36
0020
0000
0031
0000
0001
0010
0200
0000
,  // measure 37
1300
0001
1000
0010
0100
0001
0001
0000
,  // measure 38
2010
0000
0000
3002
0000
0000
0013
0001
,  // measure 39
0200
0000
0000
0310
0010
0100
0001
0000
,  // measure 40
0020
0000
0000
0230
0000
0000
0300
0000
,  // measure 41
2000
0000
0000
3002
0000
0103
0001
1000
,  // measure 42
1010
0101
0011
1100
,  // measure 43
2002
0000
3003
1000
0100
0001
0020
0000
,  // measure 44
2030
3001
1000
0100
,  // measure 45
1100
0000
0101
0000
1000
0001
0100
0000
,  // measure 46
0001
0100
1000
0000
0100
0001
1000
0000
,  // measure 47
0001
0010
1000
0000
0010
0001
0100
0000
,  // measure 48
0010
0100
0010
0000
0100
1000
0100
0000
,  // measure 49
1000
0100
0001
0000
0100
0001
1000
0001
,  // measure 50
0200
0000
0310
0010
2000
0000
3100
0100
,  // measure 51
0020
0000
0030
0001
0010
0100
2000
0000
,  // measure 52
3002
0100
0100
0103
,  // measure 53
2000
0000
0100
0000
3100
0010
0010
0001
,  // measure 54
0011
0110
0011
0110
,  // measure 55
0000
1000
0001
1000
0100
0000
1001
0000
,  // measure 56
1100
0100
0010
0001
0010
0100
0100
0100
,  // measure 57
0100
0010
0001
0100
0100
0010
2000
0000
,  // measure 58
3001
0100
0010
0100
0001
0010
0100
0010
,  // measure 59
0001
1000
0100
0010
0001
0100
0100
0010
,  // measure 60
0010
1000
0001
1000
1000
0100
1000
0001
,  // measure 61
0001
0100
0001
0010
0010
0010
0020
0000
,  // measure 62
0230
0000
1300
0001
1000
0100
0010
0000
,  // measure 63
0011
0000
1100
0000
0001
1000
0010
0000
,  // measure 64
0101
0100
1000
0100
0010
1000
1000
1000
,  // measure 65
1000
0100
1000
0010
0010
0100
0200
0000
,  // measure 66
0301
0100
0010
1000
0001
1000
0100
0010
,  // measure 67
0001
0100
1000
0100
0010
1000
1000
1000
,  // measure 68
1000
0100
0010
0010
0010
0001
0100
0100
,  // measure 69
0100
0001
1000
0010
0010
0100
0002
0000
,  // measure 70
2003
0000
3010
1000
0100
1000
0001
0000
,  // measure 71
0101
0000
1010
0000
0001
0010
0100
1000
,  // measure 72
0101
1001
0101
2001
,  // measure 73
3100
0000
0000
0000
;

//---------------dance-double - ----------------
#NOTES:
     dance-double:
     :
     Challenge:
     7:
     0.464908,0.444241,0.272992,0.352017,0.000000,453.000000,415.000000,38.000000,49.000000,0.000000,0.000000,0.464908,0.444241,0.272992,0.352017,0.000000,453.000000,415.000000,38.000000,49.000000,0.000000,0.000000:
00000000
00000000
00000000
00000000
,
00000000
00000000
00000000
00000000
,
00000000
00000000
00000000
00000000
,
00000000
00000000
00000000
00000000
,
00202000
00000000
00000000
00303000
00000000
00001000
00010000
00001000
,
00010000
00000000
00000000
00001000
00010000
00000100
00010000
00000000
,
00010100
00000000
00000000
00001010
00000000
00000000
00000001
00000000
,
00001000
00000001
00000100
00000000
00000001
00001000
00000100
00000000
,
00001001
00000001
00001000
00000001
00000100
00000100
00000001
00001000
,
00000010
00000010
00001000
00000001
00001000
00000100
00020000
00000000
,
00032000
00100000
00100000
00103000
,
00001000
00100000
00010000
00000000
10000000
00100000
01000000
00000000
,
10010000
00000000
11000000
00000000
01010000
00000000
10000000
00010000
,
02000000
00000000
03100000
01000000
00010000
10000000
00020000
00000000
,
00230000
01000000
01000000
01300000
,
00100000
00010000
10000000
00000000
00100000
10000000
00010000
10000000
,
01000000
01000000
00010000
00010000
00001000
00001000
00000100
00000100
,
00000001
00001000
00000001
00000010
00000010
00000100
00002000
00000000
,
00003001
00000001
00000010
00000010
00001000
00001000
00010000
00010000
,
00200000
10000000
00010000
01300000
,
10010000
11000000
01010000
10010000
,
00000000
10000000
01000000
00010000
00001000
00000000
00011000
00000000
,
00000100
00001000
00000010
00000100
00000001
00000010
00000100
00001000
,
00000010
00000100
00001000
00000100
00000001
00001000
00000200
00000000
,
00000310
00000001
00001000
00000010
00000100
00001000
00000100
00000010
,
00001000
00000100
00010000
00001000
00010000
00010000
00001000
00000000
,
00101000
00100000
00010000
00000000
10000000
00010000
01000000
00000000
,
00010000
10000000
00010000
10000000
00100000
00100000
02000000
00000000
,
03100000
10000000
00100000
10000000
01000000
00100000
00010000
00000000
,
01000000
00010000
10000000
00000000
10100000
00000000
01010000
00000000
,
10000000
01000000
00010000
00001000
00010000
00010000
02000000
00000000
,
03100000
00010000
02000000
00000000
03100000
00010000
00002000
00000000
,
00003010
00000001
00000100
00001000
00000100
00000100
00000010
00001000
,
00000100
00000010
00000100
00000010
00000001
00000100
00000010
00000000
,
00000101
00000100
00001000
00000100
00000010
00001000
00000001
00000000
,
00001100
00000100
00000001
00000100
00001000
00000001
00002000
00000000
,
00003010
00000100
00002000
00000000
00013000
00100000
20000000
00000000
,
31000000
10000000
00100000
01000000
00010000
00100000
01000000
00000000
,
10020000
00000000
00000000
00230000
00000000
00000000
01300000
10000000
,
00200000
00000000
00000000
01300000
00010000
10000000
00010000
00000000
,
21000000
00000000
00000000
30020000
00000000
00000000
00000000
00000000
,
01030000
00000000
00100000
00010000
00001000
00000000
00011000
00000000
,
00002100
00003001
00000102
00001003
,
00002010
00000000
00003001
00000010
00000100
00001000
00000020
00000000
,
00000230
00000001
00000010
00001000
,
00000310
00001000
00000001
00000000
00001000
00000100
00000010
00000000
,
00000012
00000023
00000230
00002300
,
00023000
00230000
02300000
23000000
,
30020000
00000000
01000000
00000000
10030000
00010000
10000000
00000000
,
20000000
00000000
01000000
00000000
30010000
10000000
00010000
00000000
,
11000000
01100000
00110000
00011000
,
00001100
00000000
00000110
00000000
00000001
00001000
00000002
00000000
,
00000103
00000010
00000200
00000000
00000310
00001000
00000020
00000000
,
00001030
00000100
00020000
00000000
00031000
00000000
00011000
00000000
,
00201000
00310000
00102000
00013000
,
00000000
00000100
00001000
00000010
00000100
00000000
00001001
00000000
,
00000001
00000100
00000010
00000100
00001000
00000100
00000010
00001000
,
00000100
00000010
00000001
00000010
00000010
00000100
00000200
00000000
,
00001300
00000001
00001000
00000100
00010000
00001000
00100000
00001000
,
01000000
00010000
10000000
00100000
01000000
00100000
00100000
00100000
,
00100000
01000000
00010000
00100000
00100000
01000000
10000000
00100000
,
00100000
01000000
00010000
10000000
10000000
00010000
00020000
00000000
,
01030000
00010000
10000000
00010000
01000000
00100000
10000000
01000000
,
00100000
00010000
01000000
00100000
00010000
00001000
00002000
00000000
,
00013000
00000100
00010000
00000100
00010000
00000010
00001000
00000001
,
00000100
00000010
00000100
00000001
00000001
00001000
00001000
00000001
,
00000010
00000100
00000010
00000001
00000100
00000010
00000100
00001000
,
00000100
00000001
00000010
00000100
00001000
00000100
00000100
00010000
,
00010000
00001000
00100000
00010000
00010000
10000000
00100000
01000000
,
01000000
00010000
00100000
00001000
00001000
00001000
00002000
00000000
,
00023000
00100000
00001000
00100000
,
00032000
00000000
00010000
00000000
00103000
00001000
00010000
00000000
,
00010100
00001010
00000110
00010100
;

//---------------dance-single - ----------------
#NOTES:
     dance-single:
     :
     Medium:
     5:
     0.349964,0.471990,0.445409,0.186784,0.000000,341.000000,279.000000,62.000000,26.000000,0.000000,0.000000,0.349964,0.471990,0.445409,0.186784,0.000000,341.000000,279.000000,62.000000,26.000000,0.000000,0.000000:
0000
0000
0000
0000
,
0000
0000
0000
0000
,
0000
0000
0000
0000
,
0000
0000
0000
0000
,
2002
0000
0000
0000
3003
0000
0001
0100
,
0001
0000
0000
0000
1000
0100
1000
0000
,
0020
0030
0000
0000
,
0100
0000
0000
0000
0000
0001
1000
0001
,
0100
0100
0010
0010
,
2000
0000
3000
0000
0001
0100
0001
0000
,
0202
0303
1000
1000
,
0001
0001
0010
0001
,
2200
0000
3300
0000
0001
0000
1000
0001
,
1000
0000
0000
0000
0010
1000
0010
0000
,
1000
1000
0001
0001
,
0100
0000
0001
0000
0010
0000
0001
0010
,
0001
0000
1000
0010
1000
0000
0001
1000
,
0001
0000
0000
0000
1000
0100
1000
0000
,
0002
0003
0100
0100
,
0010
0000
1000
0001
1000
0000
0001
0000
,
0101
1100
0101
1100
,
0000
0000
0000
0110
,
2001
0000
3100
0000
1000
0001
1000
0000
,
0000
0000
1001
0000
1000
0001
0100
0000
,
0010
0000
0010
0000
0100
0001
0100
0000
,
0001
0010
0100
1000
,
0010
0000
0010
0000
1000
0001
1000
0000
,
0000
0000
0001
0000
1000
0100
1000
0000
,
0001
0000
0100
0000
0010
0010
0010
0000
,
0100
0001
1000
1001
,
1100
0000
0101
0000
0010
0001
0100
0000
,
0010
0010
0010
0000
0100
0100
0100
0000
,
0002
0000
0003
0000
1000
0100
1000
0000
,
0001
0010
0100
1000
,
0020
0000
0030
0000
0100
0010
0100
0000
,
0020
0000
0030
0000
0100
0010
0100
0000
,
0001
0010
0100
1000
,
0001
0000
1000
0000
0010
0100
0100
0000
,
2002
0000
0000
0000
3003
0000
0001
0100
,
0001
0000
0000
0000
1000
0010
1000
0000
,
0100
0000
0000
0000
,
1000
0000
0001
0000
,
0100
0100
0010
0010
,
1000
0000
1000
0000
0001
1000
0001
0000
,
0001
0001
0100
0100
,
0010
0000
0010
0000
1000
0001
1000
0000
,
1100
1100
0001
0001
,
1100
0001
1100
0001
,
0101
0101
1000
1000
,
0101
1000
0101
1000
,
1001
0110
1001
1100
,
1001
0101
1001
0110
,
1001
1010
0011
0101
,
1100
1001
0110
1001
,
1100
1100
0101
0101
,
0000
0000
0000
1001
,
1020
0000
0130
0000
0001
0000
0100
0010
,
0100
0000
0001
0000
0010
0100
0010
0000
,
2002
3003
0001
1000
,
0010
1000
0010
0000
0100
0000
0001
0010
,
0001
0000
1000
0010
1000
0000
0001
0100
,
0001
0000
0000
0000
1000
0001
1000
0000
,
2002
3003
0001
1000
,
0010
0010
0010
0000
0100
0000
0100
0000
,
1001
1100
0110
0011
,
0101
0000
0110
0000
0001
1000
0001
0000
,
2200
3300
0001
0001
,
1000
0000
0010
0100
0010
0000
1000
0000
,
1010
1010
0101
0101
,
2002
0000
3003
0000
0001
1000
0001
0000
,
2000
3100
0100
0010
,
0002
0103
0100
0010
,
0110
1001
1001
0110
,
0001
0000
0000
0000
;

//---------------dance-single - ----------------
#NOTES:
     dance-single:
     :
     Easy:
     3:
     0.210389,0.314660,0.100576,0.122128,0.000000,205.000000,191.000000,14.000000,17.000000,0.000000,0.000000,0.210389,0.314660,0.100576,0.122128,0.000000,205.000000,191.000000,14.000000,17.000000,0.000000,0.000000:
0000
0000
0000
0000
,
0000
0000
0000
0000
,
0000
0000
0000
0000
,
0000
0000
0000
0000
,
2002
0000
3003
1000
,
1000
0000
0001
0001
,
0200
0300
0000
0000
,
0010
0000
0000
0000
,
1000
1000
0100
0100
,
0010
0010
0001
0001
,
2002
3003
0000
0000
,
0001
0000
0100
0000
,
2002
0000
3003
0001
,
0001
0000
0100
0100
,
0100
0000
0010
0000
,
1000
0000
0100
0000
,
1000
1000
0010
0010
,
0100
0100
0001
0001
,
2002
0000
3003
0000
,
1000
0000
0001
0000
,
0100
0100
0100
0100
,
0000
0000
0000
1001
,
0010
1000
0100
0000
,
0010
0001
0100
0000
,
0001
0010
0001
0000
,
1000
0010
1000
0000
,
1001
0000
1000
0100
,
0000
1000
0001
0100
,
0100
0000
0001
0000
,
1000
0000
0000
1000
,
0001
0001
1000
1000
,
0010
0100
0001
0000
,
1000
1000
0001
0001
,
1000
0000
0100
0100
,
1000
0000
0010
0010
,
0100
0100
0001
0000
,
1000
0001
0100
0000
,
0001
0010
0100
0000
,
2002
0000
3003
0000
,
0001
0000
0100
0100
,
0020
0030
0000
0000
,
1000
0000
0000
0000
,
0100
0100
0100
0110
,
0010
0010
0010
0110
,
0001
0001
0001
1001
,
1000
1000
1000
1001
,
0020
0000
0000
0000
0030
0000
0100
0100
,
0100
0000
0001
1000
,
0100
0000
0000
0000
,
0010
0000
0010
0000
,
0001
0001
1000
1000
,
0010
0000
0000
0000
0100
0100
0100
0000
,
0100
0000
0000
0000
,
0001
0000
1000
0000
,
0010
0010
0100
0100
,
0000
0000
0000
0110
,
2002
3003
0001
1000
,
0010
0000
0000
0000
0100
0100
0100
0000
,
0100
0000
0001
0000
,
1000
1000
0010
0000
,
1000
1000
0100
0100
,
0010
0000
0000
0000
0001
0001
0001
0000
,
0001
0000
0100
0000
,
0001
1000
0001
0000
,
2002
0000
3003
0000
0000
0000
0100
0100
,
0100
0000
0000
0000
0100
0100
0100
0000
,
0100
0000
0000
0000
,
1000
0001
1000
0000
,
0010
0010
0100
0100
,
0001
0000
0000
0000
1000
1000
1000
0000
,
1000
0000
0000
0000
,
0001
1000
0010
0000
,
0100
0100
0010
0010
,
0100
0000
0000
0000
;

//---------------dance-single - ----------------
#NOTES:
     dance-single:
     :
     Beginner:
     2:
     0.122128,0.182923,0.035920,0.000000,0.000000,119.000000,114.000000,5.000000,0.000000,0.000000,0.000000,0.122128,0.182923,0.035920,0.000000,0.000000,119.000000,114.000000,5.000000,0.000000,0.000000,0.000000:
0000
0000
0000
0000
,
0000
0000
0000
0000
,
0000
0000
0000
0000
,
0000
0000
0000
0000
,
0010
0000
0000
0000
,
0100
0000
0100
0000
,
0100
0000
0000
0000
,
0001
0000
0000
1000
,
1000
0000
1000
0000
,
1000
0000
0000
0001
,
0001
0000
0000
0000
,
1000
0000
0000
0000
,
0010
0000
0000
0010
,
0010
0000
0000
0010
,
0010
0000
0000
0000
,
1000
0000
0000
0100
,
0100
0000
0100
0000
,
0100
0000
0000
0010
,
0010
0000
0000
0000
,
0001
0000
0000
0000
,
1000
1000
1000
1000
,
0000
0000
0000
0000
,
1001
0000
0000
0000
,
0010
0010
0000
0010
,
0010
0000
0000
0000
,
0100
0000
0100
0000
,
0100
0000
0001
0001
,
0000
0000
0001
0001
,
0000
0000
0000
0000
,
1000
0000
0000
0000
,
1001
0000
1000
0000
,
1000
0000
0000
0010
,
0010
0000
0000
0000
,
0100
0000
0100
0000
,
0100
0100
0000
0000
,
0001
0001
0000
0000
,
1000
1000
0000
0000
,
0010
0000
0010
0000
,
1001
0000
0000
0000
,
0001
0000
0001
0000
,
0001
0000
0000
0000
,
0100
0000
0000
0000
,
0010
0000
0010
0000
,
0010
0000
0000
0010
,
0010
0000
0000
0000
,
1000
0000
0000
0000
,
1001
0000
0000
1000
,
1000
0000
0000
0001
,
0001
0000
0000
0000
,
0100
0000
0000
0000
,
0010
0010
0000
0010
,
0010
0000
0000
0000
,
0010
0000
0000
0000
,
1000
0000
0000
0000
,
0100
0100
0100
0100
,
0000
0000
0000
0000
,
1001
0000
0000
0010
,
0010
0000
0000
0010
,
0010
0000
0000
0000
,
1000
0000
0000
0000
,
0100
0000
0100
0000
,
0100
0000
0000
0000
,
0010
0000
0000
0000
,
0001
0000
0000
0000
,
1000
0000
1000
1000
,
1000
0000
1000
1000
,
1000
0000
0000
0000
,
0010
0000
0000
0100
,
0100
0000
0100
0000
,
0100
0000
0000
0001
,
0001
0000
0000
0000
,
1000
0000
0000
0000
,
0010
0010
0010
0010
;
