#VERSION:0.82;
#TITLE:Ship To Wreck;
#SUBTITLE:;
#ARTIST:Florence & The Machine;
#TITLETRANSLIT:;
#SUBTITLETRANSLIT:;
#ARTISTTRANSLIT:;
#GENRE:Queen Of Peace;
#ORIGIN:;
#CREDIT:;
#BANNER:Ship To Wreck.png;
#BACKGROUND:Ship To Wreck-bg.png;
#PREVIEWVID:;
#JACKET:jacket.png;
#CDIMAGE:;
#DISCIMAGE:;
#LYRICSPATH:;
#CDTITLE:;
#MUSIC:Ship To Wreck.ogg;
#OFFSET:-0.293000;
#SAMPLESTART:67.520836;
#SAMPLELENGTH:13.714000;
#SELECTABLE:YES;
#BPMS:0.000=142.000,
255.000=132.500,
256.000=142.000;
#DISPLAYBPM:142;
#STOPS:;
#DELAYS:;
#WARPS:;
#TIMESIGNATURES:0.000=4=4;
#TICKCOUNTS:0.000=4;
#COMBOS:0.000=1;
#SPEEDS:0.000=1.000=0.000=0;
#SCROLLS:0.000=1.000;
#FAKES:;
#LABELS:0.000=Song Start;
#BGCHANGES:4.000=Ship To Wreck.avi=1.000=0=0=1=====,
99999=-nosongbg-=1.000=0=0=0 // don't automatically add -songbackground-
;
#KEYSOUNDS:;
#ATTACKS:
;

//---------------dance-single - ----------------
#NOTEDATA:;
#CHARTNAME:;
#STEPSTYPE:dance-single;
#DESCRIPTION:;
#CHARTSTYLE:;
#DIFFICULTY:Hard;
#METER:8;
#RADARVALUES:0.548167,0.518504,0.245232,0.201956,0.018032,470.000000,34.000000,28.000000,0.000000,0.000000,0.000000,0.000000,0.000000,0.548167,0.518504,0.245232,0.201956,0.018032,470.000000,34.000000,28.000000,0.000000,0.000000,0.000000,0.000000,0.000000;
#CREDIT:Ben Speirs;
#NOTES:
0000
0000
0000
0000
,
0000
0000
0000
0000
,
0000
0000
0000
0000
,
0000
0000
0000
0000
,
0102
0000
1003
1000
0001
0100
0010
2000
,
0000
0000
3001
0001
1000
0010
0100
0002
,
0000
0000
0103
0100
0010
0100
0001
2000
,
0000
0000
3001
1000
0100
0010
0001
0000
,
2100
0000
3001
0000
1000
0010
1000
0001
,
0000
1010
1000
0100
0010
0001
2000
0000
,
3001
0000
0100
0000
0010
1000
0100
0000
,
0010
0001
0100
0000
0010
0000
1000
0000
,
0012
0000
1003
0000
0001
0100
0001
1000
,
0000
0101
0001
0010
0100
1000
0002
0000
,
1003
0000
0010
0100
0001
0000
0010
0100
,
1000
0000
0001
1000
0100
0010
0001
0000
,
0101
0000
1010
0000
0001
0010
0100
2000
,
0000
3002
0000
0103
0010
1000
0001
0000
,
0100
0010
1000
0000
0010
0100
0010
0100
,
0002
0000
1003
0000
0100
0010
0001
0000
,
1010
0000
0101
0000
1000
0100
0010
0002
,
0000
2003
0000
3010
0100
0001
1000
0000
,
0010
0100
0001
0000
0100
0010
0100
0010
,
2000
0000
3001
0000
0010
0100
1000
0000
,
0001
0100
0010
0100
1000
0100
0010
0100
,
0001
1000
0100
0010
0001
1000
0001
0000
,
0100
0000
0010
0000
1000
0000
0001
0000
1000
0100
0000
0000
1000
0000
0002
0000
,
0000
0103
0010
2000
0000
3100
0010
0001
,
1000
0010
0100
0001
1000
0100
0010
0001
,
1000
0010
1000
0010
0100
0001
1000
0000
,
0001
0010
0100
2000
0000
3002
0000
0103
,
0010
1000
0002
0000
0100
0000
1003
0000
,
1000
0010
0100
0010
0001
0010
0100
0010
,
1000
0001
0010
0100
1000
0001
1000
0000
,
0010
0000
0100
0000
0001
0000
1000
0000
0001
0010
0000
0000
0001
0000
2000
0000
,
0000
3010
0100
0002
0000
0013
0100
1000
,
0001
1000
0100
1000
0010
0100
0100
0001
,
1000
0001
0100
0001
0010
0100
0100
0010
,
0001
1000
0010
0001
1000
0100
0001
2000
,
0000
0000
0000
3100
,
0101
0100
0010
1000
0100
0010
0001
1000
,
0010
0100
0001
0010
0100
1000
0001
0000
,
0100
0100
0010
1000
0100
0010
0001
1000
,
0010
1000
0001
0010
0100
1000
0001
0000
,
0100
0100
0001
1000
0100
0010
0001
1000
,
0010
1000
0001
0010
0100
1000
0001
0101
,
0000
1010
0000
1100
0000
0011
0000
1000
,
0100
0000
0010
0000
0001
0000
0000
0000
1000
0000
0010
0000
0100
0000
0001
1000
,
0001
0000
1100
0000
0001
0010
1000
0010
,
0001
1000
0001
0000
1000
0010
0001
0010
,
1000
0001
1000
0000
0001
0010
1000
0010
,
0001
0000
1000
0000
0001
0000
0000
0000
0001
0000
0100
0000
0010
0000
1000
0001
,
1000
0000
0011
0000
1000
0100
0001
0100
,
1000
0001
1000
0000
0001
0100
1000
0100
,
0001
1000
0001
0000
1000
0100
0001
0100
,
1000
0001
1000
0000
0001
0010
0100
1000
,
0010
0000
0102
0000
1003
0100
0010
0001
,
1000
0010
0100
0001
0010
0100
1000
0000
,
2010
0000
3001
0000
0100
0010
1000
0100
,
0010
0001
1000
0010
0100
0001
0010
0000
,
2100
0000
3001
0000
1000
0010
0100
0001
,
1000
0010
1000
0001
0010
0100
1000
0001
,
0100
2010
0001
3100
,
1002
0000
0103
0000
1000
0001
1000
0000
,
0000
0010
0000
0100
,
0000
0001
0000
1000
,
0000
0100
0000
0010
,
0000
0001
0000
1000
,
1010
1001
1100
1001
,
0101
1001
0011
1001
,
1000
0010
0001
0010
1000
0100
0001
0200
,
0000
0000
0000
1300
,
1010
0010
0100
0001
0010
0100
1000
0001
,
0100
0010
1000
0100
0010
0001
1000
0000
,
0010
0010
0100
0001
0010
0100
1000
0001
,
0100
0001
1000
0100
0010
0001
1000
0000
,
0010
0010
1000
0001
0010
0100
1000
0001
,
0100
0001
1000
0100
0010
0001
1000
1010
,
0000
0101
0000
0011
0000
1100
0000
0001
,
0010
0000
0100
0000
1000
0000
0000
0010
0100
0000
0100
0000
0001
0000
1000
0000
;

//---------------dance-double - ----------------
#NOTEDATA:;
#CHARTNAME:;
#STEPSTYPE:dance-double;
#DESCRIPTION:;
#CHARTSTYLE:;
#DIFFICULTY:Challenge;
#METER:8;
#RADARVALUES:0.556410,0.547310,0.201956,0.310147,0.007213,469.000000,28.000000,43.000000,0.000000,0.000000,0.000000,0.000000,0.000000,0.556410,0.547310,0.201956,0.310147,0.007213,469.000000,28.000000,43.000000,0.000000,0.000000,0.000000,0.000000,0.000000;
#CREDIT:Ben Speirs;
#NOTES:
00000000
00000000
00000000
00000000
,
00000000
00000000
00000000
00000000
,
00000000
00000000
00000000
00000000
,
00000000
00000000
00000000
00000000
,
00002100
00000000
00000000
00003001
00000001
00000100
00000010
00001000
,
00000002
00000000
00000000
00001003
00001000
00000010
00000100
00000001
,
00000020
00000000
00000000
00000130
00000100
00000010
00000001
00001000
,
00000200
00000000
00000000
00000000
00010300
00000000
00000000
00000000
00000100
00010000
00000100
00010000
00000100
00000000
00000000
00000000
,
00010100
00000000
00011000
00000000
00001000
00010000
01000000
20000000
,
00000000
30020000
00000000
01030000
00100000
10000000
10010000
00000000
,
00020000
00000000
01030000
00000000
00100000
10000000
02000000
00000000
,
03100000
00010000
20000000
00000000
30100000
00000000
01000000
00000000
,
00010000
10000000
01000000
00000000
10000000
00100000
01000000
00020000
,
00000000
00230000
00000000
00310000
01000000
00001000
00010000
00000000
,
00002000
00000000
00103000
00001000
00020000
00000000
00031000
00010000
,
00000020
00000000
00001030
00000000
00000100
00000100
00010000
00001000
,
00101000
00000000
00011000
00000000
00010000
00001000
00000010
00000002
,
00000000
00002003
00000000
00003010
00000100
00000001
00001001
00000000
,
00002000
00000000
00003010
00000000
00000100
00000001
00000020
00000000
,
00000130
00001000
00000002
00000000
00000103
00000000
00000010
00000000
,
00001000
00000001
00000010
00000000
00000001
00000100
00000010
00002000
,
00000000
00003200
00000000
00001300
00000010
00010000
00001000
00000000
,
00020000
00000000
00030100
00010000
00002000
00000000
00013000
00001000
,
02000000
00000000
03010000
00000000
10000000
01000000
00100000
00010000
,
10000000
01000000
10000000
00100000
10000000
00010000
10000000
01000000
,
01000000
00100000
00010000
10000000
00010000
10000000
00100000
00000000
,
02000000
00000000
03010000
10000000
00020000
00000000
01030000
00100000
,
00020000
00001000
00031000
00011000
,
00001000
00010000
01000000
00010000
00001000
00001000
00010000
00001000
,
00020000
00000000
00030100
00001000
00000010
00000100
00000001
00000000
,
00002000
00000000
00003100
00000010
00000002
00000000
00000103
00000010
,
00002000
00000100
00000010
00003001
,
00000001
00000010
00000001
00000100
00000001
00001000
00000001
00000010
,
00000010
00000100
00001000
00000001
00001000
00000001
00000100
00000000
,
00000020
00000000
00001030
00000001
00002000
00000000
00003010
00000100
,
00002000
00010000
00013000
00011000
,
00010000
00001000
00000010
00001000
00010000
00010000
00001000
00010000
,
00100000
10000000
01000000
00100000
00010000
00010000
10000000
10000000
,
00010000
00100000
10000000
00100000
00010000
01000000
10000000
02000000
,
00000000
00000000
00000000
03010000
,
20100000
00000000
30100000
00100000
01000000
00010000
10000000
01000000
,
00100000
00010000
10000000
00100000
10000000
00010000
01000000
00000000
,
20010000
00000000
30010000
00010000
00100000
00010000
01000000
00100000
,
10000000
01000000
00100000
00010000
00100000
00001000
00010000
00000000
,
00012000
00000000
00013000
00010000
00001000
00100000
00010000
01000000
,
00100000
10000000
01000000
00100000
00010000
01000000
00010000
10010000
,
00000000
01010000
00000000
00011000
00000000
00001100
00000000
00001000
,
00000100
00000010
00000001
00000000
00000100
00000010
00001000
00000100
,
00001100
00000000
00011000
00000000
00000100
00001000
00010000
00001000
,
00000100
00010000
00000100
00000000
00000100
00001000
00010000
00001000
,
00000100
00010000
00000100
00000000
00000100
00001000
00010000
00001000
,
00000100
00010000
00000100
00000000
00010000
00001000
00100000
00010000
,
00110000
00000000
00011000
00000000
00100000
00010000
00001000
00010000
,
00100000
00001000
00100000
00000000
00100000
00010000
00001000
00010000
,
00100000
00001000
00100000
00000000
00100000
00010000
00001000
00010000
,
00100000
00001000
00100000
00000000
00001000
00010000
00001000
00010000
,
00000100
00001000
00000010
00000100
00000001
00000010
00000100
00001000
,
00000010
00000100
00000010
00001000
00000100
00000010
00000002
00000000
,
00000103
00000010
00001000
00000100
00010000
00010000
00001000
00010000
,
00001000
01000000
00010000
10000000
00100000
00100000
02000000
00000000
,
03010000
10000000
01000000
00100000
00010000
01000000
10000000
01000000
,
00010000
00100000
01000000
10000000
00100000
01000000
00010000
10000000
,
01000000
01000000
00100000
00100000
00010000
10000000
00100000
01000000
,
00010000
00010000
10000000
10000000
01000000
00100000
00010000
00000000
,
00000000
01000000
00000000
01000000
,
00000000
00001000
00000000
00001000
,
00000000
00010000
00000000
00010000
,
00000000
00000100
00000000
00000100
,
00001000
00000001
00001000
00000001
00001000
00000001
00001000
00000001
,
00010000
00000001
00010000
00000001
00010000
00000001
00010000
00000001
,
00010000
00001000
00010000
00001000
00010000
00001000
00010000
00101000
,
00000000
00000000
00000000
00000000
,
00000102
00000000
00000103
00000100
00000010
00001000
00000001
00000010
,
00000100
00001000
00000001
00000100
00000001
00001000
00000010
00000000
,
00001002
00000000
00001003
00001000
00000100
00001000
00000010
00000100
,
00000001
00000010
00000100
00001000
00000100
00010000
00001000
00000000
,
00021000
00000000
00031000
00001000
00010000
00000100
00001000
00000010
,
00000100
00000001
00000010
00000100
00001000
00000010
00001000
00001001
,
00000000
00001010
00000000
00011000
00000000
00110000
00000000
00010000
,
00100000
01000000
10000000
00000000
00100000
01000000
00010000
10000000
;

//---------------dance-single - ----------------
#NOTEDATA:;
#CHARTNAME:;
#STEPSTYPE:dance-single;
#DESCRIPTION:;
#CHARTSTYLE:;
#DIFFICULTY:Medium;
#METER:6;
#RADARVALUES:0.361666,0.460893,0.187531,0.238020,0.000000,292.000000,26.000000,33.000000,0.000000,0.000000,0.000000,0.000000,0.000000,0.361666,0.460893,0.187531,0.238020,0.000000,292.000000,26.000000,33.000000,0.000000,0.000000,0.000000,0.000000,0.000000;
#CREDIT:Ben Speirs;
#NOTES:
0000
0000
0000
0000
,
0000
0000
0000
0000
,
0000
0000
0000
0000
,
0000
0000
0000
0000
,
2000
0000
3001
0000
0100
0010
1000
0000
,
0002
0000
1003
0000
0100
0010
0001
0000
,
0200
0320
2030
3002
,
0203
0000
0300
0000
0001
1000
0001
0000
,
1000
0000
0000
0000
0001
0010
0001
0000
,
1000
0010
0100
0100
,
0001
0000
0000
0000
1000
0100
1000
0000
,
0001
1000
0010
0010
,
0100
0000
0000
0000
0001
1000
0001
0000
,
0010
0001
1000
1000
,
0100
0000
1000
0001
,
0100
0000
0010
1000
,
0002
0000
0003
0000
0100
0001
0100
0000
,
0010
1000
0001
0001
,
2000
0000
3000
0000
0100
1000
0100
0000
,
1000
1000
0001
0100
,
0020
0000
0030
0000
1000
0001
1000
0000
,
0100
1000
0001
0001
,
0200
0000
0300
0000
0001
1000
0001
0000
,
0020
0030
0001
0000
,
2000
0100
0100
3100
,
1000
0100
0010
0001
,
1000
0000
0010
0000
0100
0010
0100
0000
,
0010
1000
0001
0000
,
1000
1000
0001
0001
,
1000
0100
0010
0000
0001
0100
0010
0000
,
1000
0010
0100
0001
,
1000
0000
0100
0000
,
0002
0100
0100
0103
,
0001
0100
0010
0010
,
1000
0000
0000
0000
0100
0010
0001
0000
,
1000
0001
0100
0000
,
0101
0101
0101
0010
,
1100
1100
1100
0010
,
1000
0100
1000
0100
0010
0001
0010
0001
,
0000
0000
0000
0000
,
0202
0000
0303
0000
0001
0100
0010
2000
,
0000
0000
3001
1000
,
2020
0000
3030
0000
1000
0010
0100
0002
,
0000
0000
1003
0001
,
0220
0000
0330
0000
0001
0010
0100
2000
,
0000
0000
3001
1000
,
1010
0101
0011
1100
,
0001
1000
0001
0000
0100
0000
0010
0000
,
2000
0000
3000
0000
0100
0000
0010
0001
,
0000
1000
0000
0000
0100
0000
0010
0001
,
0000
1000
0000
0000
0100
0000
0010
0001
,
0000
1000
0000
0000
0010
1000
0001
0000
,
0100
0000
0000
0000
0001
0000
1000
0010
,
0000
0100
0000
0000
0001
0000
1000
0010
,
0000
0100
0000
0000
0001
0000
1000
0010
,
0000
0100
0000
0000
0001
0000
1000
0000
,
1100
0011
1000
0001
,
0100
0100
0010
1000
,
1010
0101
1000
0001
,
0010
0010
0001
0000
,
0011
1100
0001
1000
,
0010
0010
0100
0100
,
0010
1000
0010
0000
0100
0001
0100
0000
,
0001
1000
0001
0000
1000
0100
0010
0000
,
0000
0001
0000
1000
,
0000
0010
0000
0100
,
0000
0001
0000
1000
,
0000
0100
0000
1000
,
0010
0100
0010
0100
,
0001
1000
0001
1000
,
0001
0010
0001
0010
0100
1000
0100
1000
,
0000
0000
0000
0000
,
2020
0000
3030
0000
1000
0010
0100
0002
,
0000
0000
1003
0001
,
0202
0000
0303
0000
0001
0100
0010
2000
,
0000
0000
3001
1000
,
0220
0000
0330
0000
1000
0100
0010
0002
,
0000
0000
1003
0001
,
0101
1010
1100
0011
,
1000
0001
1000
0000
0010
0000
0100
0100
;

//---------------dance-single - ----------------
#NOTEDATA:;
#CHARTNAME:;
#STEPSTYPE:dance-single;
#DESCRIPTION:;
#CHARTSTYLE:;
#DIFFICULTY:Easy;
#METER:3;
#RADARVALUES:0.210199,0.316368,0.057702,0.129829,0.000000,178.000000,8.000000,18.000000,0.000000,0.000000,0.000000,0.000000,0.000000,0.210199,0.316368,0.057702,0.129829,0.000000,178.000000,8.000000,18.000000,0.000000,0.000000,0.000000,0.000000,0.000000;
#CREDIT:Ben Speirs;
#NOTES:
// measure 0
0000
0000
0000
0000
,  // measure 1
0000
0000
0000
0000
,  // measure 2
0000
0000
0000
0000
,  // measure 3
0000
0000
0000
0000
,  // measure 4
0200
0300
0100
0010
,  // measure 5
2000
3000
1000
0100
,  // measure 6
0020
0030
0010
0001
,  // measure 7
2000
3000
1000
0000
,  // measure 8
1001
0000
0100
0000
,  // measure 9
1000
0100
0010
0000
,  // measure 10
0001
0000
0100
0100
,  // measure 11
0010
0000
1000
0000
,  // measure 12
0001
0000
0010
0001
,  // measure 13
0100
0000
0010
0000
,  // measure 14
1000
0000
0100
0100
,  // measure 15
0010
0000
0001
0000
,  // measure 16
1001
0000
1000
0001
,  // measure 17
0100
0000
0010
0000
,  // measure 18
1000
0000
0100
0100
,  // measure 19
0010
0000
0001
0000
,  // measure 20
1000
0000
0001
1000
,  // measure 21
0010
0000
0100
0000
,  // measure 22
0001
0000
0010
0010
,  // measure 23
0100
0000
1000
0000
,  // measure 24
0002
0000
0000
0003
,  // measure 25
0001
0100
0010
0000
,  // measure 26
0100
0000
0001
0000
,  // measure 27
1000
0000
0000
0000
,  // measure 28
0100
1000
0100
0000
,  // measure 29
1000
0001
1000
0000
,  // measure 30
0010
0000
0100
0000
,  // measure 31
0001
0000
0000
0000
,  // measure 32
2000
0000
0000
3000
,  // measure 33
1000
0010
0100
0000
,  // measure 34
0001
0000
1000
0000
,  // measure 35
0100
0000
0000
0000
,  // measure 36
1000
0100
1000
0000
,  // measure 37
0001
0100
0001
0000
,  // measure 38
1000
0100
0010
0001
,  // measure 39
0000
0000
0000
0000
,  // measure 40
2002
0000
0000
3003
,  // measure 41
0010
0100
0001
0000
,  // measure 42
2002
0000
0000
3003
,  // measure 43
0010
0100
1000
0000
,  // measure 44
2002
0000
0000
3003
,  // measure 45
1000
0001
0100
0000
,  // measure 46
0010
1000
0010
1000
,  // measure 47
0001
0000
1000
0000
,  // measure 48
0100
0000
0010
0000
,  // measure 49
0001
0001
1000
0000
,  // measure 50
0010
0010
0100
0000
,  // measure 51
0001
0001
1000
0000
,  // measure 52
0100
0000
0010
0000
,  // measure 53
0001
0001
1000
0000
,  // measure 54
0010
0010
0100
0000
,  // measure 55
0001
0001
1000
0000
,  // measure 56
0100
0100
0000
0000
,  // measure 57
1000
0100
0010
0000
,  // measure 58
0001
0001
0000
0000
,  // measure 59
0100
0010
1000
0000
,  // measure 60
0100
0100
0000
0000
,  // measure 61
1000
0010
0100
0000
,  // measure 62
0001
0000
1000
0000
,  // measure 63
0100
0000
0010
0000
,  // measure 64
0000
0001
0000
0001
,  // measure 65
0000
1000
0000
1000
,  // measure 66
0000
0010
0000
0010
,  // measure 67
0000
0100
0000
0100
,  // measure 68
0100
0000
0001
0000
,  // measure 69
1000
0000
0010
0000
,  // measure 70
0100
0001
1000
0010
,  // measure 71
0000
0000
0000
0000
,  // measure 72
2002
0000
0000
3003
,  // measure 73
1000
0001
0100
0000
,  // measure 74
2002
0000
0000
3003
,  // measure 75
0001
1000
0100
0000
,  // measure 76
2002
0000
0000
3003
,  // measure 77
1000
0001
0010
0000
,  // measure 78
0001
1000
0010
0100
,  // measure 79
0001
0000
1000
0100
;

//---------------dance-single - ----------------
#NOTEDATA:;
#CHARTNAME:;
#STEPSTYPE:dance-single;
#DESCRIPTION:;
#CHARTSTYLE:;
#DIFFICULTY:Beginner;
#METER:2;
#RADARVALUES:0.137042,0.230086,0.036064,0.000000,0.000000,128.000000,5.000000,0.000000,0.000000,0.000000,0.000000,0.000000,0.000000,0.137042,0.230086,0.036064,0.000000,0.000000,128.000000,5.000000,0.000000,0.000000,0.000000,0.000000,0.000000,0.000000;
#CREDIT:Ben Speirs;
#NOTES:
// measure 0
0000
0000
0000
0000
,  // measure 1
0000
0000
0000
0000
,  // measure 2
0000
0000
0000
0000
,  // measure 3
0000
0000
0000
0000
,  // measure 4
0100
0000
0000
0000
,  // measure 5
0001
0000
0000
0000
,  // measure 6
1000
0000
0000
0000
,  // measure 7
0010
0000
0000
0000
,  // measure 8
1001
0000
0000
0000
,  // measure 9
1000
1000
0000
0000
,  // measure 10
0001
0000
0000
0000
,  // measure 11
0100
0100
0000
0000
,  // measure 12
0010
0000
0000
0000
,  // measure 13
1000
1000
0000
0000
,  // measure 14
0100
0000
0100
0000
,  // measure 15
0010
0000
0000
0000
,  // measure 16
0001
0000
0000
0000
,  // measure 17
0100
0100
0000
0000
,  // measure 18
0001
0000
0000
0000
,  // measure 19
1000
1000
0000
0000
,  // measure 20
0010
0000
0000
0000
,  // measure 21
0100
0100
0000
0000
,  // measure 22
0001
0000
1000
0000
,  // measure 23
0100
0000
0000
0000
,  // measure 24
1000
0000
1000
0000
,  // measure 25
0001
0000
0001
0000
,  // measure 26
0100
0000
0100
0100
,  // measure 27
0100
0000
0000
0000
,  // measure 28
0010
0000
0000
0000
,  // measure 29
1000
0000
0000
0000
,  // measure 30
0100
0000
0100
0000
,  // measure 31
0010
0000
0000
0000
,  // measure 32
0001
0000
0001
0000
,  // measure 33
1000
0000
1000
0000
,  // measure 34
0010
0000
0010
0010
,  // measure 35
0010
0000
0000
0000
,  // measure 36
1000
1000
0000
0000
,  // measure 37
0001
0001
0000
0000
,  // measure 38
0100
0100
0000
0000
,  // measure 39
0010
0000
0000
0000
,  // measure 40
1001
0000
0000
0000
,  // measure 41
0100
0000
1000
0000
,  // measure 42
0010
0000
0000
0000
,  // measure 43
0100
0000
0001
0000
,  // measure 44
0010
0000
0000
0000
,  // measure 45
0001
0000
1000
0000
,  // measure 46
0010
0010
0010
0010
,  // measure 47
0010
0000
0000
0000
,  // measure 48
1001
0000
0000
0000
,  // measure 49
0100
0100
0000
0000
,  // measure 50
0100
0100
0000
0000
,  // measure 51
0100
0100
0000
0000
,  // measure 52
1000
0000
0000
0000
,  // measure 53
0010
0010
0000
0000
,  // measure 54
0010
0010
0000
0000
,  // measure 55
0010
0010
0000
0000
,  // measure 56
0110
0000
0000
0000
,  // measure 57
1000
0000
1000
0000
,  // measure 58
0001
0000
0000
0000
,  // measure 59
0010
0000
0010
0000
,  // measure 60
0100
0000
0000
0000
,  // measure 61
1000
0000
0001
0000
,  // measure 62
0100
0000
0100
0000
,  // measure 63
0010
0000
0010
0000
,  // measure 64
0000
1000
0000
0000
,  // measure 65
0000
0001
0000
0000
,  // measure 66
0000
0100
0000
0000
,  // measure 67
0000
0010
0000
0000
,  // measure 68
1000
1000
1000
0000
,  // measure 69
0001
0001
0001
0000
,  // measure 70
0100
0100
0100
0100
,  // measure 71
0100
0000
0000
0000
,  // measure 72
1001
0000
0000
0000
,  // measure 73
0010
0000
0010
0000
,  // measure 74
1000
0000
0000
0000
,  // measure 75
0100
0000
0010
0000
,  // measure 76
0001
0000
0000
0000
,  // measure 77
0100
0000
0100
0000
,  // measure 78
0001
0001
0001
0001
,  // measure 79
0001
0000
1000
1000
;
