#VERSION:0.82;
#TITLE:Leave A Trace;
#SUBTITLE:;
#ARTIST:CHVRCHES;
#TITLETRANSLIT:;
#SUBTITLETRANSLIT:;
#ARTISTTRANSLIT:;
#GENRE:Lauren Is My Future Wife;
#ORIGIN:;
#CREDIT:;
#BANNER:Leave A Trace.png;
#BACKGROUND:Leave A Trace-bg.png;
#PREVIEWVID:;
#JACKET:jacket.png;
#CDIMAGE:;
#DISCIMAGE:;
#LYRICSPATH:;
#CDTITLE:;
#MUSIC:Leave A Trace.ogg;
#OFFSET:0.005000;
#SAMPLESTART:66.599052;
#SAMPLELENGTH:13.714000;
#SELECTABLE:YES;
#BPMS:0.000=100.000,
111.000=94.960,
112.000=100.000;
#DISPLAYBPM:100;
#STOPS:;
#DELAYS:;
#WARPS:;
#TIMESIGNATURES:0.000=4=4;
#TICKCOUNTS:0.000=4;
#COMBOS:0.000=1;
#SPEEDS:0.000=1.000=0.000=0;
#SCROLLS:0.000=1.000;
#FAKES:;
#LABELS:0.000=Song Start;
#BGCHANGES:8.000=Leave A Trace.avi=1.000=0=0=1=====,
99999=-nosongbg-=1.000=0=0=0 // don't automatically add -songbackground-
;
#KEYSOUNDS:;
#ATTACKS:
;

//---------------dance-single - ----------------
#NOTEDATA:;
#CHARTNAME:;
#STEPSTYPE:dance-single;
#DESCRIPTION:;
#CHARTSTYLE:;
#DIFFICULTY:Hard;
#METER:8;
#RADARVALUES:0.476634,0.516690,0.316171,0.033281,0.665624,359.000000,38.000000,4.000000,0.000000,0.000000,0.000000,0.000000,0.000000,0.476634,0.516690,0.316171,0.033281,0.665624,359.000000,38.000000,4.000000,0.000000,0.000000,0.000000,0.000000,0.000000;
#CREDIT:Ben Speirs;
#NOTES:
// measure 0
0000
0000
0000
0000
,  // measure 1
0000
0000
0000
0000
,  // measure 2
0000
0000
0000
0000
,  // measure 3
0000
0000
0000
0000
,  // measure 4
1000
0010
0000
0000
0100
0000
0001
1000
0000
1000
0100
0000
0010
0000
0000
0000
,  // measure 5
0001
1000
0000
0000
0010
0000
0100
0001
0000
0001
1000
0000
0100
0000
0000
0000
,  // measure 6
0010
0001
0000
1000
0000
0010
0000
0100
0000
0001
0000
1000
0000
0010
0000
1000
,  // measure 7
0000
0001
0000
0010
0000
0100
0000
1000
0000
0001
0000
1000
0100
0010
0001
1000
,  // measure 8
0010
0000
0100
0000
0001
0000
1000
0100
0000
0100
0010
0000
0001
0000
0000
0000
,  // measure 9
1000
0000
0001
0000
0100
0000
0010
1000
0000
1000
0001
0000
1000
0000
0000
0000
,  // measure 10
0010
0000
0100
0000
0001
0000
1000
0100
0000
0100
0010
0000
0001
0000
0000
1000
,  // measure 11
0010
0000
1000
0000
0001
0000
0100
0010
0000
1000
0001
0000
1001
0000
0000
0000
,  // measure 12
0001
0100
0000
0000
0010
0000
1000
0001
0000
0001
0010
0000
0100
0000
0000
0000
,  // measure 13
1000
0001
0000
0000
0100
0000
0010
1000
0000
1000
0001
0000
0010
0000
0000
0000
,  // measure 14
0100
1000
0000
0001
0000
0100
0000
0010
0000
1000
0000
0001
0000
0100
0000
0001
,  // measure 15
0000
1000
0000
0100
0000
0010
0000
0001
0000
1000
0000
0001
0010
0100
1000
0001
,  // measure 16
0100
0000
0010
0000
1000
0000
0001
0010
0000
0010
0100
0000
1000
0000
0000
0000
,  // measure 17
0001
0000
1000
0000
0010
0000
0100
0001
0000
0001
1000
0000
0001
0000
0000
0000
,  // measure 18
0100
0000
0010
0000
1000
0000
0001
0010
0000
0010
0100
0000
1000
0000
0000
0001
,  // measure 19
0100
0000
0001
0000
1000
0000
0010
0100
0000
0001
1000
0000
1001
0000
0000
0000
,  // measure 20
0010
0000
0100
0000
0001
0000
1000
0000
0100
0000
0010
0000
0001
0010
0100
1000
,  // measure 21
0010
0000
1000
0000
0100
0000
0010
0000
0001
0000
1000
0000
1010
1000
0000
0001
,  // measure 22
0000
0000
0000
0000
0101
0100
0000
0010
0000
0000
0000
0000
1010
1000
0000
0001
,  // measure 23
0000
0000
0000
0000
1001
0001
0000
0010
0000
0000
0000
0000
0011
0010
0000
0001
,  // measure 24
0100
0000
0010
0000
1000
0000
0001
0000
0010
0000
0100
0000
1000
0100
0010
0001
,  // measure 25
0100
0000
0001
0000
0010
0000
0100
0000
1000
0000
0001
0000
0101
0001
0000
1000
,  // measure 26
0000
0000
0000
0000
1010
0010
0000
0100
0000
0000
0000
0000
0101
0001
0000
1000
,  // measure 27
0000
0000
0000
0000
1001
1000
0000
0100
0000
0000
0000
0000
1100
0000
0000
0000
,  // measure 28
0001
0100
0001
0010
0001
0100
0000
0001
0000
0100
0010
0000
0100
0000
0001
0000
,  // measure 29
1000
0100
1000
0010
1000
0100
0000
1000
0000
0010
0100
0000
0001
0000
0000
1100
,  // measure 30
0000
0101
0000
1000
0100
0010
0000
0011
0000
1010
0000
0001
1000
0000
0000
1100
,  // measure 31
0000
0101
0000
1000
0001
0100
0000
0011
0000
1010
0000
0001
1000
0000
0000
0000
,  // measure 32
1000
0010
1000
0100
1000
0010
0000
1000
0000
0010
0100
0000
0010
0000
1000
0000
,  // measure 33
0001
0010
0001
0100
0001
0010
0000
0001
0000
0100
0010
0000
1000
0000
0000
0011
,  // measure 34
0000
1010
0000
0001
0010
0100
0000
1100
0000
0101
0000
1000
0001
0000
0000
0011
,  // measure 35
0000
1010
0000
0001
1000
0010
0000
1100
0000
0101
0000
1000
0001
0000
0000
0000
,  // measure 36
0100
0010
0100
0001
1000
0010
1000
0100
0010
0001
1000
0000
0001
0000
0000
0000
,  // measure 37
1000
0100
1000
0010
1000
0100
0010
0001
1000
0010
0100
0000
0001
0000
0000
0000
,  // measure 38
0101
0000
1100
0000
0001
0000
1000
0010
0000
0010
0100
0000
0001
0000
0000
0000
,  // measure 39
0101
0000
1100
0000
0001
0000
1000
0010
0000
0010
0100
0000
0101
0000
0000
0000
,  // measure 40
0010
0100
0010
1000
0001
0100
0001
0010
0100
1000
0001
0000
1000
0000
0000
0000
,  // measure 41
0001
0010
0001
0100
0001
0010
0100
1000
0001
0100
0010
0000
1000
0000
0000
0000
,  // measure 42
1010
0000
0011
0000
1000
0000
0001
0100
0000
0100
0010
0000
1000
0000
0000
0000
,  // measure 43
1010
0000
0011
0000
1000
0000
0001
0100
0000
0100
0010
0000
1010
0000
0000
0000
,  // measure 44
0002
0000
2003
0000
,  // measure 45
3200
0000
0320
0000
,  // measure 46
0031
0000
0000
0000
;

//---------------dance-single - ----------------
#NOTEDATA:;
#CHARTNAME:;
#STEPSTYPE:dance-single;
#DESCRIPTION:;
#CHARTSTYLE:;
#DIFFICULTY:Medium;
#METER:5;
#RADARVALUES:0.241289,0.267914,0.083203,0.066562,0.041601,185.000000,10.000000,8.000000,0.000000,0.000000,0.000000,0.000000,0.000000,0.241289,0.267914,0.083203,0.066562,0.041601,185.000000,10.000000,8.000000,0.000000,0.000000,0.000000,0.000000,0.000000;
#CREDIT:Ben Speirs;
#NOTES:
0000
0000
0000
0000
,
0000
0000
0000
0000
,
0000
0000
0000
0000
,
0000
0000
0000
0000
,
0100
0000
0001
0000
1000
0100
0010
0000
,
0001
0000
1000
0000
0010
0100
0001
0000
,
1000
1100
0001
0101
,
1000
1010
0001
0011
,
1000
0000
0001
0000
0000
0000
0000
0100
0000
0000
0100
0000
0000
0000
0000
0000
,
0010
0000
0100
0000
0001
0100
0010
0000
,
1000
0000
0001
0000
0000
0000
0000
0010
0000
0000
0010
0000
0000
0000
0000
0000
,
0001
0000
1000
0000
0000
0000
0000
0010
0000
0000
0010
0000
0000
0000
0000
0000
,
0010
0000
1000
0000
0001
0010
0100
0000
,
1000
0000
0001
0000
0100
0010
1000
0000
,
0001
0011
1000
1010
,
0001
0101
1000
1100
,
0001
0000
1000
0000
0000
0000
0000
0010
0000
0000
0010
0000
0000
0000
0000
0000
,
0100
0000
0010
0000
1000
0010
0100
0000
,
0001
0000
1000
0000
0000
0000
0000
0100
0000
0000
0100
0000
0000
0000
0000
0000
,
1000
0000
0001
0000
0000
0000
0000
0100
0000
0000
0100
0000
0000
0000
0000
0000
,
0010
0100
0001
0100
0010
0000
1000
0000
,
0100
1000
0001
1000
0100
0000
1000
0000
,
0020
0130
0000
0100
,
0002
1003
0000
1001
,
0100
0010
1000
0010
0100
0000
0001
0000
,
0010
0001
1000
0001
0010
0000
0001
0000
,
0200
0310
0000
0010
,
2000
3001
0000
1001
,
0010
0000
0000
1000
1000
0000
0000
0001
,
0001
0000
0000
0010
0010
0000
0000
0000
,
0001
0000
1000
0000
0100
0010
0001
0000
,
1000
0000
0001
0000
0100
0010
1000
0000
,
0001
0000
0000
1000
1000
0000
0000
0010
,
0010
0000
0000
0100
0100
0000
0000
0000
,
0010
0000
1000
0000
0100
0010
0001
0000
,
1000
0000
0001
0100
0010
1000
0100
0010
,
0001
0000
1000
0000
0010
0100
0010
0000
,
1000
0000
0001
0000
0010
0100
0010
0000
,
0001
0000
1000
0000
0000
0000
0000
0100
0000
0000
0100
0000
0000
0000
0000
0000
,
1000
0000
0001
0000
0000
0000
0000
0100
0000
0000
0100
0000
0000
0000
0000
0000
,
0001
0100
0010
0000
1000
0001
1000
0000
,
0100
1000
0001
0000
0100
0010
0100
0000
,
0001
0000
1000
0000
0000
0000
0000
0010
0000
0000
0010
0000
0000
0000
0000
0000
,
1000
0000
0001
0000
0000
0000
0000
0010
0000
0000
0010
0000
0000
0000
0000
0000
,
0002
0000
2003
0000
,
3020
0000
0230
0000
,
0301
0000
0000
0000
;

//---------------dance-single - ----------------
#NOTEDATA:;
#CHARTNAME:;
#STEPSTYPE:dance-single;
#DESCRIPTION:;
#CHARTSTYLE:;
#DIFFICULTY:Easy;
#METER:3;
#RADARVALUES:0.169972,0.229640,0.033281,0.199687,0.000000,115.000000,4.000000,24.000000,0.000000,0.000000,0.000000,0.000000,0.000000,0.169972,0.229640,0.033281,0.199687,0.000000,115.000000,4.000000,24.000000,0.000000,0.000000,0.000000,0.000000,0.000000;
#CREDIT:Ben Speirs;
#NOTES:
0000
0000
0000
0000
,
0000
0000
0000
0000
,
0000
0000
0000
0000
,
0000
0000
0000
0000
,
1000
0001
0100
0000
,
0001
1000
0100
0000
,
0010
0010
0010
0010
,
0010
0010
0010
0001
,
1000
0000
0010
0000
,
0100
0000
0010
0000
,
1000
0000
0001
0000
,
0010
0001
1000
0000
,
0001
1000
0010
0000
,
1000
0001
0010
0000
,
0100
0100
0100
0100
,
0100
0100
0100
1000
,
0001
0000
0100
0000
,
0010
0000
0100
0000
,
0001
0000
1000
0000
,
0100
1000
0001
0000
,
0100
0010
0010
0000
,
1000
0001
0001
0000
,
2002
3003
0000
0000
0010
0000
0000
0000
,
2002
3003
0000
0000
0010
0000
0000
0000
,
0010
0100
0100
0000
,
0001
1000
1000
0000
,
2002
3003
0000
0000
0100
0000
0000
0000
,
2002
3003
0000
0000
0100
0000
0000
0000
,
0001
0100
0010
0010
,
1000
0100
0010
0010
,
0002
0003
2000
3000
,
0020
0030
0200
0300
,
0010
1000
0100
0100
,
0010
0001
0100
0100
,
0020
0030
2000
3000
,
0002
0003
0200
0300
,
0001
0001
2000
3000
,
0001
0001
2000
3000
,
0100
0000
0010
0000
,
0100
0000
0010
0000
,
0001
0001
2000
3000
,
0001
0001
2000
3000
,
0100
0000
0010
0000
,
0100
0000
0010
0000
,
0002
0000
0203
0000
,
0320
0000
2030
0000
,
3100
0000
0000
0000
;

//---------------dance-single - ----------------
#NOTEDATA:;
#CHARTNAME:;
#STEPSTYPE:dance-single;
#DESCRIPTION:;
#CHARTSTYLE:;
#DIFFICULTY:Beginner;
#METER:1;
#RADARVALUES:0.086769,0.128133,0.033281,0.000000,0.000000,69.000000,4.000000,0.000000,0.000000,0.000000,0.000000,0.000000,0.000000,0.086769,0.128133,0.033281,0.000000,0.000000,69.000000,4.000000,0.000000,0.000000,0.000000,0.000000,0.000000,0.000000;
#CREDIT:Ben Speirs;
#NOTES:
0000
0000
0000
0000
,
0000
0000
0000
0000
,
0000
0000
0000
0000
,
0000
0000
0000
0000
,
0100
0000
0000
0000
,
0010
0000
0000
0000
,
1000
0000
1000
0000
,
1000
0000
1000
0000
,
0001
0000
0000
0000
,
0010
0000
0000
0000
,
0100
0000
0000
0000
,
1000
0000
0000
0000
,
0010
0000
0000
0000
,
0100
0000
0000
0000
,
0001
0000
0001
0000
,
0001
0000
0001
0000
,
1000
0000
0000
0000
,
0010
0000
0000
0000
,
0100
0000
0000
0000
,
0001
0000
0000
0000
,
1000
1000
0000
0000
,
0001
0001
0000
0000
,
0110
0000
0001
0000
,
1000
0000
0001
0000
,
0100
0100
0000
0000
,
0010
0010
0000
0000
,
1001
0000
0010
0000
,
0100
0000
0010
0000
,
1000
1000
1000
0000
,
0001
0001
0001
0000
,
0100
0000
0100
0000
,
0001
0000
1000
0000
,
0010
0010
0010
0000
,
0100
0100
0100
0000
,
0001
0000
1000
0000
,
0100
0000
0100
0000
,
1001
0000
0100
0000
,
1000
0000
0001
0000
,
0100
0000
0000
0000
,
0100
0000
0000
0000
,
0001
0000
1000
0000
,
0100
0000
0010
0000
,
0001
0000
0000
0000
,
1000
0000
0000
0000
,
1001
0000
0000
0000
;

//---------------dance-double - ----------------
#NOTEDATA:;
#CHARTNAME:;
#STEPSTYPE:dance-double;
#DESCRIPTION:;
#CHARTSTYLE:;
#DIFFICULTY:Challenge;
#METER:8;
#RADARVALUES:0.414826,0.527923,0.357773,0.058242,0.557460,299.000000,43.000000,7.000000,0.000000,0.000000,0.000000,0.000000,0.000000,0.414826,0.527923,0.357773,0.058242,0.557460,299.000000,43.000000,7.000000,0.000000,0.000000,0.000000,0.000000,0.000000;
#CREDIT:Ben Speirs;
#NOTES:
00000000
00000000
00000000
00000000
,
00000000
00000000
00000000
00000000
,
00000000
00000000
00000000
00000000
,
00000000
00000000
00000000
00000000
,
10000000
00000000
00000000
00000000
11000000
00000000
00000000
01000000
00000000
00000000
10000000
00000000
00010000
00000000
00000000
00000000
,
01000000
00000000
00000000
00000000
01010000
00000000
00000000
00010000
00000000
00000000
10000000
00000000
00100000
00000000
00000000
10000000
,
00000000
01000000
00000000
00100000
00000000
00010000
00000000
01000000
00000000
01000000
00000000
00010000
00000000
00010000
00000000
00100000
,
00000000
00001000
00000000
00010000
00000000
00001000
00000000
00010000
00000000
00010000
00000000
00000100
00001000
00000000
00000001
00000200
,
00000000
00000000
00000310
00000000
00000000
00000000
00000000
00000110
00000000
00000000
00001001
00000000
00000000
00000000
00000000
00000000
,
00001000
00000000
00000000
00000000
00000100
00000010
00000000
00000010
00000000
00000000
00000001
00000000
00001000
00000100
00001000
00000000
,
00000001
00000000
00000100
00000000
00000000
00000000
00000000
00001010
00000000
00000000
00000101
00000000
00000000
00000000
00000000
00001000
,
00000100
00000000
00000010
00000000
00000000
00000000
00000000
00000011
00000000
00000000
00001100
00000000
00000001
00000000
00000000
00000000
,
00000001
00000000
00000000
00000000
00000011
00000000
00000000
00000010
00000000
00000000
00000001
00000000
00001000
00000000
00000000
00000000
,
00000010
00000000
00000000
00000000
00001010
00000000
00000000
00001000
00000000
00000000
00000001
00000000
00000100
00000000
00000000
00000001
,
00000000
00000010
00000000
00000100
00000000
00001000
00000000
00000010
00000000
00000010
00000000
00001000
00000000
00001000
00000000
00000100
,
00000000
00010000
00000000
00001000
00000000
00010000
00000000
00001000
00000000
00001000
00000000
00100000
00010000
00000000
10000000
00200000
,
00000000
00000000
01300000
00000000
00000000
00000000
00000000
01100000
00000000
00000000
10010000
00000000
00000000
00000000
00000000
00000000
,
00010000
00000000
00000000
00000000
00100000
01000000
00000000
01000000
00000000
00000000
10000000
00000000
00010000
00100000
00010000
00000000
,
10000000
00000000
00100000
00000000
00000000
00000000
00000000
01010000
00000000
00000000
10100000
00000000
00000000
00000000
00000000
00010000
,
00100000
00000000
01000000
00000000
00000000
00000000
00000000
11000000
00000000
00000000
00110000
00000000
10000000
00000000
00000000
00000000
,
00010000
00000000
01000000
00000000
00100000
00000000
10000000
00000000
01000000
00000000
00100000
00000000
00010000
00100000
00010000
00100000
,
00001000
00000000
00010000
00000000
00000100
00000000
00010000
00000000
00000010
00000000
00001000
00000000
00001010
00001000
00000000
00000001
,
00000000
00000000
00000000
00000000
00000011
00000001
00000000
00001000
00000000
00000000
00000000
00000000
00001100
00001000
00000000
00000001
,
00000000
00000000
00000000
00000000
00000101
00000001
00000000
00001000
00000000
00000000
00000000
00000000
00001001
00000000
00000000
00000000
,
00001000
00000000
00000010
00000000
00000100
00000000
00000001
00000000
00000010
00000000
00000100
00000000
00001000
00000100
00001000
00000100
,
00010000
00000000
00001000
00000000
00100000
00000000
00001000
00000000
01000000
00000000
00010000
00000000
01010000
00010000
00000000
10000000
,
00000000
00000000
00000000
00000000
11000000
10000000
00000000
00010000
00000000
00000000
00000000
00000000
00110000
00010000
00000000
10000000
,
00000000
00000000
00000000
00000000
10100000
10000000
00000000
00010000
00000000
00000000
00000000
00000000
10010000
00000000
00000000
00000000
,
10000000
01000000
10000000
00100000
10000000
00000000
00000000
01000000
00000000
00000000
10000000
00000000
00010000
00000000
00000000
00000000
,
00010000
01000000
00010000
00100000
00010000
00000000
00000000
10000000
00000000
00000000
01000000
00000000
00100000
00000000
00000000
00010000
,
00000000
10000000
00000000
00010000
00100000
00010000
00000000
10000000
00000000
00010000
00000000
10000000
00100000
00000000
00000000
10000000
,
00000000
00010000
00000000
00100000
00001000
00100000
00000000
00001000
00000000
00010000
00000000
00000100
00001000
00000000
00000010
00000000
,
00001000
00000100
00001000
00000010
00001000
00000001
00000000
00001000
00000000
00000000
00000100
00000000
00000010
00000000
00000000
00000000
,
00000001
00000100
00000001
00000010
00000001
00001000
00000000
00000001
00000000
00000000
00000100
00000000
00000010
00000000
00000000
00001000
,
00000000
00000001
00000000
00001000
00000100
00001000
00000000
00000010
00000000
00000100
00000000
00000001
00001000
00000000
00000000
00000100
,
00000000
00010000
00000000
00001000
00010000
00001000
00000000
00100000
00000000
00010000
00000000
10000000
00100000
00000000
00000000
00000000
,
01000000
00010000
01000000
00100000
10000000
01000000
00100000
00010000
10000000
00010000
01000000
00000000
10010000
00000000
00000000
00000000
,
10000000
01000000
10000000
00010000
00100000
00010000
10000000
00100000
01000000
00010000
10000000
00000000
10010000
00000000
00000000
00000000
,
00010000
00000000
00100000
00000000
00001000
00000000
00000000
00101000
00000000
00000000
00011000
00000000
00000100
00000000
00000000
00000000
,
00010000
00000000
00000100
00000000
00001100
00000000
00000000
00001010
00000000
00000000
00001001
00000000
00000100
00000000
00000000
00000000
,
00000001
00000100
00000010
00001000
00000100
00000010
00000001
00001000
00000001
00000000
00001000
00000000
00001001
00000000
00000000
00000000
,
00001000
00000010
00000100
00000010
00001000
00000100
00000010
00000001
00001000
00000000
00000010
00000000
00001010
00000000
00000000
00000000
,
00001100
00000000
00001100
00000000
00000000
00000000
00000000
00011000
00000000
00000000
00011000
00000000
00000000
00000000
00000000
00000000
,
00110000
00000000
00110000
00000000
00000000
00000000
00000000
00011000
00000000
00000000
00011000
00000000
01000000
00000000
00000000
00000000
,
00200000
00000000
20300000
00000000
,
30020000
00000000
02030000
00000000
,
03002000
00000000
00000000
00000000
,
00003000
00000000
00000000
00000000
;
