#TITLE:Good Time;
#SUBTITLE:;
#ARTIST:Owl City & Carly Rae Jepsen;
#TITLETRANSLIT:;
#SUBTITLETRANSLIT:;
#ARTISTTRANSLIT:;
#CREDIT:;
#BANNER:Good Time-bn.png;
#BACKGROUND:Good Time-bg.png;
#LYRICSPATH:;
#CDTITLE:;
#MUSIC:Good Time.mp3;
#OFFSET:-0.040;
#SAMPLESTART:45.760;
#SAMPLELENGTH:14.320;
#SELECTABLE:YES;
#BPMS:0.000=125.980;
#STOPS:;
#BGCHANGES:0.000=Good Time.avi=1.000=1=0=0,
99999=-nosongbg-=1.000=0=0=0 // don't automatically add -songbackground-
;

//---------------dance-single - ----------------
#NOTES:
     dance-single:
     :
     Beginner:
     1:
     0.095,0.144,0.021,0.000,0.000: // measure 1
0000
0000
0000
0000
,  // measure 2
0000
0000
0000
0000
,  // measure 3
0000
0000
0000
0000
,  // measure 4
0000
0000
0000
0000
,  // measure 5
1000
0000
0000
0000
,  // measure 6
0100
0000
0000
0000
,  // measure 7
0010
0000
0000
0000
,  // measure 8
0001
0000
0000
0000
,  // measure 9
0100
0000
0000
0000
,  // measure 10
0010
0000
0000
0000
,  // measure 11
1000
0000
0000
0000
,  // measure 12
0100
0000
0000
0000
,  // measure 13
1000
0000
0000
0000
,  // measure 14
0001
0000
0000
0000
,  // measure 15
0100
0000
0000
0000
,  // measure 16
0010
0000
0000
0000
,  // measure 17
1000
0000
1000
0000
,  // measure 18
1000
0000
0000
0000
,  // measure 19
0001
0000
0001
0000
,  // measure 20
0001
0000
0000
0000
,  // measure 21
0010
0000
0010
0000
,  // measure 22
0010
0000
0000
0000
,  // measure 23
0100
0000
0100
0000
,  // measure 24
0100
0000
0000
0000
,  // measure 25
1001
0000
0000
0000
,  // measure 26
0100
0100
0100
0000
,  // measure 27
0100
0000
0000
0000
,  // measure 28
0010
0000
0010
0000
,  // measure 29
1000
0000
0000
0000
,  // measure 30
0001
0001
0001
0000
,  // measure 31
0100
0000
0000
0000
,  // measure 32
0010
0000
1000
0000
,  // measure 33
0100
0000
0000
0000
,  // measure 34
1000
0000
0000
0000
,  // measure 35
0001
0000
0000
0000
,  // measure 36
1000
0000
0000
0000
,  // measure 37
0010
0000
0000
0000
,  // measure 38
1000
0000
0000
0000
,  // measure 39
0001
0000
0000
0000
,  // measure 40
0010
0000
0000
0000
,  // measure 41
0100
0000
0000
0000
,  // measure 42
1000
0000
0000
0000
,  // measure 43
0010
0000
0000
0000
,  // measure 44
0100
0000
0000
0000
,  // measure 45
0001
0000
0001
0000
,  // measure 46
0001
0000
0000
0000
,  // measure 47
0100
0000
0100
0000
,  // measure 48
0100
0000
0000
0000
,  // measure 49
0010
0000
0010
0000
,  // measure 50
0010
0000
0000
0000
,  // measure 51
1000
0000
1000
0000
,  // measure 52
1000
0000
0000
0000
,  // measure 53
1001
0000
0000
0000
,  // measure 54
0010
0010
0010
0000
,  // measure 55
0010
0000
0000
0000
,  // measure 56
0100
0000
0100
0000
,  // measure 57
1000
0000
0000
0000
,  // measure 58
0001
0001
0001
0000
,  // measure 59
0100
0000
0100
0000
,  // measure 60
0010
0000
0000
0000
,  // measure 61
0110
0000
0000
0000
,  // measure 62
1000
1000
1000
0000
,  // measure 63
1000
0000
0000
0000
,  // measure 64
0001
0000
0001
0000
,  // measure 65
0010
0000
0000
0000
,  // measure 66
0100
0100
0100
0000
,  // measure 67
0100
0000
0000
0000
,  // measure 68
1000
0000
0010
0000
,  // measure 69
0010
0000
0000
0000
;

//---------------dance-single - ----------------
#NOTES:
     dance-single:
     :
     Medium:
     7:
     0.336,0.361,0.106,0.099,0.000:
0000
0000
0000
0000
,
0000
0000
0000
0000
,
0000
0000
0000
0000
,
0000
0000
0000
0000
,
0020
0000
0100
0000
0130
0000
0001
0100
,
0001
0000
1000
0100
1000
0000
0010
0100
,
0020
0100
0130
0000
,
1000
0100
0010
0001
2000
0000
3001
0000
,
0200
0000
0010
0000
0310
0000
1000
0010
,
1000
0000
0001
0100
0001
0000
1000
0000
,
0002
0000
0010
0000
0013
0000
0100
0010
,
0100
0000
1000
0100
1000
0000
0010
0000
,
0200
0000
0010
0000
0310
0000
0100
0001
,
0100
0000
0010
1000
0010
0000
1000
0000
,
0001
0000
0000
0000
,
0100
0010
1000
0001
2000
0000
3001
0000
,
1000
0100
0001
1000
,
0100
0001
1000
1001
,
0001
0100
1000
0001
,
0100
1000
0001
1001
,
0010
0000
0100
0000
0010
1000
0100
0000
,
2000
3100
0020
0130
,
1000
0001
0010
0100
,
1000
0100
0010
0001
2000
0000
3000
0000
,
0010
1000
0010
1000
0010
0000
0100
0000
,
0001
0100
0010
0000
,
1000
0001
1000
0001
1000
0000
0001
0000
,
0010
0100
1100
0000
,
0010
0100
0010
0100
0010
0000
1000
0000
,
0001
0010
0100
0000
,
1000
0010
1000
0010
0100
0010
0100
0000
,
0001
0100
0001
0100
0020
0000
0130
0000
,
0001
0100
1000
0010
,
0001
0000
0100
0000
0000
1000
0010
0000
,
0001
0100
1000
0010
,
0001
0100
0000
0000
,
0110
0000
1000
0000
0100
0000
1000
0100
,
1000
0000
0001
0100
0001
0000
0010
0000
,
0001
0000
1000
0000
0100
0000
1000
0010
,
1000
0000
0010
0100
0010
0000
1000
0000
,
0001
0000
0010
0000
0100
0000
0010
0100
,
0010
0000
0001
0010
0001
0000
0100
0000
,
0010
0000
0000
0000
,
0100
0010
1000
0001
0200
0000
0310
0000
,
1000
0100
0001
1000
,
0100
0001
1000
1001
,
0001
0100
1000
0001
,
0100
1000
0001
1001
,
0010
0000
0100
0000
0010
1000
0100
0000
,
0010
0000
0100
0000
0010
0001
0100
0000
,
0010
0100
0010
0100
0001
0100
0001
0000
,
1000
0100
1000
0100
1000
0000
0000
0000
,
0010
1000
0010
1000
0010
0000
0100
0000
,
0010
1000
0001
0000
,
0010
0001
0010
0001
0010
0000
0001
0000
,
0100
0010
1000
0100
,
1000
0100
1000
0100
1000
0000
0010
0000
,
1000
0010
0100
0001
,
0010
0100
0010
0100
0001
0100
0001
0000
,
0010
1000
0010
1000
0200
0000
0310
0000
,
0001
0010
0100
0000
1000
0100
0010
0000
,
1001
1001
1001
0000
,
1000
0010
0100
0000
0010
0100
0001
0000
,
0110
1001
1100
0000
,
1000
0100
1000
0000
0010
0100
0001
0000
,
0101
1100
1001
0000
,
0010
1000
0100
1000
0010
0100
0001
0000
,
0010
0001
0100
0010
0200
0000
0301
0000
,
1000
0000
0000
0000
;

//---------------dance-single - ----------------
#NOTES:
     dance-single:
     :
     Hard:
     11:
     0.475,0.505,0.212,0.191,0.163:
0000
0000
0000
0000
,
0000
0000
0000
0000
,
0000
0000
0000
0000
,
0000
0000
0000
0000
,
0010
0000
0110
0000
0101
0000
0100
1000
,
0010
0000
1000
0100
0001
0000
0010
0100
,
0010
0001
1000
1100
,
0010
1000
0100
1000
0002
0000
0103
0000
,
0010
0000
0101
0000
1010
0000
0001
1000
,
0100
0000
1000
0100
0001
0100
1000
0000
,
0010
0000
1010
0000
0101
0000
1000
0001
,
0100
0000
0010
1000
0010
0100
0001
0000
,
0010
0000
0011
0000
1001
0000
1000
0100
,
0001
0000
0100
1000
0010
0000
0100
0000
,
0010
0100
0001
0100
1000
0001
0200
0000
,
0310
1000
0100
0010
0011
0000
1100
0000
,
0010
0000
1000
0000
0100
0010
0001
2000
,
0100
0000
3010
0002
0100
0000
1003
0000
,
0010
0000
0100
0001
0100
0010
1000
0002
,
0100
0000
1003
0200
0001
0000
0310
0000
,
1010
0000
0001
1000
0100
0010
0001
0100
,
0010
0100
0010
1000
0001
1000
0001
0000
,
1000
0100
0001
0100
1000
0010
0100
0001
,
0010
0100
0010
0100
0010
0100
0010
0100
0010
0000
0000
0000
1001
0000
0000
0000
,
0101
1000
0010
0001
0200
0000
0302
0000
,
2003
0100
3100
0000
,
1010
0001
1000
0100
0020
0000
0032
0000
,
0103
0100
0010
0010
1010
0000
1001
0000
,
0110
1000
0001
0100
0020
0000
2030
0000
,
3002
0100
0103
0000
,
1000
0010
0001
0010
1000
0001
0100
0000
,
1000
0100
0001
0100
1100
0000
0011
0000
,
2000
3100
0020
0130
,
2000
0000
3100
0000
0000
0001
0100
0010
,
0100
0000
1001
0000
0010
0000
0101
0001
,
0010
0000
1000
0001
0100
0010
0100
0001
,
0000
0000
0000
0000
0100
0010
0000
0000
1000
0100
0000
0000
0001
0000
1000
0000
,
0100
0000
1000
0100
0001
0100
1000
0000
,
0010
0000
0000
0000
0100
0010
0000
0000
0100
0001
0000
0000
0010
0000
0100
0000
,
0001
0000
0010
0100
0010
0001
1000
0000
,
0001
0000
0000
0000
1000
0100
0000
0000
0010
0100
0000
0000
0010
0000
0100
0000
,
0001
0000
0010
0100
1000
0000
0010
1000
,
0100
0010
0001
0010
0100
1000
0002
0000
,
0103
0010
1000
0100
1100
0000
0011
0000
,
0100
0000
0010
0100
0010
1000
0001
2000
,
0100
0000
3010
0002
0100
0000
0013
0000
,
0100
0000
0001
1000
0001
0010
0100
2000
,
0010
0000
3001
0200
0010
0000
0301
0000
,
0100
0010
1000
0100
1000
0010
0100
0001
,
0200
0010
0320
1000
,
1030
0100
0010
0001
0010
0100
1000
0010
,
1000
0001
1000
0001
1000
0001
1000
0001
1000
0000
0000
0000
0110
0000
0000
0000
,
1010
0000
0100
0000
0001
0000
1000
0000
0010
0100
0000
0000
0001
0100
0000
0000
,
0010
1000
0000
0000
0100
0010
0000
0000
0001
1000
0000
0000
0000
0000
0000
0000
,
0011
0000
0100
0000
0010
0000
1000
0000
0001
0100
0000
0000
0010
0100
0000
0000
,
0001
0000
0100
0000
1000
0000
0010
0000
0200
0000
0010
0000
0010
0300
0000
0000
,
0010
0000
1000
0000
0100
0000
0010
0000
0001
0010
0000
0000
0100
1000
0000
0000
,
0010
0100
0000
0000
0001
1000
0000
0000
0100
0010
0000
0000
0000
0000
0000
0000
,
0001
0010
0100
1000
0010
0100
0001
0000
,
0100
0000
0010
0000
1000
0000
0100
0000
1100
0000
0000
0101
0000
0000
1001
0000
,
0001
0000
0100
0010
0100
0000
0001
0100
0001
0000
0000
0000
1000
0100
0000
0000
,
0100
0010
0000
0000
0010
0001
0000
0000
0001
0200
0000
0000
0010
0000
0000
0000
,
0301
0000
1000
0100
1000
0000
0001
0100
0001
0000
0000
0000
0100
0010
0000
0000
,
0010
1000
0100
1000
0002
0000
1003
0000
,
0010
0000
1000
0100
1000
0000
0001
0100
0001
0000
0000
0000
0100
0010
0000
0000
,
0010
1000
0000
0000
1000
0001
0000
0000
0001
0100
0000
0000
0010
0000
0000
0000
,
0100
0001
0001
1000
0100
0010
0001
0000
,
0100
0000
0010
0000
1000
0000
0001
0000
0100
0010
0100
0010
0100
0010
0100
0010
;

//---------------dance-single - ----------------
#NOTES:
     dance-single:
     :
     Easy:
     5:
     0.252,0.264,0.177,0.042,0.000:
0000
0000
0000
0000
,
0000
0000
0000
0000
,
0000
0000
0000
0000
,
0000
0000
0000
0000
,
1000
0100
1000
0100
,
0010
0001
0010
0001
,
0200
0000
0300
0000
,
0010
0010
0010
0000
,
1000
0010
0100
0001
,
1000
1100
0010
1000
,
0001
0010
0100
1000
,
0001
0101
0010
0100
,
0001
0010
0100
1000
,
0010
0110
1000
0001
,
0200
0000
0000
0300
,
0010
0010
0010
0000
,
1001
0000
1000
0100
,
0001
0100
1000
0000
,
1000
0000
0001
0100
,
1000
0100
0001
0000
,
0001
0000
1000
0010
,
0100
0010
1000
0000
,
0100
0010
0001
1000
,
0010
0100
0000
0000
,
0010
0100
0010
0100
,
0110
0110
0110
0000
,
1000
0001
1000
0001
,
1001
0000
1001
0000
,
0100
1000
0100
1000
,
1100
1100
1100
0000
,
0010
0001
0100
0010
,
1000
0001
0200
0300
,
0010
0100
0010
0100
,
0001
0100
0000
0000
,
0010
1000
0100
0010
,
0100
1001
0000
0000
,
0000
1000
1000
0100
,
0001
0100
1000
0001
,
0000
0010
0010
0001
,
0100
0010
1000
0010
,
0000
0100
0100
0001
,
0100
0010
1000
0100
,
0020
0000
0030
0000
,
0001
1000
0001
0000
,
1000
0010
0100
0001
,
0010
0110
0001
1000
,
0010
1000
0001
0100
,
0010
1010
0100
1000
,
0010
0100
0001
1000
,
0001
0101
0010
0100
,
0010
0010
1000
1000
,
0100
0010
1001
0000
,
0100
1000
0100
1000
,
1100
1100
1100
0000
,
0010
0001
0010
0001
,
0011
0000
0011
0000
,
0100
0010
0100
0010
,
0110
0110
0110
0000
,
1000
0010
0100
0001
,
0010
0100
2000
3000
,
0100
1000
0010
0100
,
0001
1000
0001
0010
,
0100
1000
0010
0100
,
0010
1000
0001
0010
,
0100
1000
0010
0100
,
0001
1000
0100
0010
,
0001
1000
0010
0100
,
0010
1000
0200
0310
;
