#VERSION:0.82;
#TITLE:Bills;
#SUBTITLE:[HELLRAZOR SYNC VER.];
#ARTIST:Lunchmoney Lewis;
#TITLETRANSLIT:;
#SUBTITLETRANSLIT:;
#ARTISTTRANSLIT:;
#GENRE:;
#ORIGIN:;
#CREDIT:Hellrazor;
#BANNER:Bills.png;
#BACKGROUND:Bills-bg.png;
#PREVIEWVID:;
#JACKET:jacket.png;
#CDIMAGE:;
#DISCIMAGE:;
#LYRICSPATH:;
#CDTITLE:;
#MUSIC:../Bills/Bills.ogg;
#OFFSET:-0.020000;
#SAMPLESTART:48.599998;
#SAMPLELENGTH:13.700000;
#SELECTABLE:YES;
#BPMS:0.000=126.000;
#STOPS:;
#DELAYS:;
#WARPS:;
#TIMESIGNATURES:0.000=4=4;
#TICKCOUNTS:0.000=4;
#COMBOS:0.000=1;
#SPEEDS:0.000=1.000=0.000=0;
#SCROLLS:0.000=1.000;
#FAKES:;
#LABELS:0.000=Song Start;
#BGCHANGES:6.000=../Bills/Bills.avi=1.000=0=0=1=====,
99999=-nosongbg-=1.000=0=0=0 // don't automatically add -songbackground-
;
#KEYSOUNDS:;
#ATTACKS:
;

//---------------dance-single - ----------------
#NOTEDATA:;
#CHARTNAME:;
#STEPSTYPE:dance-single;
#DESCRIPTION:;
#CHARTSTYLE:;
#DIFFICULTY:Hard;
#METER:8;
#RADARVALUES:0.563302,0.676147,0.336235,0.152834,0.278922,452.000000,44.000000,20.000000,0.000000,0.000000,0.000000,0.000000,0.000000,0.563302,0.676147,0.336235,0.152834,0.278922,452.000000,44.000000,20.000000,0.000000,0.000000,0.000000,0.000000,0.000000;
#CREDIT:Ben Speirs;
#NOTES:
0000
0000
0000
0000
,
0000
0000
0000
0000
,
1001
0000
0000
0000
0010
0000
0000
0000
1000
0000
0000
0001
0000
0000
0010
0000
,
0000
0000
0011
0000
1100
0000
0001
1000
,
1010
0000
0011
0000
1010
0000
0001
1000
,
0010
0100
0010
1000
,
1001
0000
0000
0000
0010
0000
0000
0000
0001
0000
0000
1000
0000
0000
0001
0000
,
0000
0000
0101
0000
1001
0000
0010
1000
,
1100
0000
0011
0000
1000
0100
0010
0001
,
0200
0000
0010
0310
,
0110
0000
0000
0000
0000
0000
1000
0000
0000
0010
0000
0000
0100
0000
0000
0001
0000
0000
0010
0000
0100
0010
0000
0000
,
0100
0000
1000
0000
0001
0100
0001
0100
0010
0000
0000
0000
1000
0000
0001
0000
,
0100
0000
0000
0000
0000
0000
0000
0000
0000
0000
0000
0000
0001
0000
0000
0000
0010
0000
0001
0000
0000
0000
0000
0000
1000
0000
0000
0000
0000
0000
0010
0000
0000
0100
0000
0000
0010
0000
0000
0000
0000
0000
1000
0000
0000
0001
0000
0000
,
1000
0000
0100
0000
0010
0001
1000
0000
0100
0000
0000
0000
1000
0000
0010
0000
,
0100
0000
0000
0000
0000
0000
0000
0000
0000
0000
0000
0000
0001
0000
0000
0000
0010
0000
0001
0000
0000
0000
0000
0000
0100
0000
0000
0000
0000
0000
0001
0000
0000
0000
0000
0000
1000
0000
0000
0000
0000
0000
0010
0000
0000
0100
0000
0000
,
0001
0000
1000
0000
0100
0010
0100
1000
0001
0000
0000
0000
0100
0000
0001
0000
,
1000
0000
0000
0000
0000
0000
0010
0000
1000
0010
0000
0000
0100
0000
0000
0001
0000
0000
1000
0000
0000
0100
0000
0000
,
0010
0001
1000
0010
0100
0100
0001
0000
,
1001
0000
0000
0000
0010
0000
1000
0000
0000
0000
0000
0000
0001
0000
0000
0000
0000
0000
1000
0000
0000
0001
0000
0000
,
0100
0001
0100
0001
0100
0001
0100
0000
,
0101
0000
0000
0000
0010
0000
1000
0000
0000
0000
0000
0000
0001
0000
0000
0000
0000
0000
1000
0000
0000
0100
0000
0000
,
0010
0100
0010
0100
0010
0100
0010
0000
,
1100
0000
0000
0000
0001
0000
1000
0000
0000
0000
0000
0000
0010
0000
0000
0000
0000
0000
0100
0000
0000
0010
0000
0000
,
1000
0010
1000
0010
1000
0010
1000
0000
,
1001
0000
0001
0010
0000
0000
0011
0000
0000
1100
0000
0000
,
1010
0101
0011
1100
,
1001
0000
0001
0000
0010
0000
0001
0000
0100
0000
0010
1000
0000
1000
0001
0000
,
1000
0000
0010
0000
0100
0000
0001
0000
1000
0000
0100
0010
0000
0010
0001
0000
,
0011
0000
1010
0000
0011
0000
1000
0100
,
0010
0001
0100
0010
1010
0000
0101
0000
,
1001
0000
1000
0000
0100
0000
1000
0000
0010
0000
0100
0001
0000
0001
1000
0000
,
0001
0000
0100
0000
0010
0000
1000
0000
0001
0000
0010
0100
0000
0100
1000
0000
,
1100
0000
0000
0000
0101
0000
0000
0000
1000
0000
0100
0000
0010
0000
0001
0100
,
0001
1000
0100
0010
0011
0000
1010
0000
,
0001
0000
0010
0000
1000
0000
0010
0000
0001
0000
1000
0010
0000
0000
0000
0000
,
0100
0000
0001
0100
0000
0000
0001
0000
0000
1000
0000
0000
0100
0000
0000
1000
0001
0000
0000
0000
0000
0000
0000
0000
,
0010
0000
0001
0000
1000
0000
0001
0000
0010
0000
0100
1000
0000
0000
0000
0000
,
0001
0000
0000
0000
0100
0000
0001
0000
0000
0000
0000
0000
1000
0000
0000
0000
0000
0000
0010
0000
0000
0000
0000
0000
0100
0000
0000
0000
0000
0000
0001
0000
0000
1000
0000
0000
0000
0000
0000
0000
0000
0000
0000
0000
0000
0000
0000
0000
,
1000
0000
0100
0000
0001
0000
0100
0000
1000
0000
0001
0100
0000
0000
0000
0000
,
0010
0000
0000
0000
1000
0000
0010
0000
0000
0000
0000
0000
1000
0000
0000
0000
0000
0000
0001
0000
0000
0000
0000
0000
0010
0000
0000
0000
0000
0000
0001
0000
0000
1000
0000
0000
0000
0000
0000
0000
0000
0000
0000
0000
0000
0000
0000
0000
,
0100
0000
1000
0000
0001
0000
1000
0000
0100
0000
0010
0001
0000
0000
0000
0000
,
1000
0000
0000
0000
0010
0000
1000
0000
0000
0000
0000
0000
0001
0000
0000
0000
0000
0000
0100
0000
0000
0000
0000
0000
0010
0000
0000
0000
0000
0000
1000
0000
0000
0001
0000
0000
0000
0000
0000
0000
0000
0000
0000
0000
0000
0000
0000
0000
,
0020
0100
0000
0100
,
0000
0100
0000
0130
,
2000
0010
0000
0010
,
0000
0010
0000
3010
,
0002
0010
0000
0010
,
2003
0100
0000
0100
,
3020
0130
0002
1003
,
0200
0310
0002
1003
,
0020
0230
0302
2003
,
3010
0100
0001
1000
1010
0000
0101
0000
,
1001
0000
0100
0000
1000
0000
0010
0000
0100
0000
0001
0010
0000
0010
0100
0000
,
1000
0000
0001
0000
0100
0000
0010
0000
1000
0000
0001
0100
0000
0100
0010
0000
,
1010
0100
0011
0100
1010
0100
0001
0010
,
0100
0000
1000
0000
0001
0000
0100
0010
0100
0000
0010
1000
0010
0000
0100
0000
,
0001
0000
0010
0000
0001
0000
0100
0000
0010
0000
1000
0100
0000
0100
0010
0000
,
0001
0000
1000
0000
0010
0000
0100
0000
0001
0000
1000
0010
0000
0010
0100
0000
,
0101
0010
1100
0010
0101
0010
1000
0100
,
0010
0000
0001
0000
1000
0000
0010
0000
0100
0000
0001
1000
0001
0000
0100
0000
,
0110
0000
0000
0000
1001
0000
0000
0000
0010
1000
0001
0200
0000
0000
0000
0000
,
0301
0000
0000
0000
1000
0000
0001
0000
0000
0000
0000
0000
0100
0000
0000
0000
0000
0000
0001
0000
0000
0000
0000
0000
0010
0000
0000
0001
0000
0000
1000
0000
0000
0200
0000
0000
0000
0000
0000
0000
0000
0000
0000
0000
0000
0000
0000
0000
,
1300
0000
0001
0000
0100
0000
0010
0000
1000
0010
0100
0002
0000
0000
0000
0000
,
1003
0000
0000
0000
0010
0000
1000
0000
0000
0000
0000
0000
0001
0000
0000
0000
0000
0000
0100
0000
0000
0000
0000
0000
0010
0000
0000
1000
0000
0000
0100
0000
0000
0020
0000
0000
0000
0000
0000
0000
0000
0000
0000
0000
0000
0000
0000
0000
,
0031
1000
0001
0000
1000
0010
1000
0000
0001
0010
0100
1000
0002
0000
0000
0000
,
1003
0000
0000
0000
0010
0000
1000
0000
0000
0000
0000
0000
0001
0000
0000
0010
0000
0000
0001
0000
0000
0000
0000
0000
1000
0000
0000
0100
0000
0000
0010
0000
0000
0001
0000
0000
2000
0000
0000
0000
0000
0000
0000
0000
0000
0000
0000
0000
,
3010
0100
0010
0000
1000
0001
1000
0000
0100
0010
0001
1000
0200
0000
0000
0000
,
1300
0010
0100
0001
0010
0100
1000
0001
,
0100
0010
0000
0000
0000
0000
0000
0000
0000
0000
0000
0000
0000
0000
0000
0000
;

//---------------dance-single - ----------------
#NOTEDATA:;
#CHARTNAME:;
#STEPSTYPE:dance-single;
#DESCRIPTION:;
#CHARTSTYLE:;
#DIFFICULTY:Challenge;
#METER:9;
#RADARVALUES:0.784911,0.832181,0.420293,0.328593,0.447039,621.000000,55.000000,43.000000,0.000000,0.000000,0.000000,0.000000,0.000000,0.784911,0.832181,0.420293,0.328593,0.447039,621.000000,55.000000,43.000000,0.000000,0.000000,0.000000,0.000000,0.000000;
#CREDIT:Ben Speirs;
#NOTES:
// measure 0
0000
0000
0000
0000
,  // measure 1
0000
0000
0000
0000
,  // measure 2
0001
0000
0010
0000
1000
0000
0010
0000
0001
0000
0100
0010
0000
0010
1000
0000
,  // measure 3
0001
0000
1000
0000
1010
0000
0000
0000
0101
0000
0001
0100
0010
0100
0001
0000
,  // measure 4
1000
0100
0010
0000
0001
0100
0010
0000
1000
0100
0010
0000
0001
0010
0100
1000
,  // measure 5
0001
0100
0010
1000
1010
0100
1001
0000
,  // measure 6
1000
0000
0100
0000
0001
0000
0100
0000
1000
0000
0010
0100
0000
0100
0001
0000
,  // measure 7
1000
0000
0001
0000
0101
0000
0000
0000
1010
0000
1000
0010
0100
0010
1000
0000
,  // measure 8
0001
0010
0100
0000
1000
0010
0100
0000
0001
0010
0100
0000
1000
0100
0010
0001
,  // measure 9
0200
0000
0010
0310
,  // measure 10
1001
0000
0000
0001
0000
0000
0100
0000
0000
0010
0000
0000
1000
0000
0000
0001
0000
0000
0010
0000
0100
1000
0000
0000
,  // measure 11
0010
0000
0100
0000
0001
0010
0100
1000
0001
0000
0100
0000
0010
0000
0010
0000
,  // measure 12
1000
0000
0000
0000
0000
0000
1000
0000
0000
0000
0000
0000
0010
0000
0000
0000
0100
0000
0001
0000
0000
0000
0000
0000
1000
0000
0000
0000
0000
0000
0001
0000
0000
0010
0000
0000
0100
0000
0000
0000
0000
0000
1000
0000
0000
0001
0000
0000
,  // measure 13
1000
0000
0010
0000
0100
0001
0010
0100
1000
0000
0001
0000
0100
0000
0001
0000
,  // measure 14
1000
0000
0000
0000
0000
0000
0010
0000
0000
0000
0000
0000
0100
0000
0000
0000
0001
0000
0010
0000
0000
0000
0000
0000
0100
0000
0000
0000
0000
0000
1000
0000
0000
0000
0000
0000
0001
0000
0000
0000
0000
0000
0100
0000
0000
0010
0000
0000
,  // measure 15
0100
0000
0001
0000
1000
0100
0010
0001
1000
0000
0010
0000
0100
0000
0001
0000
,  // measure 16
1000
0000
0000
0100
0000
0000
0010
0000
0001
0010
0000
0000
0100
0000
0000
1000
0000
0000
0001
0000
0000
0100
0000
0000
,  // measure 17
0010
0010
0100
0100
0001
1000
1001
0110
,  // measure 18
1001
0000
0000
0001
0010
0000
0100
0000
0000
1000
0000
0000
0001
0000
0000
0100
0000
0000
0010
0000
0000
1001
0000
0000
,  // measure 19
0010
1001
0100
1001
0010
1001
0100
1001
,  // measure 20
0100
0000
0000
1000
0010
0000
0100
0000
0000
0001
0000
0000
1000
0000
0000
0100
0000
0000
0010
0000
0000
0011
0000
0000
,  // measure 21
1000
1010
0001
0101
1000
1100
0001
1000
,  // measure 22
0010
0000
0000
0100
0001
0000
0010
0000
0000
0100
0000
0000
1000
0000
0000
0001
0000
0000
0100
0000
0000
1001
0000
0000
,  // measure 23
0100
1001
0010
1001
0100
1001
0010
1000
,  // measure 24
0001
0000
0000
0100
0001
0000
0010
0000
0000
0100
0000
0000
1000
0000
0000
0001
0000
0000
0100
0000
0000
0010
0000
0000
,  // measure 25
1010
0001
0011
1000
1100
0001
0101
1000
,  // measure 26
0010
0000
0100
0000
0010
0000
0001
0000
0010
0000
1000
0100
0010
0001
0100
0000
,  // measure 27
0001
0000
1000
0000
0001
0000
0100
0000
0010
0000
1000
0100
0010
0000
0001
0000
,  // measure 28
0102
0000
0013
0000
2100
0000
3010
0000
0102
0000
0013
0000
0100
1000
0010
0100
,  // measure 29
0001
1000
0001
0100
0110
1000
1010
0001
,  // measure 30
0100
0000
0010
0000
0100
0000
1000
0000
0100
0000
0001
0010
0100
1000
0010
0000
,  // measure 31
1000
0000
0001
0000
1000
0000
0010
0000
0100
0000
0001
0010
0100
0000
1000
0000
,  // measure 32
2010
0000
3100
0000
0012
0000
0103
0000
2010
0000
3100
0000
0010
0001
0100
0010
,  // measure 33
1000
0001
1000
0010
0110
0001
0101
1000
,  // measure 34
0002
0000
0013
0000
2000
0000
3010
0000
0001
0100
1000
0100
0002
0000
0013
0000
,  // measure 35
0100
0000
0000
0000
1000
0000
0020
0000
0000
0000
0000
0000
0230
0000
0000
0000
0000
0000
0302
0000
0000
0000
0000
0000
1003
0000
0000
0100
0000
0000
0001
0000
0000
0100
0000
0000
2000
0000
0000
0000
0000
0000
3010
0000
0000
0000
0000
0000
,  // measure 36
2000
0000
3100
0000
0002
0000
0103
0000
1000
0010
0001
0010
2000
0000
3100
0000
,  // measure 37
0010
0000
0000
0000
0001
0000
0200
0000
0000
0000
0000
0000
0320
0000
0000
0000
0000
0000
2030
0000
0000
0000
0000
0000
3001
0000
0000
0010
0000
0000
1000
0000
0000
0010
0000
0000
0002
0000
0000
0000
0000
0000
0103
0000
0000
0000
0000
0000
,  // measure 38
0210
0000
0310
0000
1020
0000
1030
0000
1000
0100
0010
0001
2000
0000
3010
0000
,  // measure 39
0100
0000
0000
0000
0010
0000
0100
0000
0000
0000
0000
0000
0101
0000
0000
0000
0000
0000
1010
0000
0000
0000
0000
0000
0001
0000
0000
0010
0000
0000
0100
0000
0000
1000
0000
0000
0002
0000
0000
0000
0000
0000
1003
0000
0000
0000
0000
0000
,  // measure 40
0120
0000
0130
0000
0201
0000
0301
0000
0001
0010
0100
1000
0002
0000
0103
0000
,  // measure 41
0010
0000
0000
0000
0100
0000
0010
0000
0000
0000
0000
0000
1010
0000
0000
0000
0000
0000
0101
0000
0000
0000
0000
0000
1000
0000
0000
0100
0000
0000
0010
0000
0000
0001
0000
0000
2000
0000
0000
0000
0000
0000
0000
0000
0000
0000
0000
0000
,  // measure 42
3100
0000
0000
0010
0001
0000
0010
0000
0000
0100
0000
0000
1000
0000
0000
0001
0000
0000
0100
0000
0000
0010
0000
0000
,  // measure 43
1000
0001
0000
0001
0010
0000
0001
0000
0100
0000
0010
0000
1000
0000
0001
0000
,  // measure 44
0100
0000
0000
0010
1000
0000
0010
0000
0000
0100
0000
0000
0001
0000
0000
0010
0000
0000
0100
0000
0000
1000
0000
0000
,  // measure 45
0001
1000
0000
1000
0010
0000
0100
0000
0001
0000
1000
0000
0100
0000
0010
0000
,  // measure 46
0001
0001
0010
0010
1000
1000
0100
0100
,  // measure 47
0001
0001
0010
0010
1000
1000
0100
0100
,  // measure 48
2000
3010
0002
0013
,  // measure 49
2000
3100
0002
0103
,  // measure 50
2000
3002
0203
0320
,  // measure 51
1030
0000
0000
0000
0000
0000
0001
0000
0000
0000
0000
0000
0100
0000
0000
0000
0000
0000
0010
0000
0000
0000
0000
0000
1000
0000
0000
0001
0000
0000
1000
0000
0000
0001
0000
0000
0100
0000
0010
0000
0100
0000
0010
0000
0100
0000
0010
0000
,  // measure 52
0100
0000
0010
0000
0100
0000
1000
0000
0100
0000
0001
0010
0100
1000
0010
0000
,  // measure 53
1000
0000
0001
0000
1000
0000
0010
0000
0100
0000
0001
0010
0100
0000
1000
0000
,  // measure 54
2010
0000
3100
0000
0012
0000
0103
0000
2010
0000
3100
0000
0010
0001
0100
0010
,  // measure 55
1000
0001
1000
0010
0110
0001
0101
1000
,  // measure 56
0010
0000
0100
0000
0010
0000
0001
0000
0010
0000
1000
0100
0010
0001
0100
0000
,  // measure 57
0001
0000
1000
0000
0001
0000
0100
0000
0010
0000
1000
0100
0010
0000
0001
0000
,  // measure 58
0102
0000
0013
0000
2100
0000
3010
0000
0102
0000
0013
0000
0100
1000
0010
0100
,  // measure 59
0001
1000
0001
0100
0110
1000
1010
0001
,  // measure 60
0010
0100
1000
0000
0001
0100
0010
0000
1000
0100
0010
0001
1000
0000
0010
0000
,  // measure 61
0100
0000
0000
0000
0001
0000
0100
0000
0000
0000
0000
0000
0010
0000
0000
0000
0000
0000
1000
0000
0000
0000
0000
0000
0001
0000
0000
0010
0000
0000
0100
0000
0000
1000
0000
0000
0001
0000
0000
0000
0000
0000
1000
0000
0000
0000
0000
0000
,  // measure 62
0001
0100
0001
0000
1000
0010
1000
0000
0001
0010
0100
1000
0001
0000
1000
0000
,  // measure 63
0010
0000
0000
0000
0100
0000
0010
0000
0000
0000
0000
0000
1000
0000
0000
0000
0000
0000
0001
0000
0000
0000
0000
0000
1000
0000
0000
0100
0000
0000
0010
0000
0000
0001
0000
0000
1000
0000
0000
0000
0000
0000
0010
0000
0000
0000
0000
0000
,  // measure 64
0100
0001
0010
0000
0100
1000
0010
0000
0100
0001
0010
0100
1000
0001
0100
0000
,  // measure 65
0010
0000
0000
0000
1000
0000
0001
0000
0000
0000
0000
0000
0010
0000
0000
0001
0000
0000
1000
0000
0000
0000
0000
0000
0100
0000
0000
1000
0000
0000
0001
0000
0000
0100
0000
0000
0010
0000
0000
1000
0000
0000
0001
0000
0000
0000
0000
0000
,  // measure 66
0100
0010
1000
0000
0100
0010
0001
0000
1000
0100
0010
0001
1000
0010
0100
0000
,  // measure 67
0001
0010
1000
0100
0001
0010
1000
0100
,  // measure 68
0001
0100
0000
0000
0000
0000
0000
0000
0000
0000
0000
0000
0000
0000
0000
0000
;

//---------------dance-single - ----------------
#NOTEDATA:;
#CHARTNAME:;
#STEPSTYPE:dance-single;
#DESCRIPTION:;
#CHARTSTYLE:;
#DIFFICULTY:Medium;
#METER:6;
#RADARVALUES:0.409377,0.441690,0.137551,0.206326,0.057313,330.000000,18.000000,27.000000,0.000000,0.000000,0.000000,0.000000,0.000000,0.409377,0.441690,0.137551,0.206326,0.057313,330.000000,18.000000,27.000000,0.000000,0.000000,0.000000,0.000000,0.000000;
#CREDIT:Ben Speirs;
#NOTES:
0000
0000
0000
0000
,
0000
0000
0000
0000
,
1001
0000
0010
0000
0100
0001
0010
0001
,
1000
0000
0010
0000
0100
0000
0001
0010
,
0100
0000
0100
0000
0100
0000
1000
0100
,
0010
0000
0001
0000
1000
0001
0100
0000
,
1001
0000
0010
0000
0100
0000
0001
1000
,
0100
0000
0010
0000
0001
0000
0100
0001
,
1000
0000
1000
0000
1000
0100
0010
0001
,
0200
0000
0010
0310
,
0110
0000
1000
0010
0100
0000
0001
0000
,
1000
0000
0001
0010
0100
0000
1000
0000
,
0001
0000
0100
0001
0010
0000
0100
0000
,
1000
0000
0001
1000
0010
0000
0100
0000
,
0010
0000
1000
0100
0010
0000
0001
0000
,
1000
0000
0001
0100
0010
0000
1000
0000
,
0001
0000
0100
0001
0010
0000
0100
0000
,
1000
0000
0001
1000
0010
0000
0100
0000
,
0002
0000
0023
0000
0130
0000
0000
0001
,
1000
0001
1000
0001
1000
0001
1000
0000
,
0200
0000
2300
0000
3010
0000
0000
0100
,
0010
0100
0010
0100
0010
0100
0010
0000
,
0200
0000
0302
0000
0013
0000
0000
0001
,
0010
0001
0010
0001
0010
0001
0010
0000
,
0002
2003
3020
0230
,
0302
2003
3200
0320
,
0031
0000
1010
0000
0001
0000
1000
0100
,
0010
0000
0001
0000
1000
0001
0100
0010
,
1000
0010
1000
0010
1000
0000
0100
1000
,
0010
0000
0100
0000
0010
1000
0001
0000
,
1000
0000
0101
0000
1000
0000
0001
0010
,
0100
0000
1000
0000
0001
1000
0010
0100
,
0001
0100
0001
0100
0001
0000
0010
0001
,
0100
0000
0010
0000
0100
0001
1000
0000
,
0001
0000
0000
0000
1000
0000
0000
0000
0010
0000
0000
0100
0000
0000
0000
0000
,
0001
0000
0010
0000
0100
0000
1000
0000
0001
0000
0000
0100
0000
0000
0000
0000
,
0010
0000
0000
0000
1000
0000
0000
0000
0001
0000
0000
1000
0000
0000
0000
0000
,
0100
0000
1000
0000
0010
0000
0100
0000
0001
0000
0000
0010
0000
0000
0000
0000
,
0001
0000
0000
0000
1000
0000
0000
0000
0010
0000
0000
0100
0000
0000
0000
0000
,
0010
0000
1000
0000
0100
0000
0010
0000
0001
0000
0000
1000
0000
0000
0000
0000
,
0001
0000
0000
0000
0100
0000
0000
0000
0001
0000
0000
1000
0000
0000
0000
0000
,
0100
0000
1000
0000
0010
0000
0100
0000
0001
0000
0000
1000
0000
0000
0000
0000
,
0020
0100
0000
0100
,
0000
0100
0000
0130
,
2000
0100
0000
0100
,
0000
0100
0000
3100
,
0002
0013
0001
0100
,
0020
0130
0001
0010
,
0200
1300
0002
1003
,
0200
1300
0002
1003
,
0200
2300
3002
2003
,
3100
1000
0001
1000
0100
1000
0001
1000
,
0010
0000
0100
0000
0001
0000
1000
0100
,
0010
0000
0011
0000
1010
0000
0001
1000
,
0010
0000
0010
0000
0100
0010
1000
0100
,
0010
0000
0001
0000
1000
0001
0100
0000
,
1001
0000
0110
0000
1001
0000
0010
0100
,
0001
0000
1000
0000
0001
0000
0010
0100
,
1000
0000
1000
0000
0001
1000
0001
1000
,
0010
0000
0100
0000
0010
1000
0001
0000
,
0011
0000
0000
0000
1010
0000
0000
0000
0001
0000
0000
1000
0000
0000
0000
0000
,
0001
0000
0010
0000
0100
0000
1000
0000
0001
0000
0000
1000
0000
0000
0000
0000
,
0101
0000
0000
0000
1100
0000
0000
0000
0010
0000
0000
0100
0000
0000
0000
0000
,
0010
0000
1000
0000
0100
0000
0010
0000
0001
0000
0000
1000
0000
0000
0000
0000
,
0001
0000
0000
0000
0011
0000
0000
0000
1001
0000
0000
1000
0000
0000
0000
0000
,
1000
0000
0010
0000
1000
0000
0001
0000
1000
0000
0000
1001
0000
0000
0000
0000
,
0100
0000
0000
0000
1100
0000
0000
0000
0001
0000
0000
0100
0000
0000
0000
0000
,
0010
1000
0100
0010
0001
0100
0010
1000
,
0001
0000
0000
0000
;

//---------------dance-single - ----------------
#NOTEDATA:;
#CHARTNAME:;
#STEPSTYPE:dance-single;
#DESCRIPTION:;
#CHARTSTYLE:;
#DIFFICULTY:Easy;
#METER:5;
#RADARVALUES:0.338418,0.389727,0.137551,0.099342,0.053492,279.000000,18.000000,13.000000,0.000000,0.000000,0.000000,0.000000,0.000000,0.338418,0.389727,0.137551,0.099342,0.053492,279.000000,18.000000,13.000000,0.000000,0.000000,0.000000,0.000000,0.000000;
#CREDIT:Ben Speirs;
#NOTES:
0000
0000
0000
0000
,
0000
0000
0000
0000
,
1001
0000
0010
0000
0100
0000
0001
0010
,
0100
0000
1000
0000
0001
0000
0100
0010
,
1000
0000
1000
0000
1000
0000
0010
0100
,
0001
0000
1000
0000
0100
0010
0001
0000
,
1001
0000
0100
0000
1000
0000
0001
0100
,
0010
0000
1000
0000
0001
0000
1000
0100
,
0010
0000
0010
0000
0010
0001
0100
0010
,
2000
0000
3000
0000
,
1000
0001
0100
0001
,
1000
0000
0100
0010
0001
0000
1000
0000
,
0001
0100
0010
0100
,
0001
0000
0010
0100
1000
0000
0001
0000
,
1000
0000
0010
0010
0010
0000
0100
0000
,
0010
0000
1000
0001
0010
0000
0100
0000
,
1000
0000
0001
0001
0001
0000
0100
0000
,
0001
0000
0010
0100
1000
0000
0000
0000
,
0001
1000
0010
0100
,
0002
0010
0013
0000
,
0001
0100
0010
1000
,
0200
0010
0310
0000
,
0100
1000
0010
0100
,
0002
1000
1003
0000
,
0001
0010
0100
1000
,
1001
0110
1001
0110
,
1001
0000
0010
0000
0100
0000
0001
0001
,
0001
0000
1000
0000
0001
0010
0100
0000
,
1000
0001
1000
0001
1000
0000
0100
0100
,
0100
0000
1000
0000
0010
0100
0001
0000
,
1001
0000
0010
0000
0100
0000
0010
0010
,
0010
0000
1000
0000
0001
0000
0010
0100
,
1000
0001
1000
0001
1000
0000
0010
0010
,
0010
0100
0001
1000
,
1001
0000
0000
0000
0010
0000
0000
0000
0100
0000
0000
0100
0000
0000
0000
0000
,
0001
0000
0000
0000
1000
0000
0000
0000
0100
0000
0000
0100
0000
0000
0000
0000
,
1000
0000
0000
0000
0001
0000
0000
0000
0100
0000
0000
0100
0000
0000
0000
0000
,
0001
0000
0000
0000
1000
0000
0000
0000
0100
0000
0000
0100
0000
0000
0000
0000
,
1000
0000
0000
0000
0001
0000
0000
0000
0010
0000
0000
0010
0000
0000
0000
0000
,
0001
0000
0000
0000
1000
0000
0000
0000
0010
0000
0000
0010
0000
0000
0000
0000
,
1000
0000
0000
0000
0001
0000
0000
0000
0010
0000
0000
0010
0000
0000
0000
0000
,
0001
0000
0000
0000
1000
0000
0000
0000
0010
0000
0000
0010
0000
0000
0000
0000
,
0100
0000
0001
0000
,
1000
0001
1000
0001
,
0010
0000
0100
0000
,
1000
0001
1000
0001
,
0100
0000
0010
0000
,
1000
0001
1000
0001
,
0020
0030
0200
0300
,
2000
3000
0002
0003
,
0200
0302
2003
3020
,
0230
0000
0010
0310
,
0110
0000
1000
0000
0010
0000
0100
0001
,
0010
0100
1000
0001
,
1001
0000
1001
0000
1001
0000
0100
0100
,
0100
0000
1000
0000
0001
1000
0010
0000
,
1001
0000
0010
0000
0100
0000
0001
0010
,
0100
1000
0001
0100
,
1001
0000
1001
0000
0100
0100
0100
0100
,
0100
0000
0010
0000
1000
0001
1000
0000
,
0001
0000
0000
0000
0010
0000
0000
0000
0100
0000
0000
1000
0000
0000
0000
0000
,
0001
0000
0000
0000
1000
0000
0000
0000
0010
0000
0000
0100
0000
0000
0000
0000
,
0010
0000
0000
0000
1000
0000
0000
0000
0100
0000
0000
0010
0000
0000
0000
0000
,
0100
1000
0001
1000
,
0110
0000
0000
0000
1000
0000
0000
0000
0001
0000
0000
0100
0000
0000
0000
0000
,
0001
0000
0000
0000
1000
0000
0000
0000
0100
0000
0000
0010
0000
0000
0000
0000
,
0100
0000
0000
0000
1000
0000
0000
0000
0001
0000
0000
0100
0000
0000
0000
0000
,
0010
1000
0001
0010
,
1100
0000
0000
0000
;

//---------------dance-single - ----------------
#NOTEDATA:;
#CHARTNAME:;
#STEPSTYPE:dance-single;
#DESCRIPTION:;
#CHARTSTYLE:;
#DIFFICULTY:Beginner;
#METER:3;
#RADARVALUES:0.179034,0.233836,0.030567,0.000000,0.000000,160.000000,4.000000,0.000000,0.000000,0.000000,0.000000,0.000000,0.000000,0.179034,0.233836,0.030567,0.000000,0.000000,160.000000,4.000000,0.000000,0.000000,0.000000,0.000000,0.000000,0.000000;
#CREDIT:Ben Speirs;
#NOTES:
0000
0000
0000
0000
,
0000
0000
0000
0000
,
0001
0000
1000
0000
,
0010
0000
0010
0000
,
0100
0100
0100
0000
,
0001
0000
1000
0000
,
0100
0000
1000
0000
,
0001
0000
0100
0000
,
0010
0010
0010
0000
,
1001
0000
0000
0000
,
0010
0000
0001
0000
,
0100
0100
0100
0000
,
0010
0000
1000
0000
,
0001
0001
0001
0000
,
0010
0000
0100
0000
,
1000
1000
1000
0000
,
0001
0000
0100
0000
,
0010
0010
0010
0000
,
1000
0000
0000
0000
,
0001
0001
0001
0000
,
0010
0000
0000
0000
,
0100
0100
0100
0000
,
1000
0000
0000
0000
,
0001
0001
0001
0000
,
0100
0000
0100
0000
,
0010
0010
0010
0010
,
0010
0000
1000
1000
,
1000
0000
0001
0000
,
0100
0100
0100
0000
,
0001
0000
1000
1000
,
1000
0000
0100
0100
,
0100
0000
1000
0000
,
0001
0001
0001
0001
,
0001
0000
0100
0000
,
0110
0000
1000
0000
,
0001
0001
0001
0000
,
0010
0000
0001
0000
,
1000
1000
1000
0000
,
0100
0000
1000
0000
,
0010
0010
0010
0000
,
0100
0000
0001
0000
,
1000
1000
1000
0000
,
1001
0000
0000
0000
,
0010
0000
0000
0000
,
0100
0000
0000
0000
,
0001
0000
0000
0000
,
1000
0000
0001
0000
,
0100
0000
0100
0000
,
0001
0000
1000
0000
,
0001
0000
1000
0000
,
0001
1000
0001
1000
,
0001
1000
0001
1000
,
0001
0000
0010
0000
,
0100
0000
1000
0000
,
0010
0010
0010
0010
,
0010
0000
1000
1000
,
1000
0000
0001
0000
,
0100
0000
0001
0000
,
0010
0010
0010
0010
,
0010
0000
0100
0000
,
1001
0000
0100
0000
,
0001
0010
0100
0000
,
1000
0000
0001
0000
,
1000
0010
0100
0000
,
0001
0000
1000
0000
,
0001
0100
0010
0000
,
1000
0000
0001
0000
,
0010
0010
0010
0010
,
0010
0000
0000
0000
;
