#TITLE:Zip-A-Dee-Doo-Dah;
#SUBTITLE:;
#ARTIST:Disney Grooves;
#TITLETRANSLIT:;
#SUBTITLETRANSLIT:;
#ARTISTTRANSLIT:;
#CREDIT:;
#BANNER:;
#BACKGROUND:;
#LYRICSPATH:;
#CDTITLE:./CDTITLES/DanceDanceRevolution Disney Grooves.png;
#MUSIC:Zip-A-Dee-Doo-Dah.mp3;
#OFFSET:-0.050;
#SAMPLESTART:45.300;
#SAMPLELENGTH:15.000;
#SELECTABLE:YES;
#BPMS:0.000=111.000;
#STOPS:;
#BGCHANGES:;

//---------------dance-single - ----------------
#NOTES:
     dance-single:
     :
     Beginner:
     1:
     0.093,0.115,0.000,0.000,0.000:
0000
0000
0000
0000
,
0000
0000
0000
0000
,
0000
0000
0000
0000
,
1000
0000
0000
0000
,
0001
0000
0000
0000
,
1000
0000
1000
0000
,
0001
0000
0000
0000
,
0001
0000
0000
0000
,
1000
0000
0000
0000
,
0001
0000
0001
0000
,
1000
0000
0000
0000
,
0010
0000
0010
0000
,
0010
0000
0000
0000
,
0100
0000
0100
0000
,
0001
0000
0000
0000
,
0001
0001
0000
0000
,
1000
1000
0000
0000
,
0001
0000
1000
0000
,
0001
0000
0000
0000
,
0010
0000
0000
0000
,
0010
0000
0000
0000
,
0001
0000
0001
0000
,
1000
0000
1000
0000
,
0010
0000
0000
0000
,
0100
0000
0000
0000
,
1000
0000
1000
0000
,
0001
0000
0001
0000
,
0010
0000
0000
0000
,
0100
0000
0000
0000
,
0010
0000
0010
0000
,
0100
0000
0100
0000
,
0001
0000
1000
0000
,
0001
0000
0000
0000
,
0010
0000
0000
0000
,
0100
0000
0000
0000
,
0001
0001
0000
0000
,
1000
1000
0000
0000
,
0001
0000
1000
0000
,
0001
0000
0000
0000
,
0010
0010
0010
0000
,
0000
1000
0000
0000
;

//---------------dance-single - ----------------
#NOTES:
     dance-single:
     :
     Easy:
     2:
     0.124,0.183,0.011,0.000,0.000:
0000
0000
0000
0000
,
0000
0000
0000
0000
,
0000
0000
0000
0000
,
1000
1000
0000
0000
,
0001
0001
0000
0000
,
1000
0000
1000
0000
,
0001
0001
0001
0000
,
0001
0001
0000
0000
,
1000
1000
0000
0000
,
0001
0000
0001
0000
,
1000
1000
1000
0000
,
0010
0000
0010
0000
,
0010
0000
0000
0000
,
0100
0000
0100
0000
,
0001
0000
0000
0000
,
0001
0001
0000
0000
,
1000
1000
0000
0000
,
0001
0000
1000
0000
,
0001
0001
0001
0000
,
0010
0000
0000
0000
,
0010
0000
0000
0000
,
0001
0001
0001
0000
,
1000
1000
1000
0000
,
0010
0000
0010
0000
,
0100
0000
0000
0000
,
1000
1000
1000
0000
,
0001
0001
0001
0000
,
0010
0000
0000
0000
,
0100
0100
0100
0000
,
0010
0010
0010
0010
,
0100
0000
0000
0000
,
0001
0000
1000
0000
,
0001
0000
0000
0000
,
0010
0000
0000
0000
,
0100
0000
0000
0000
,
0001
0001
0000
0000
,
1000
1000
0000
0000
,
0001
0000
1000
0000
,
0001
0000
0000
0000
,
0010
0010
1000
0000
,
0000
1001
0000
0000
;

//---------------dance-single - ----------------
#NOTES:
     dance-single:
     :
     Medium:
     4:
     0.179,0.183,0.000,0.011,0.000:
0000
0000
0000
0000
,
0000
0000
0000
0000
,
0000
0000
0000
0000
,
0001
0001
1000
1000
,
0001
1000
0001
0000
,
1000
0000
0001
0000
,
0010
1000
0010
0000
,
1000
1000
0001
0001
,
1000
0001
1000
0000
,
0001
0000
1000
0000
,
1000
0010
0100
0000
,
1000
1000
0100
0100
,
0001
0000
0010
0000
,
0010
0100
0010
0000
,
1000
0001
0010
0000
,
1000
1000
0001
0001
,
1000
0001
1000
0000
,
0001
0000
1000
0000
,
1000
0010
0100
0000
,
0000
1000
0000
0100
,
1000
0001
1000
0000
,
1000
1000
0001
0001
,
1000
0001
1000
0000
,
0001
0000
1000
0000
,
0010
0001
0010
0000
,
0001
0001
1000
1000
,
0001
1000
0001
0000
,
1000
0000
0001
0000
,
0001
0010
0100
0000
,
0001
0001
0100
0100
,
1000
0000
0001
0000
,
0010
0100
0010
0000
,
0001
1000
0010
0000
,
0000
0001
0000
0100
,
0010
1000
0001
0000
,
1000
1000
0001
0001
,
1000
0001
1000
0000
,
0001
0000
1000
0000
,
0200
0000
0000
0300
,
1000
0010
0100
0100
,
0000
0001
0000
0000
;

//---------------dance-single - ----------------
#NOTES:
     dance-single:
     :
     Hard:
     6:
     0.313,0.321,0.148,0.068,0.000:
0000
0000
0000
0000
,
0000
0000
0000
0000
,
0000
0000
0000
0000
,
0010
0000
0010
0000
1000
0100
1000
0000
,
0010
0000
0010
0000
0001
0100
0001
0000
,
2000
0010
0001
3100
,
0010
0100
1000
0000
0010
0000
0110
0000
,
0010
0000
0010
0000
0001
0100
0001
0000
,
0010
0000
0010
0000
1000
0100
1000
0000
,
0001
0010
1000
0010
,
1000
0001
0010
0000
0100
0000
1001
0000
,
0100
1010
1001
1100
,
0002
0100
1000
0103
,
0010
1000
0100
0000
0010
0001
0100
0000
,
1000
0100
0001
0100
0010
0000
0000
0000
,
0010
0000
0010
0000
0001
0100
0001
0000
,
0010
0000
0010
0000
1000
0100
1000
0000
,
0001
0010
1000
0010
,
1000
0001
0010
0000
0100
0000
1001
0000
,
0100
0000
1000
0000
0010
0001
0100
0000
,
1000
0001
1000
0000
,
0010
0000
0010
0000
0001
0100
0001
0000
,
0010
0000
0010
0000
1000
0100
1000
0000
,
0002
0010
1000
0103
,
0010
0100
0001
0000
0010
0000
0110
0000
,
0010
0000
0010
0000
1000
0100
1000
0000
,
0010
0000
0010
0000
0001
0100
0001
0000
,
1000
0010
0001
0010
,
0001
1000
0010
0000
0100
0000
1001
0000
,
0100
0011
1001
0101
,
2000
0100
0001
3100
,
0010
0001
0100
0000
0010
1000
0100
0000
,
0001
0100
1000
0100
0010
0000
0000
0000
,
0100
0000
0001
0000
0010
1000
0100
0000
,
0010
1000
0001
0110
,
0010
0000
0010
0000
0001
0100
0001
0000
,
0010
0000
0010
0000
1000
0100
1000
0000
,
0001
0010
1000
0020
,
0200
0000
0000
0330
,
1000
0001
0010
0000
0100
0000
1001
0000
,
0010
1000
0001
0000
0000
0000
0000
0000
;
