#TITLE:Caramelldansen;
#SUBTITLE:;
#ARTIST:Caramell;
#TITLETRANSLIT:;
#SUBTITLETRANSLIT:;
#ARTISTTRANSLIT:;
#CREDIT:;
#BANNER:Caramelldansen-bn.png;
#BACKGROUND:Caramelldansen-bg.png;
#LYRICSPATH:;
#CDTITLE:;
#MUSIC:Caramelldansen.mp3;
#OFFSET:-1.900;
#SAMPLESTART:61.000;
#SAMPLELENGTH:16.180;
#SELECTABLE:YES;
#BPMS:0.000=137.950;
#STOPS:;
#BGCHANGES:;

//---------------dance-single - ----------------
#NOTES:
     dance-single:
     :
     Beginner:
     1:
     0.101,0.165,0.022,0.000,0.000:
0000
0000
0000
0000
,
0000
0000
0000
0000
,
0000
0000
0000
0000
,
0000
0000
0000
0000
,
0010
0000
0000
0000
,
0000
0000
0000
0000
,
0100
0000
0000
0000
,
0001
0000
0000
0000
,
1001
0000
0000
0000
,
0000
0000
0000
0000
,
0100
0000
0000
0000
,
1000
0000
0000
0000
,
0010
0000
0000
0000
,
1000
0000
0000
0000
,
0001
0000
0000
0000
,
0010
0000
0000
0000
,
0001
0000
0000
0000
,
0100
0000
0000
0000
,
0110
0000
0000
0000
,
1000
1000
0000
0000
,
1000
0000
0000
0000
,
0010
0010
0000
0000
,
0010
0000
0000
0000
,
0100
0100
0000
0000
,
0100
0000
0000
0000
,
0001
0001
0000
0000
,
0001
0000
0000
0000
,
0010
0010
0000
0000
,
0010
0000
0000
0000
,
0100
0100
0000
0000
,
0100
0000
0000
0000
,
1000
1000
0000
0000
,
1000
0000
0000
0000
,
0000
0001
0001
0001
,
0001
0000
0000
0000
,
1000
0000
0000
0000
,
0010
0000
0010
0000
,
0010
0000
0000
0000
,
1000
0000
0000
0000
,
0001
0000
0000
0000
,
0010
0000
0000
0000
,
0100
0000
0100
0000
,
0100
0000
0000
0000
,
1000
0000
0000
0000
,
0010
0000
0000
0000
,
1000
0000
0000
0000
,
0001
0000
0000
0000
,
1000
0000
0000
0000
,
0100
0000
0000
0000
,
0010
0000
0000
0000
,
1001
0000
0000
0000
,
0100
0100
0000
0000
,
0100
0000
0000
0000
,
1000
1000
0000
0000
,
1000
0000
0000
0000
,
0001
0001
0000
0000
,
0001
0000
0000
0000
,
0010
0010
0000
0000
,
0010
0000
0000
0000
,
0100
0000
0000
0000
,
1000
0000
0000
0000
,
0001
0000
0000
0000
,
0100
0000
0100
0000
,
0100
0000
0000
0000
,
0010
0000
0010
0000
,
0000
1000
1000
1000
,
1000
0000
0000
0000
,
0001
0000
0000
0000
,
0010
0000
0010
0000
,
0010
0000
0010
0000
,
0010
0000
0000
0000
,
0001
0000
0000
0000
,
1000
0000
0000
0000
,
0100
0100
0100
0100
;

//---------------dance-single - ----------------
#NOTES:
     dance-single:
     :
     Medium:
     6:
     0.376,0.384,0.231,0.045,0.000: // measure 1
0000
0000
0000
0000
,  // measure 2
0000
0000
0000
0000
,  // measure 3
0000
0000
0000
0000
,  // measure 4
0000
0000
0000
0000
,  // measure 5
0100
0001
0010
0010
,  // measure 6
0001
1000
0100
1000
,  // measure 7
0001
0001
0100
0100
,  // measure 8
0010
0100
0001
1000
,  // measure 9
2002
0000
0000
0000
,  // measure 10
0000
0000
3003
1001
,  // measure 11
0010
0000
0010
0000
0001
0010
0001
0000
,  // measure 12
0100
0000
0100
0000
0010
1000
0010
0000
,  // measure 13
1000
0000
1000
0000
0100
1000
0100
0000
,  // measure 14
1000
0000
1000
0000
0001
0010
0001
0000
,  // measure 15
0100
0000
0100
0000
0010
0100
0010
0000
,  // measure 16
1000
0000
1000
0000
0100
0010
0100
0000
,  // measure 17
0001
0000
0001
0000
0100
0010
0100
0000
,  // measure 18
1000
0000
0001
0000
0100
0001
0010
0000
,  // measure 19
0001
0001
1000
1000
,  // measure 20
0001
1000
0001
1000
,  // measure 21
0010
0010
0100
0100
,  // measure 22
0010
0100
0010
0100
,  // measure 23
0001
0010
0200
0000
1000
0000
0310
0000
,  // measure 24
1000
0100
0010
0001
,  // measure 25
1000
0010
0200
0000
0001
0000
0310
0000
,  // measure 26
0100
0001
0010
0001
,  // measure 27
0100
0001
0100
0001
0100
0000
0010
0000
,  // measure 28
1000
0001
1000
0001
1000
0000
0010
0000
,  // measure 29
1000
0100
1000
0100
1000
0000
0001
0000
,  // measure 30
0010
0100
0010
0100
0010
0000
0001
0000
,  // measure 31
0200
0010
0310
0010
,  // measure 32
1000
0001
0100
0001
,  // measure 33
0020
0100
0100
0130
,  // measure 34
0000
1100
0011
1010
,  // measure 35
0100
0000
0001
1000
0001
0000
0100
0000
,  // measure 36
0010
1000
0110
0110
,  // measure 37
1000
0000
0001
0010
0001
0000
1000
0000
,  // measure 38
0100
0010
1001
1001
,  // measure 39
0100
0000
0001
0010
0001
0000
0100
0000
,  // measure 40
0010
1000
1010
1010
,  // measure 41
0100
0000
0001
1000
0001
0000
0010
0000
,  // measure 42
0100
0010
1001
1001
,  // measure 43
0010
0001
0010
0001
0010
0001
0010
0001
,  // measure 44
0000
0100
0000
0001
,  // measure 45
1000
0010
1000
0010
1000
0010
1000
0010
,  // measure 46
0000
0100
0000
0010
,  // measure 47
0100
0001
0100
0001
0100
0001
0100
0001
,  // measure 48
0000
1000
0000
0001
,  // measure 49
0010
0100
0010
0100
0010
0100
0010
0100
,  // measure 50
0000
0000
0000
0000
,  // measure 51
0001
0001
1000
0001
,  // measure 52
0100
0010
0100
0001
0000
0000
0000
0000
,  // measure 53
1000
1000
0001
1000
,  // measure 54
0100
0010
0100
1000
0000
0000
0000
0000
,  // measure 55
0001
1000
0010
0100
,  // measure 56
0001
0010
0100
1000
,  // measure 57
0011
1000
0010
0100
,  // measure 58
0001
0000
1000
0010
1000
0010
1000
0000
,  // measure 59
1001
1001
0010
0010
,  // measure 60
1001
1001
0100
0100
,  // measure 61
1001
0000
1001
0000
0010
0001
0100
0010
,  // measure 62
1000
0001
0010
0001
,  // measure 63
0100
0010
0100
0001
1000
0000
0001
0000
,  // measure 64
1000
0000
0001
0010
0100
1000
0010
0100
,  // measure 65
0001
0100
0010
1000
,  // measure 66
0000
0110
1001
0110
,  // measure 67
0001
0000
0010
0001
0010
0000
0100
0000
,  // measure 68
1000
0010
0110
1001
,  // measure 69
1000
0000
0001
0010
0100
0000
1000
0000
,  // measure 70
0001
0100
0110
0011
,  // measure 71
1000
0000
0001
0010
0100
0000
1000
0001
,  // measure 72
0100
0010
1000
0000
0110
0000
1010
0000
,  // measure 73
0001
0000
1000
0100
0010
0000
0001
0100
,  // measure 74
0010
1000
0001
0000
0110
0000
1001
0000
;

//---------------dance-single - ----------------
#NOTES:
     dance-single:
     :
     Hard:
     11:
     0.502,0.468,0.238,0.223,0.089: // measure 1
0000
0000
0000
0000
,  // measure 2
0000
0000
0000
0000
,  // measure 3
0000
0000
0000
0000
,  // measure 4
0000
0000
0000
0000
0000
0000
0000
0010
,  // measure 5
1000
0000
0001
0000
0010
0001
0100
0020
,  // measure 6
0000
1030
0010
0000
0100
0000
0001
0000
,  // measure 7
0010
0001
0010
0001
0100
0010
0100
0010
,  // measure 8
1000
0000
0010
0000
0100
0000
0001
0010
,  // measure 9
0020
0100
0000
0100
,  // measure 10
0000
0000
0130
0000
1000
0001
1001
0000
,  // measure 11
0100
0000
0000
0100
0000
0000
0100
0000
0000
0001
0000
0000
1000
0000
0100
0000
,  // measure 12
0010
0000
0000
0010
0000
0000
0010
0000
0000
0001
0000
0000
1000
0000
0001
0000
,  // measure 13
0010
0000
0000
0010
0000
0000
0010
0000
0000
0001
0000
0000
1000
0000
0100
0000
,  // measure 14
1000
0000
0000
1000
0000
0000
1000
0000
0000
0001
0000
0000
0100
0000
0010
0000
,  // measure 15
1000
0000
0000
0001
0000
0000
0010
0000
0000
0001
0000
0000
0100
0000
0010
0000
,  // measure 16
0100
0000
0000
0001
0000
0000
1000
0000
0000
0100
0000
0000
0010
0000
0001
0000
,  // measure 17
0010
0000
0000
0100
0000
0000
1000
0000
0000
0001
0000
0000
0100
0000
0010
0000
,  // measure 18
0100
0000
0000
0001
0000
0000
0010
0000
0000
0000
0001
0000
1000
0000
0000
0000
,  // measure 19
0010
0000
0000
0000
0100
0000
0000
0000
0001
0010
0001
0000
1000
0000
0010
0000
,  // measure 20
0100
0000
0000
0000
0001
0000
1000
0100
1000
0000
0010
0000
0100
0000
0001
0000
,  // measure 21
1000
0000
0000
0000
0010
0000
0000
0000
0100
0001
0100
0000
0010
0000
1000
0000
,  // measure 22
0001
0000
0000
0000
0100
0000
0001
0010
0001
0000
1000
0000
0100
0000
0010
0000
,  // measure 23
0200
0000
1300
0001
0020
0000
0001
0000
,  // measure 24
0130
0000
0001
0010
0001
0100
0010
1000
,  // measure 25
0002
0000
0103
0010
2000
0000
0100
0000
,  // measure 26
3010
0000
0100
0010
1000
0001
0000
0000
,  // measure 27
0110
0000
0001
0000
0010
0001
1000
0000
,  // measure 28
0100
1000
0001
0100
0010
0000
0100
0000
,  // measure 29
0001
0010
0001
1000
0100
0000
1000
0000
,  // measure 30
0001
0100
1000
0100
0001
0000
0010
0000
,  // measure 31
0002
0000
0103
0010
2000
0000
0010
0000
,  // measure 32
3100
0000
0010
1000
0010
0100
0001
1000
,  // measure 33
0002
0010
0100
1003
,  // measure 34
0000
0110
1010
0011
,  // measure 35
2000
0000
3001
0100
0020
0000
0130
0001
,  // measure 36
0010
0001
1000
0000
0011
0000
1010
0000
,  // measure 37
0200
0000
0301
1000
0002
0000
0013
0001
,  // measure 38
0100
0010
1000
0000
1010
0000
0011
0000
,  // measure 39
2000
0000
3001
1000
0200
0000
0310
0100
,  // measure 40
1000
0001
0100
0000
1001
0000
0110
0000
,  // measure 41
0002
0000
0103
0010
0100
0000
0001
0010
,  // measure 42
0011
0000
0110
0000
1000
0010
0001
0000
,  // measure 43
0010
0100
0010
0100
0010
0100
0001
1000
,  // measure 44
0000
0001
0000
1000
0000
0010
0110
0000
,  // measure 45
0001
0100
0001
0100
0001
0100
0010
1000
,  // measure 46
0001
0100
0010
1000
,  // measure 47
0100
1000
0100
1000
0100
1000
0010
1000
,  // measure 48
0000
0001
0000
0100
0000
0001
0011
0000
,  // measure 49
0100
0010
0100
0010
0100
0010
0001
1000
,  // measure 50
1100
0000
0000
0000
0000
0000
0000
0000
0000
0000
1000
0010
1000
0000
0000
0000
,  // measure 51
0101
0000
0000
0000
0010
0000
0000
0000
1000
0100
1000
0000
0001
0000
0100
0000
,  // measure 52
0010
0000
0000
0000
1000
0000
0001
0010
0001
0000
0100
0000
0010
0000
1000
0000
,  // measure 53
0001
0000
0000
0000
0100
0000
0000
0000
0010
1000
0010
0000
0100
0000
0001
0000
,  // measure 54
1000
0000
0000
0000
0010
0000
1000
0100
1000
0000
0001
0000
0010
0000
0100
0000
,  // measure 55
0020
0000
0031
1000
0200
0000
1000
0000
,  // measure 56
0310
0000
1000
0100
1000
0010
0100
0001
,  // measure 57
2000
0000
3010
0100
0002
0000
0010
0000
,  // measure 58
0103
0010
0100
0001
1000
0001
1000
0000
,  // measure 59
0110
0010
1000
1000
0100
1000
0001
0000
,  // measure 60
0010
0001
1000
0010
0100
0000
0010
0000
,  // measure 61
1000
1000
0001
0001
0100
0010
0100
0000
,  // measure 62
1000
0010
0001
0010
1000
0000
0100
0000
,  // measure 63
2000
0000
3010
0100
0002
0000
0100
0000
,  // measure 64
0013
0000
0100
0001
0100
0010
1000
0001
,  // measure 65
2000
0010
0100
3001
,  // measure 66
0000
0110
0101
1100
,  // measure 67
0002
0000
1003
0010
0200
0000
0310
1000
,  // measure 68
0100
1000
0001
1000
1100
0000
0101
0000
,  // measure 69
0020
0000
1030
0001
2000
0000
3100
1000
,  // measure 70
0010
0100
0001
0010
0011
0000
1100
0000
,  // measure 71
0002
0000
1003
0001
0020
0000
0130
0010
,  // measure 72
0001
1000
0010
1000
1001
0000
0110
0000
,  // measure 73
2000
0000
3010
0100
0010
0000
1000
0100
,  // measure 74
1100
1001
0110
0101
,  // measure 75
0011
0000
0000
0000
;

//---------------dance-single - ----------------
#NOTES:
     dance-single:
     :
     Easy:
     3:
     0.232,0.329,0.082,0.007,0.000: // measure 1
0000
0000
0000
0000
,  // measure 2
0000
0000
0000
0000
,  // measure 3
0000
0000
0000
0000
,  // measure 4
0000
0000
0000
0000
,  // measure 5
0100
0000
0000
0000
,  // measure 6
0001
0000
0000
0000
,  // measure 7
1000
0000
1000
0000
,  // measure 8
0001
0000
0001
0000
,  // measure 9
0020
0000
0000
0000
,  // measure 10
0000
0000
0030
0010
,  // measure 11
0010
0000
0001
0000
,  // measure 12
0100
0000
0001
0000
,  // measure 13
1000
1000
0001
0001
,  // measure 14
0100
0100
0010
0010
,  // measure 15
0100
0000
0001
0000
,  // measure 16
1000
0000
0001
0000
,  // measure 17
0010
0010
0001
0001
,  // measure 18
1000
1000
0100
0000
,  // measure 19
1000
0001
0100
0010
,  // measure 20
0100
0001
0010
0000
,  // measure 21
0001
0010
0001
1000
,  // measure 22
0100
0010
0001
0000
,  // measure 23
0100
0001
1000
0010
,  // measure 24
0100
0010
1000
0000
,  // measure 25
0100
1000
0001
0100
,  // measure 26
0010
0100
0001
0000
,  // measure 27
0010
0010
0001
0001
,  // measure 28
0100
0100
0001
0001
,  // measure 29
1000
1000
0100
0100
,  // measure 30
1000
1000
0001
0001
,  // measure 31
0100
0100
0001
0001
,  // measure 32
0010
0010
0100
0100
,  // measure 33
1000
1000
0001
0001
,  // measure 34
0000
1001
1001
1001
,  // measure 35
1001
0000
0010
0000
,  // measure 36
0001
0100
0010
1000
,  // measure 37
0001
0000
1000
0000
,  // measure 38
0100
1000
0001
0100
,  // measure 39
0001
0000
0010
0000
,  // measure 40
0001
0010
0100
1000
,  // measure 41
0010
0100
0001
1000
,  // measure 42
0100
0010
0110
0110
,  // measure 43
0000
0001
0000
1000
,  // measure 44
0000
0010
0100
0001
,  // measure 45
0000
1000
0000
0001
,  // measure 46
0000
0010
0000
0100
,  // measure 47
0000
1000
0000
0001
,  // measure 48
0000
0100
0001
1000
,  // measure 49
0000
0010
0000
1000
,  // measure 50
0100
0000
0000
0000
,  // measure 51
1000
1000
0000
0000
,  // measure 52
0001
0001
0000
0000
,  // measure 53
0100
0100
0000
0000
,  // measure 54
0010
0010
0000
0000
,  // measure 55
0100
0001
0000
0000
,  // measure 56
1000
0010
0000
0000
,  // measure 57
0001
0010
0000
0000
,  // measure 58
0100
1000
0000
0000
,  // measure 59
0010
0100
0010
0001
,  // measure 60
0010
1000
0010
0100
,  // measure 61
0010
1000
0010
0001
,  // measure 62
0010
1000
0100
0010
,  // measure 63
0100
0001
0010
0100
,  // measure 64
1000
0001
0100
1000
,  // measure 65
0100
0010
0100
0001
,  // measure 66
0000
1001
1001
1001
,  // measure 67
0010
0000
0001
0000
,  // measure 68
0010
0001
0100
0010
,  // measure 69
1000
0000
0001
0000
,  // measure 70
1000
0100
0010
0001
,  // measure 71
0100
0000
0001
0000
,  // measure 72
1000
0001
0100
0010
,  // measure 73
1000
0100
0010
0001
,  // measure 74
0100
0010
0110
0110
;
