#TITLE:Turn Down For What?;
#SUBTITLE:;
#ARTIST:DJ Snake & Lil Jon;
#TITLETRANSLIT:;
#SUBTITLETRANSLIT:;
#ARTISTTRANSLIT:;
#GENRE:Sex Machine;
#CREDIT:;
#BANNER:Turn Down For What.png;
#BACKGROUND:Turn Down For What-bg.png;
#LYRICSPATH:;
#CDTITLE:;
#MUSIC:Turn Down For What.ogg;
#OFFSET:-0.003000;
#SAMPLESTART:17.931053;
#SAMPLELENGTH:13.714000;
#SELECTABLE:YES;
#BPMS:0.000000=101.949997
,160.000000=50.974998
,176.000000=101.949997
;
#STOPS:
;
#BGCHANGES:3.667=Turn Down For What.avi=1.000=0=0=1=====,
99999=-nosongbg-=1.000=0=0=0 // don't automatically add -songbackground-
;
#KEYSOUNDS:;
#ATTACKS:;

//---------------dance-single - ----------------
#NOTES:
     dance-single:
     :
     Hard:
     9:
     0.480928,0.637463,0.114604,0.171906,0.519300,430.000000,16.000000,24.000000,0.000000,0.000000,0.000000,0.480928,0.637463,0.114604,0.171906,0.519300,430.000000,16.000000,24.000000,0.000000,0.000000,0.000000:
0000
0000
0000
0000
,
0000
0000
0000
0000
,
1000
0000
0000
0100
0000
0000
1000
0000
0000
0100
0000
0000
1000
0100
0000
0000
,
0001
0000
0000
0100
0000
0000
0001
0000
0000
0100
0000
0000
0001
0100
0000
0000
,
1000
0000
0000
0010
0000
0000
1000
0000
0000
0010
0000
0000
1000
0010
0000
0000
,
0001
0000
0000
0010
0000
0000
0001
0000
0000
0010
0000
0000
0001
0010
0000
0000
,
2001
0000
3000
0010
0200
0000
0000
0000
0301
0010
0100
1000
0002
0000
0000
0000
,
0103
0000
0000
0000
,
1001
0000
1000
0200
0000
0000
0320
0000
0000
0000
0031
2000
0000
0000
3010
0000
,
0100
0000
0001
2000
0000
0000
3100
0000
0000
0000
0010
0000
0001
0000
1000
0010
,
1000
0000
0001
0200
0000
0000
0320
0000
0000
0000
1030
0002
0000
0000
1003
0000
,
0100
0000
0010
0002
0000
0000
2003
0000
0000
0000
3010
0000
0100
0000
0001
1000
,
0001
0000
0100
0010
0000
0010
1000
0000
0000
0000
0100
0010
0000
0010
0001
0000
,
1000
0000
0001
0100
0000
0100
0010
0000
0000
0000
1000
0100
0000
0100
0010
0000
,
0001
0000
1000
0010
0000
0010
0100
0000
0000
0000
0001
1000
0000
1000
0100
0000
,
0010
0000
0001
0100
0000
0100
0010
0000
0000
0000
1000
0000
0001
0000
0100
0010
,
0200
0000
0000
0000
0301
0000
1000
0000
0100
0000
1000
0000
0001
0000
0100
0001
,
0100
0000
0000
0010
0000
0000
0100
0001
0100
0000
0010
0000
1000
0000
0100
0010
,
0100
0000
0000
1000
0000
0000
0100
0010
0100
0000
1000
0000
0010
0000
0100
0001
,
0100
0000
0000
0010
0000
0000
0100
0001
0100
0000
0010
0000
1000
0001
1000
0000
,
0100
0000
0100
0020
0000
0000
0031
0000
1000
0000
0010
0000
0100
0001
0100
0000
,
0010
0000
1000
0200
0000
0000
0310
0000
0001
0000
1000
0000
0010
0100
0010
0000
,
1000
0000
0001
0200
0000
0000
0310
1000
0010
0000
0100
0000
0001
1000
0001
0000
,
0100
0010
0100
0010
0000
0000
1000
0010
1000
0000
0001
0100
0001
0000
1000
0000
,
1001
0000
0000
0000
,
0000
0000
0000
0000
,
0000
0000
0000
0000
,
0000
0000
0000
0000
,
1000
0010
0001
0100
1000
0010
0001
0100
,
1000
0001
1000
0001
0100
0010
0100
0010
1000
0100
1000
0100
0010
0001
0010
0001
,
1000
0010
0100
0001
0010
0100
1000
0010
0100
0001
0010
0100
1000
0001
0100
0010
,
1000
0000
0000
0000
,
0001
0100
0001
0000
1000
0000
0010
0100
0010
0000
1000
0000
0001
0100
0001
0000
,
1000
0000
0010
0000
0000
0100
0000
0000
0010
0000
1000
0000
0100
0010
0001
0000
,
1000
0100
1000
0000
0010
0000
0100
0001
0100
0000
0010
0000
1000
0100
1000
0000
,
0010
0000
0100
0000
0000
0001
0000
0000
1000
0000
0010
0000
0100
0001
0100
0000
,
0010
0000
1000
0000
0001
0010
0001
0000
1000
0000
0010
0000
0100
0001
0100
0000
,
0010
0000
1000
0100
1000
0001
1000
0000
0010
0000
0100
0000
0001
1000
0001
0000
,
0010
0001
0010
0000
0001
0000
1000
0100
1000
0000
0010
0000
0100
0001
0100
0000
,
0010
1000
0010
0100
0010
0000
1000
0000
0001
0010
0001
0000
1000
0000
0100
0000
,
2100
0000
0000
0000
3001
0000
0100
0010
0000
0000
1000
0000
0001
1000
0010
0000
,
0102
0000
0000
0000
1003
0000
0100
0000
1000
0000
0000
0000
0001
0000
0010
0000
0000
0000
0000
0000
0001
0000
1000
0000
0010
0000
0100
0000
0001
0010
0001
0000
,
1000
0100
0001
0100
2000
0000
3010
0100
0001
1000
0010
0000
1000
0100
0010
0001
,
0201
0000
0000
0000
0310
0000
1000
0000
0001
0000
0000
0000
0010
0000
0001
0000
1000
0000
0001
0000
0100
0000
0000
0000
0010
0000
1000
0000
0001
0100
0001
0000
,
1000
0010
1000
0010
0000
0000
0000
0000
0000
0100
0001
0100
0001
0000
0000
0000
0000
0000
1000
0000
0000
0001
0000
0000
,
0000
0000
1100
0000
0000
0101
0000
0000
1001
0000
0010
0000
1000
0001
1000
0000
,
0001
0100
0001
0100
0000
0000
0000
0000
0000
0010
1000
0010
1000
0000
0000
0000
0000
0000
0001
0000
0000
1000
0000
0000
,
0000
0000
0011
0000
0000
1010
0000
0000
1001
0000
0100
0000
0001
1000
0001
0000
,
1000
0100
1000
0001
0000
0000
0000
0000
0000
0001
0100
0001
1000
0000
0000
0000
0000
0000
1001
0000
0000
1001
0000
0000
,
0000
0000
1000
0010
0000
0100
0001
0000
1000
0000
0001
0000
1000
0100
0010
0000
,
0001
0010
0001
1000
0000
0000
0000
0000
0000
1000
0010
1000
0001
0000
0000
0000
0000
0000
1001
0000
0000
1001
0000
0000
,
0000
0000
0001
0100
0000
0010
1000
0000
0001
0000
1000
0000
0001
0010
0100
0000
,
2000
0000
0010
0001
0000
0001
3010
0000
,
0002
0000
0000
2003
0000
0000
3020
0000
0000
0000
0130
0000
0001
1000
0010
0010
;

//---------------dance-single - ----------------
#NOTES:
     dance-single:
     :
     Challenge:
     11:
     0.776648,0.947085,0.214883,0.078790,1.000000,718.000000,30.000000,11.000000,0.000000,0.000000,0.000000,0.776648,0.947085,0.214883,0.078790,1.000000,718.000000,30.000000,11.000000,0.000000,0.000000,0.000000:
// measure 0
0000
0000
0000
0000
,  // measure 1
0000
0000
0000
0000
,  // measure 2
1000
0000
0100
0000
0100
0000
0001
0000
0100
0000
0100
0000
1000
0000
0100
0000
0100
0000
0001
0000
0100
0000
0100
0000
1000
0000
0001
0000
0100
0010
0100
0010
,  // measure 3
1000
0000
0010
0000
0010
0000
0001
0000
0010
0000
0010
0000
1000
0000
0010
0000
0010
0000
0001
0000
0010
0000
0010
0000
1000
0000
0001
0000
0100
0010
0100
0010
,  // measure 4
1000
0000
0100
0000
1000
0000
0001
0000
0100
0000
0001
0000
1000
0000
0100
0000
1000
0000
0001
0000
0100
0000
0001
0000
1000
0000
0001
0000
0100
0010
0100
0010
,  // measure 5
1000
0000
0010
0000
1000
0000
0001
0000
0010
0000
0001
0000
1000
0000
0010
0000
1000
0000
0001
0000
0010
0000
0001
0000
1000
0000
0001
0000
0100
0010
0100
0010
,  // measure 6
2000
0000
0000
0000
0001
3000
0010
0000
0200
0000
0000
0000
1300
0000
0010
0000
0100
0000
0001
0000
1000
0000
0100
0000
0010
0000
0001
0000
1000
0000
0000
0000
,  // measure 7
0101
0000
0000
0000
,  // measure 8
1000
0100
1000
0002
0000
0000
1003
0010
0000
1000
0100
0010
0001
1000
0010
0000
,  // measure 9
0100
0001
0100
0020
0000
0000
1030
0001
0000
1000
0100
1000
0010
0100
0001
0000
,  // measure 10
0100
0010
0100
0002
0000
0000
1003
0100
0000
0010
0001
0010
0100
1000
0001
0000
,  // measure 11
1000
0010
1000
0002
0000
0000
0103
0010
0000
1000
0010
0100
0001
1000
0100
0000
,  // measure 12
1100
1000
0010
0100
0001
0000
1000
0100
1000
0000
0001
0010
0100
1000
0001
0000
,  // measure 13
0101
0100
0010
1000
0001
0000
0010
0100
0010
0000
0001
0010
0100
1000
0001
0000
,  // measure 14
1010
1000
0001
0010
0100
0000
1000
0100
1000
0000
0001
0100
0010
1000
0001
0000
,  // measure 15
0101
0100
0010
1000
0001
0000
1000
0100
0010
0001
1000
0010
0100
0001
1000
0000
,  // measure 16
0020
0000
0000
0000
0000
0000
0000
0000
0130
0000
0000
0000
0001
1000
0001
1000
0001
0000
0000
0000
0100
0000
0000
0000
0010
0000
1000
0000
0100
0010
0100
0010
,  // measure 17
0001
0000
0000
0000
1000
0000
0100
0000
0000
0000
0000
0000
1000
0010
1000
0010
1000
0000
0000
0000
0001
0000
0100
0000
0010
0000
1000
0000
0001
0000
0000
0000
,  // measure 18
0100
0000
0000
0000
0100
0000
0010
0000
0000
0000
0000
0000
1000
0001
1000
0001
1000
0000
0000
0000
0010
0000
0000
0000
0100
0000
0001
0000
0010
0100
0010
0100
,  // measure 19
1000
0000
0000
0000
0001
0000
0010
0000
0000
0000
0000
0000
0001
0100
0001
0100
0001
0000
0000
0000
1000
0000
0010
0000
0100
0000
0001
0000
1000
0000
1000
0000
,  // measure 20
0001
0000
0000
0000
0000
0000
0100
0000
0000
0000
0000
0000
0010
1000
0010
0100
0001
0000
0000
0000
1000
0000
0000
0000
0010
0000
0100
0000
0001
1000
0001
0100
,  // measure 21
0010
0000
0000
0000
1000
0000
0100
0000
0000
0000
0000
0000
0100
1000
0100
0010
0001
0000
0000
0000
1000
0000
0000
0000
0010
0000
1000
0000
0001
0000
0000
0000
,  // measure 22
1001
0000
0000
0000
1000
0000
0010
0000
0000
0000
0000
0000
0100
0001
0100
0010
1000
0000
0000
0000
0001
0000
0000
0000
0100
0000
0010
0000
1000
0001
1000
0010
,  // measure 23
0100
0000
0001
0000
0100
0000
0001
0000
0000
0000
0000
0000
1000
0010
1000
0010
1000
0000
0001
0000
0010
0000
0100
0000
2000
0000
0000
0000
3002
0000
0000
0000
,  // measure 24
0103
0000
0000
0000
,  // measure 25
0000
0000
0000
0000
,  // measure 26
0000
0000
0000
0000
,  // measure 27
0000
0000
0000
0000
,  // measure 28
1100
1100
0101
0101
1010
1010
0011
0011
,  // measure 29
1000
0100
0010
0001
0100
0010
1000
0100
0010
0001
1000
0010
0100
0001
1000
0100
,  // measure 30
0010
0001
0010
0001
1000
0010
1000
0010
0100
0001
0100
0001
1000
0100
1000
0100
0010
0001
0100
0010
1000
0100
0010
0001
0100
0010
1000
0100
1000
0001
0100
0010
,  // measure 31
1000
0000
0000
0000
,  // measure 32
0001
0000
0100
0000
0010
0000
1000
0000
0000
0000
0000
0000
1001
0000
0000
0000
0000
0000
1000
0000
0010
0000
0100
0000
0001
0000
0000
0000
0000
0000
1000
0000
0000
0000
0000
0000
0001
0000
0000
0100
0000
0000
0010
0000
0000
1000
0000
0000
,  // measure 33
0001
0000
0000
0000
0000
0000
1000
0000
0000
0100
0000
0000
1000
0000
0000
0010
0000
0000
0100
0000
0000
0010
0000
0000
1000
0000
0000
0001
0000
0000
1000
0000
0010
0000
1000
0000
0001
0000
0100
0000
0001
0000
1000
0000
0000
0000
0000
0000
,  // measure 34
1000
0000
0010
0000
0100
0000
0001
0000
0000
0000
0000
0000
1001
0000
0000
0000
0000
0000
0001
0000
0100
0000
0010
0000
1000
0000
0000
0000
0000
0000
0001
0000
0000
0000
0000
0000
1000
0000
0000
0010
0000
0000
0100
0000
0000
0001
0000
0000
,  // measure 35
1000
0000
0000
0000
0000
0000
0001
0000
0000
0010
0000
0000
0001
0000
0000
0100
0000
0000
0010
0000
0000
0100
0000
0000
0001
0000
0000
1000
0000
0000
0001
0000
0100
0000
0001
0000
1000
0000
0010
0000
1000
0000
0001
0000
0000
0000
0000
0000
,  // measure 36
1000
0000
0100
0000
1000
0000
0010
0000
0000
0100
0000
0000
0001
0000
0000
1000
0000
0000
0001
0000
0100
0000
0001
0000
1000
0000
0000
0010
0000
0000
0100
0000
0000
0010
0000
0000
1000
0000
0000
0100
0000
0000
1000
0000
0000
0100
0000
0000
,  // measure 37
0010
0000
0000
0001
0000
0000
0100
0000
0000
0010
0000
0000
0100
0000
0000
0001
0000
0000
0010
0000
0000
0001
0000
0000
1000
0000
0000
0100
0000
0000
1000
0000
0010
0000
0100
0000
0001
0000
0010
0000
0100
0000
1000
0000
0000
0000
0000
0000
,  // measure 38
0001
0000
0010
0000
0001
0000
0100
0000
0000
0010
0000
0000
1000
0000
0000
0001
0000
0000
1000
0000
0010
0000
1000
0000
0001
0000
0000
0100
0000
0000
0010
0000
0000
0100
0000
0000
0001
0000
0000
0010
0000
0000
0001
0000
0000
0010
0000
0000
,  // measure 39
0100
0000
0000
1000
0000
0000
0010
0000
0000
0100
0000
0000
0010
0000
0000
1000
0000
0000
0100
0000
0000
1000
0000
0000
0001
0000
0000
0010
0000
0000
0001
0000
0100
0000
0010
0000
1000
0000
0100
0000
0010
0000
0001
0000
0000
1000
0000
0000
,  // measure 40
0020
0000
0130
0001
0101
0000
1000
1100
0100
0010
0011
0000
1000
1001
0001
0000
,  // measure 41
0100
0101
0010
1000
1100
0000
0001
0101
0100
0010
1010
1000
0011
1001
0200
0000
,  // measure 42
1300
0100
0100
0001
1000
0100
0100
0001
1000
0001
1000
0001
0100
0100
1000
0000
,  // measure 43
0001
0000
0010
0000
0010
0000
1000
0000
0001
0000
0010
0000
0010
0000
1000
0000
0001
0000
1000
0000
0010
0000
0010
0000
0001
0000
1000
0000
0010
0100
0010
0100
,  // measure 44
0001
0000
0010
0000
0001
0000
0100
0000
0000
0010
0000
0000
1000
0000
0000
0001
0000
0000
1000
0000
0010
0000
1000
0000
0001
0000
0000
0100
0000
0000
0010
0000
0000
0100
0000
0000
0001
0000
0000
0010
0000
0000
0001
0000
0000
0010
0000
0000
,  // measure 45
0100
0000
0000
1000
0000
0000
0010
0000
0000
0100
0000
0000
0010
0000
0000
1000
0000
0000
0100
0000
0000
1000
0000
0000
0001
0000
0000
0010
0000
0000
0001
0000
0100
0000
0010
0000
1000
0000
0100
0000
0010
0000
0001
0000
0000
0000
0000
0000
,  // measure 46
1000
0000
0100
0000
1000
0000
0010
0000
0000
0100
0000
0000
0001
0000
0000
1000
0000
0000
0001
0000
0100
0000
0001
0000
1000
0000
0000
0010
0000
0000
0100
0000
0000
0010
0000
0000
1000
0000
0000
0100
0000
0000
1000
0000
0000
0100
0000
0000
,  // measure 47
0010
0000
0000
0001
0000
0000
0100
0000
0000
0010
0000
0000
0100
0000
0000
0001
0000
0000
0010
0000
0000
0001
0000
0000
1000
0000
0000
0100
0000
0000
1000
0000
0010
0000
0100
0000
0001
0000
0010
0000
0100
0000
1000
0000
0000
0001
0000
0000
,  // measure 48
0100
0000
0000
0000
0000
0000
0000
0000
0010
0000
0000
0000
0000
0000
0000
0000
0100
0000
0000
0000
0000
0000
0000
0000
0010
0000
0000
0000
0000
0000
0000
0000
0000
0000
0000
0000
1000
0000
0000
0000
0000
0000
0000
0000
0000
0000
0000
0000
0100
0000
0000
0000
0000
0000
0000
0000
0000
0000
0000
0000
0010
0000
0000
0000
0000
0000
0000
0000
0000
0000
0000
0000
0001
0000
0000
0000
0000
0000
0000
0000
0100
0000
0000
0000
0000
0000
0000
0000
0001
0000
0000
0000
0000
0000
0000
0000
0100
0000
0000
0000
0000
0000
0000
0000
0000
0000
0000
0000
0010
0000
0000
0000
0000
0000
0000
0000
0000
0000
0000
0000
1000
0000
0000
0000
0000
0000
0000
0000
0000
0000
0000
0000
0100
0000
0000
0000
0000
0000
0000
0000
0000
0000
0000
0000
1000
0000
0000
0000
0000
0000
0010
0000
0000
0000
0000
0000
1000
0000
0000
0000
0000
0000
0000
0000
0000
0000
0000
0000
0001
0000
0000
0000
0000
0000
0100
0000
0000
0000
0000
0000
0001
0000
0000
0000
0000
0000
0000
0000
0000
0000
0000
0000
,  // measure 49
1000
0000
0000
0000
0000
0000
0000
0000
0000
0000
0000
0000
0010
0000
0000
0000
0000
0000
0000
0000
0000
0000
0000
0000
1000
0000
0000
0000
0000
0000
0001
0000
0000
0000
0000
0000
0100
0000
0000
0000
0000
0000
0010
0000
0000
0000
0000
0000
1000
0000
0000
0000
0000
0000
0100
0000
0000
0000
0000
0000
0010
0000
0000
0000
0000
0000
0001
0000
0000
0000
0000
0000
0010
0000
0000
0000
0000
0000
0001
0000
0000
0000
0000
0000
0100
0000
0000
0000
0000
0000
0010
0000
0000
0000
0000
0000
1000
0000
0000
0000
0000
0000
0000
0000
0000
0000
0000
0000
0001
0000
0000
0000
0000
0000
0000
0000
0000
0000
0000
0000
0100
0000
0000
0000
0000
0000
0000
0000
0010
0000
0000
0000
0000
0000
0000
0000
0100
0000
0000
0000
0000
0000
0000
0000
0001
0000
0000
0000
0000
0000
0000
0000
0100
0000
0000
0000
0000
0000
0000
0000
0001
0000
0000
0000
0000
0000
0000
0000
1000
0000
0000
0000
0000
0000
0000
0000
0000
0000
0000
0000
0000
0000
0000
0000
0000
0000
0000
0000
0000
0000
0000
0000
,  // measure 50
0010
0000
0000
0000
0000
0000
0000
0000
0100
0000
0000
0000
0000
0000
0000
0000
0010
0000
0000
0000
0000
0000
0000
0000
0100
0000
0000
0000
0000
0000
0000
0000
0000
0000
0000
0000
0001
0000
0000
0000
0000
0000
0000
0000
0000
0000
0000
0000
0010
0000
0000
0000
0000
0000
0000
0000
0000
0000
0000
0000
0100
0000
0000
0000
0000
0000
0000
0000
0000
0000
0000
0000
1000
0000
0000
0000
0000
0000
0000
0000
0010
0000
0000
0000
0000
0000
0000
0000
1000
0000
0000
0000
0000
0000
0000
0000
0010
0000
0000
0000
0000
0000
0000
0000
0000
0000
0000
0000
0100
0000
0000
0000
0000
0000
0000
0000
0000
0000
0000
0000
0001
0000
0000
0000
0000
0000
0000
0000
0000
0000
0000
0000
0010
0000
0000
0000
0000
0000
0000
0000
0000
0000
0000
0000
0001
0000
0000
0000
0000
0000
0100
0000
0000
0000
0000
0000
0001
0000
0000
0000
0000
0000
0000
0000
0000
0000
0000
0000
1000
0000
0000
0000
0000
0000
0010
0000
0000
0000
0000
0000
1000
0000
0000
0000
0000
0000
0000
0000
0000
0000
0000
0000
,  // measure 51
0001
0000
0000
0000
0000
0000
0000
0000
0000
0000
0000
0000
0100
0000
0000
0000
0000
0000
0000
0000
0000
0000
0000
0000
0001
0000
0000
0000
0000
0000
1000
0000
0000
0000
0000
0000
0010
0000
0000
0000
0000
0000
0100
0000
0000
0000
0000
0000
0001
0000
0000
0000
0000
0000
0010
0000
0000
0000
0000
0000
0100
0000
0000
0000
0000
0000
1000
0000
0000
0000
0000
0000
0100
0000
0000
0000
0000
0000
1000
0000
0000
0000
0000
0000
0010
0000
0000
0000
0000
0000
0100
0000
0000
0000
0000
0000
0001
0000
0000
0000
0000
0000
0000
0000
0000
0000
0000
0000
1000
0000
0000
0000
0000
0000
0000
0000
0000
0000
0000
0000
0010
0000
0000
0000
0000
0000
0000
0000
0100
0000
0000
0000
0000
0000
0000
0000
0010
0000
0000
0000
0000
0000
0000
0000
1000
0000
0000
0000
0000
0000
0000
0000
0010
0000
0000
0000
0000
0000
0000
0000
1000
0000
0000
0000
0000
0000
0000
0000
0001
0000
0000
0000
0000
0000
0000
0000
0000
0000
0000
0000
0000
0000
0000
0000
0000
0000
0000
0000
0000
0000
0000
0000
,  // measure 52
0101
0000
0010
1000
0000
1000
0001
0000
,  // measure 53
1100
0000
0000
0000
0000
0000
0101
0000
0000
0000
0000
0000
1001
0000
0000
0000
0000
0000
0000
0000
0010
0000
0000
0000
1000
0000
0100
0000
1000
0001
1000
0001
;

//---------------dance-single - ----------------
#NOTES:
     dance-single:
     :
     Medium:
     6:
     0.255813,0.347304,0.035814,0.057302,0.064465,237.000000,5.000000,8.000000,0.000000,0.000000,0.000000,0.255813,0.347304,0.035814,0.057302,0.064465,237.000000,5.000000,8.000000,0.000000,0.000000,0.000000:
0000
0000
0000
0000
,
0000
0000
0000
0000
,
1000
0000
0000
0001
0000
0000
1000
0000
0000
0001
0000
0000
1000
0000
0000
0000
,
0001
0000
0000
1000
0000
0000
0001
0000
0000
1000
0000
0000
0001
0000
0000
0000
,
0100
0000
0000
0010
0000
0000
0100
0000
0000
0010
0000
0000
0100
0000
0000
0000
,
0010
0000
0000
0100
0000
0000
0010
0000
0000
0100
0000
0000
0010
0000
0000
0000
,
1001
0000
1001
0000
1000
0100
0010
0000
,
1001
0000
0000
0000
,
0001
0000
0100
0000
0010
0100
0001
0000
,
1000
0000
0100
0000
0010
0100
1000
0000
,
0010
0000
0100
0000
0001
1000
0010
0000
,
0100
0000
0001
0000
1000
0100
0010
0000
,
0001
0000
0100
0000
0100
0001
1000
0000
,
0100
0000
0010
0000
0010
0001
1000
0000
,
0010
0000
1000
0000
1000
0001
0010
0000
,
0001
0000
0100
0000
0100
0010
1000
0000
,
0202
0000
0303
0000
1000
0100
1000
0000
,
0001
0000
0000
0001
0000
0000
0000
0000
1000
0000
0010
0000
1000
0000
0000
0000
,
0001
0000
0100
0000
0010
1000
0010
0000
,
0100
0000
0000
0100
0000
0000
0000
0000
0001
0000
1000
0000
0001
0000
0000
0000
,
0010
0000
0001
0000
1000
0100
1000
0000
,
0010
0000
0000
0010
0000
0000
0000
0000
1000
0000
0001
0000
1000
0000
0000
0000
,
0010
0000
0100
0000
0001
0010
0001
0000
,
1000
0000
0000
1000
0000
0000
0000
0000
0001
0000
0010
0000
0100
0000
1000
0000
,
0010
0000
0000
0000
,
0000
0000
0000
0000
,
0000
0000
0000
0000
,
0000
0000
0000
0000
,
1000
1000
0001
0001
1000
1000
0001
0001
,
0100
0010
1000
0100
0010
0001
1000
0010
,
0200
0000
0000
0000
,
0310
0000
0000
0000
,
0001
0100
0000
0010
1000
0000
0001
1000
,
0000
0000
0100
0000
0000
0100
0000
0000
0010
0000
0000
0000
0000
0000
0000
0000
,
0001
0010
0000
0100
1000
0000
0010
0100
,
0000
0000
0001
0000
0000
0001
0000
0000
1000
0000
0000
0000
0000
0000
0000
0000
,
0010
1000
0000
0001
0100
0000
0010
1000
,
0000
0000
0100
0000
0000
0010
0000
0000
0001
0000
0000
0000
0000
0000
0000
0000
,
1000
0100
0000
0010
0001
0000
1000
0010
,
0000
0000
0100
0000
0000
0100
0000
0000
0001
0000
0000
0000
1000
0000
0000
0000
,
0020
0000
0130
0000
0001
1000
0100
0000
,
0020
0000
0031
0000
1000
0001
1000
0000
,
0010
0010
0100
0000
0001
1000
0100
0000
,
0010
0010
0001
0000
1000
0100
1000
0000
,
0010
0010
0000
0100
0100
0000
0001
0001
,
0000
1000
0100
1000
0001
0000
1000
0000
,
0010
0010
0000
1000
1000
0000
0001
0001
,
0000
0100
0001
0100
0010
0000
1000
0000
,
0001
0010
0000
0100
1000
0000
0010
0100
,
0000
0000
0001
0000
0000
1000
0000
0000
0010
0000
0100
0000
0010
0000
0000
0000
,
1000
0100
0000
0010
0001
0000
1000
0010
,
0000
0000
0100
0000
0000
0001
0000
0000
0100
0000
0010
0000
0100
0000
0000
0000
,
0002
0103
0020
1030
,
0002
0000
0013
0000
0100
0000
1000
1001
;

//---------------dance-single - ----------------
#NOTES:
     dance-single:
     :
     Easy:
     3:
     0.147348,0.192499,0.057302,0.014326,0.000000,134.000000,8.000000,2.000000,0.000000,0.000000,0.000000,0.147348,0.192499,0.057302,0.014326,0.000000,134.000000,8.000000,2.000000,0.000000,0.000000,0.000000:
0000
0000
0000
0000
,
0000
0000
0000
0000
,
1000
0000
0000
0100
,
0010
0000
0000
0001
,
0100
0000
0000
0010
,
1000
0000
0000
0001
,
0100
0100
0010
0010
,
1001
0000
0000
0000
,
0110
0000
0100
0001
,
1000
0000
0100
1000
,
0010
0000
1000
0001
,
0010
0000
0000
0000
0000
0001
0001
0000
,
1000
0100
0000
1000
,
0010
0100
0000
0001
,
1000
0010
0000
0100
,
0001
0000
1000
0000
0000
0100
0100
0000
,
0000
0000
1000
0001
,
0100
0000
0010
0010
,
1000
0001
0010
0000
,
0001
0001
1000
0000
,
0100
1000
0010
0000
,
0100
0100
0001
1000
,
0010
0010
0000
1000
,
0000
0001
0000
0100
,
0100
0000
0000
0000
,
0000
0000
0000
0000
,
0000
0000
0000
0000
,
0000
0000
0000
0000
,
1000
0010
0001
0100
,
1000
1000
0001
0001
,
1000
0100
0010
0001
,
1000
0000
0000
0000
,
1001
0000
0010
0000
,
1000
0001
0100
0010
,
1000
0000
0001
0000
,
1000
0100
0010
0001
,
0100
0000
0010
0000
,
1000
0010
0100
0001
,
1000
0000
0100
0000
,
1000
0001
1000
0010
,
0100
0000
0001
0000
,
1000
0000
0010
0000
,
1000
0100
0010
0001
,
0100
0010
1000
0001
,
1001
0000
0100
0000
,
1000
0100
0010
0000
,
1001
0000
0010
0000
,
0100
0001
1000
0000
,
1001
0000
1000
0000
,
0010
0100
0001
0000
,
1001
0000
0001
0000
,
0100
0001
1000
0000
,
0020
0000
0030
0000
,
0200
0000
0300
1001
;

//---------------dance-single - ----------------
#NOTES:
     dance-single:
     :
     Beginner:
     1:
     0.108465,0.153999,0.071628,0.000000,0.000000,96.000000,10.000000,0.000000,0.000000,0.000000,0.000000,0.108465,0.153999,0.071628,0.000000,0.000000,96.000000,10.000000,0.000000,0.000000,0.000000,0.000000:
0000
0000
0000
0000
,
0000
0000
0000
0000
,
0001
0000
0000
0000
,
1000
0000
0000
0000
,
0010
0000
0000
0000
,
0100
0000
0000
0000
,
1001
0000
0010
0010
,
0000
0000
0000
0000
,
1001
0000
0000
1000
,
1000
0000
0000
0001
,
0001
0000
0000
0100
,
0100
0000
0010
0000
,
1001
0000
0000
0010
,
0010
0000
0000
0001
,
0001
0000
0000
1000
,
1000
0000
0010
0000
,
0000
0000
1000
0000
,
0001
0000
0100
0000
,
0100
0000
0010
0000
,
1000
0000
0001
0000
,
1000
1000
0000
0000
,
0001
0001
0000
0000
,
0100
0100
0000
0000
,
0010
0010
0000
0000
,
1001
0000
0000
0000
,
0000
0000
0000
0000
,
0000
0000
0000
0000
,
0000
0000
0000
0000
,
1000
0000
0001
0000
,
0100
0000
0100
0000
,
0010
0010
0010
0010
,
0010
0000
0000
0000
,
1001
0000
0010
0000
,
1000
1000
0000
0001
,
0001
0000
1000
0000
,
0010
0010
0000
0100
,
0100
0000
0001
0000
,
1000
1000
0000
0100
,
0100
0000
0010
0000
,
0001
0001
0000
1000
,
1000
0000
0010
0000
,
1001
0000
0100
0000
,
0110
0000
0010
0000
,
1001
0000
1000
1000
,
0010
0000
0000
0000
,
0100
0100
0100
0000
,
0001
0000
0000
0000
,
1000
1000
1000
0000
,
0010
0000
0000
0000
,
0100
0100
0100
0000
,
0001
0000
0000
0000
,
1000
1000
1000
0000
,
1001
0000
0000
0000
,
0010
0000
0000
1001
;

//---------------dance-double - ----------------
#NOTES:
     dance-double:
     :
     Challenge:
     9:
     0.491161,0.637463,0.071628,0.193395,0.522881,443.000000,10.000000,27.000000,0.000000,0.000000,0.000000,0.491161,0.637463,0.071628,0.193395,0.522881,443.000000,10.000000,27.000000,0.000000,0.000000,0.000000:
00000000
00000000
00000000
00000000
,
00000000
00000000
00000000
00000000
,
10000000
00000000
10000000
01000000
00000000
01000000
00100000
00000000
00100000
00010000
00000000
00010000
01000000
00100000
00000000
00000000
,
01000000
00000000
01000000
00010000
00000000
00010000
00100000
00000000
00100000
00001000
00000000
00001000
00010000
00000100
00000000
00000000
,
00001000
00000000
00001000
00000010
00000000
00000010
00000100
00000000
00000100
00000001
00000000
00000001
00001000
00000100
00000000
00000000
,
00000010
00000000
00000010
00000001
00000000
00000001
00001000
00000000
00001000
00000010
00000000
00000010
00000100
00000001
00000000
00000000
,
00002100
00000000
00000000
00003010
00000200
00000000
00000000
00000000
00000301
00000010
00000100
00001000
00000002
00000000
00000000
00000000
,
00000103
00000000
00000000
00000000
,
00001001
00000000
00001000
00000200
00000000
00000000
00020300
00000000
00000000
00000000
00031000
00020000
00000000
00000000
00030200
00000000
,
00001300
00000000
00000001
00000200
00000000
00000000
00000320
00000000
00000000
00000000
00001030
00000200
00000000
00000000
00000310
00000000
,
00000001
00000000
00001000
00000200
00000000
00000000
00020300
00000000
00000000
00000000
00031000
00020000
00000000
00000000
00030200
00000000
,
00001300
00000000
00000010
00000200
00000000
00000000
00000302
00000000
00000000
00000000
00001003
00000000
00000100
00000000
00010000
00001000
,
00100000
00000000
00010000
01000000
00000000
01000000
00100000
00000000
00000000
00000000
10000000
01000000
00000000
01000000
00100000
00000000
,
00010000
00000000
10000000
00100000
00000000
00100000
01000000
00000000
00000000
00000000
00010000
00100000
00000000
00100000
00001000
00000000
,
00100000
00000000
00010000
01000000
00000000
01000000
00100000
00000000
00000000
00000000
10000000
00100000
00000000
00100000
01000000
00000000
,
00010000
00000000
00100000
00001000
00000000
00001000
00010000
00000000
00000000
00000000
00000100
00001000
00000000
00001000
00000010
00000000
,
00000200
00000000
00000000
00000000
00000310
00000000
00001000
00000100
00001000
00000000
00000001
00000000
00000100
00000000
00000010
00001000
,
00000010
00000000
00000000
00000100
00000000
00000000
00000001
00001000
00000001
00000000
00000010
00000000
00000100
00000000
00001000
00000000
,
00000010
00000000
00000000
00001000
00000000
00000000
00000100
00010000
00000100
00000000
00010000
00000000
00001000
00000000
00100000
00010000
,
00100000
00000000
00000000
00001000
00000000
00000000
00100000
00010000
00100000
00000000
00010000
00000000
01000000
00000000
00100000
00000000
,
10000000
01000000
10000000
01000000
00000000
00000000
10000000
00010000
10000000
00000000
00100000
00000000
01000000
00010000
01000000
00000000
,
00010000
10000000
00010000
10000000
00000000
00000000
00100000
10000000
00100000
00000000
01000000
00000000
00010000
00100000
00010000
00000000
,
00100000
00001000
00100000
00001000
00000000
00000000
00010000
00001000
00010000
00000000
00000100
00000000
00010000
00001000
00010000
00000000
,
00000100
00001000
00000100
00001000
00000000
00000000
00000010
00000100
00000010
00000000
00000100
00000001
00000100
00000000
00000010
00000000
,
00001001
00000000
00000000
00000000
,
00000000
00000000
00000000
00000000
,
00000000
00000000
00000000
00000000
,
00000000
00000000
00000000
00000000
,
00010100
00000100
00010000
00010000
00011000
00001000
00100000
00100000
,
00010000
00100000
00010000
00100000
00010000
00100000
00010000
00100000
00001000
00010000
00001000
00010000
00001000
00010000
00001000
00010000
,
00000100
00010000
00000100
00010000
00001000
00010000
00001000
00010000
00001000
00100000
00001000
00100000
00001000
00010000
00001000
00010000
,
00000100
00000000
00000000
00000000
,
00100100
00000000
00000000
00000000
00000000
00000000
00011000
00000000
00000000
00000000
00000000
00000000
00001000
00010000
00001000
00000000
,
00000000
00000000
00100000
00010000
00000000
00100000
00001000
00000000
00100000
00000000
00000100
00000000
00010000
00001000
00010000
00000000
,
00100100
00000000
00000000
00000000
00000000
00000000
00011000
00000000
00000000
00000000
00000000
00000000
00001000
00010000
00001000
00000000
,
00000000
00000000
00100000
00001000
00000000
00010000
00000100
00000000
00100000
00000000
00001000
00000000
00010000
00001000
00010000
00000000
,
00001000
00100000
00001000
00100000
00010000
00000000
01000000
00000000
00100000
00000000
10000000
00000000
00010000
00100000
00010000
00000000
,
10000000
00000000
01000000
00100000
01000000
00100000
00010000
00000000
10000000
00000000
00100000
00000000
01000000
00010000
01000000
00000000
,
00001000
00100000
00001000
00000000
00100000
00000000
00000100
00010000
00000100
00000000
00010000
00000000
00001000
00010000
00001000
00000000
,
00010000
00000000
00000100
00001000
00000100
00001000
00000010
00000000
00000100
00000000
00000001
00000000
00001000
00000010
00000100
00000000
,
00000002
00000000
00000103
00000010
00002000
00000000
00000000
00000000
00003100
00010000
00000100
00000000
00002000
00000000
00003002
00000000
,
00000103
00000020
00000000
00000000
00001030
00000000
00000100
00010000
00001000
00010000
00000100
00000000
00100000
00001000
00100000
00000000
,
00020000
00000000
00000000
01030000
00200000
00000000
10300000
02000000
00000000
00000000
03100000
00000000
00010000
10000000
00010000
00000000
,
10000000
01000000
00010000
00001000
00000200
00000000
00000000
00000000
00000301
00001000
00000001
00000000
00001000
00000000
00000000
00000000
,
00000100
00000010
00000100
00000000
00000010
00000000
00000001
00000010
00000001
00000000
00001000
00000000
00000010
00001000
00000010
00000000
,
00000100
00000000
00000001
00001000
00000000
00000001
00001000
00000000
00000100
00000000
00010000
00000000
00001000
00010000
00001000
00000000
,
00100000
00010000
00100000
00000000
00001000
00000000
00010000
00001000
00010000
00000000
00000100
00000000
00010000
00001000
00010000
00000000
,
00001000
00000000
00100000
00010000
00000000
00010000
00100000
00000000
00010000
00000000
01000000
00000000
00100000
10000000
00100000
00000000
,
10000000
01000000
00100000
00000000
00010000
00000000
10000000
00100000
01000000
00000000
00010000
00000000
10000000
00010000
10000000
00000000
,
00100000
00000000
01000000
00010000
00000000
00010000
00100000
00000000
00001000
00000000
00010000
00000000
00000100
00001000
00000100
00000000
,
00001000
00000010
00000100
00000000
00000001
00000000
00001000
00000100
00000010
00000000
00000001
00000000
00001000
00000010
00000100
00000000
,
00000001
00000000
00001000
00000100
00000000
00000100
00000010
00000000
00000001
00000000
00001000
00000000
00000010
00000100
00000001
00000000
,
00002001
00000000
00000010
00000100
00000000
00000100
00003010
00000000
,
00000001
00000000
00000100
00000000
00001000
00000000
00010000
00000000
01000000
00000000
10000000
00000000
00010000
01000000
00001000
00001000
;
