#TITLE:G.D.F.R;
#SUBTITLE:(Going Down For Real);
#ARTIST:Flo Rida;
#TITLETRANSLIT:;
#SUBTITLETRANSLIT:;
#ARTISTTRANSLIT:;
#GENRE:Horn Lick;
#CREDIT:;
#BANNER:G.D.F.R.png;
#BACKGROUND:G.D.F.R-bg.png;
#LYRICSPATH:;
#CDTITLE:;
#MUSIC:G.D.F.R.ogg;
#OFFSET:-0.057000;
#SAMPLESTART:11.976917;
#SAMPLELENGTH:13.714000;
#SELECTABLE:YES;
#BPMS:0.000000=146.000000
;
#STOPS:
;
#BGCHANGES:8.000=G.D.F.R.avi=1.000=0=0=1=====,
99999=-nosongbg-=1.000=0=0=0 // don't automatically add -songbackground-
;
#KEYSOUNDS:;
#ATTACKS:;

//---------------dance-single - ----------------
#NOTES:
     dance-single:
     :
     Hard:
     8:
     0.588109,0.617654,0.201363,0.231195,0.160345,494.000000,27.000000,31.000000,0.000000,0.000000,0.000000,0.588109,0.617654,0.201363,0.231195,0.160345,494.000000,27.000000,31.000000,0.000000,0.000000,0.000000:
0000
0000
0000
0000
,
0000
0000
0000
0000
,
0000
0000
0000
0000
,
0000
0000
0000
0000
,
1000
0000
0000
0001
0000
0000
0100
0000
,
0000
0010
0010
0000
0010
0000
0000
0000
,
0100
0000
0001
0000
1000
0000
0100
0010
,
0001
0000
0000
0000
,
1000
0010
0100
0001
1000
1000
0001
1000
,
0001
0001
0010
0001
1000
1000
0010
0000
,
0001
0100
0010
1000
0001
0001
1000
0001
,
1000
1000
0100
1000
0001
0001
0100
0000
,
0010
0010
0100
0001
1000
0001
0100
0100
,
0010
0010
0100
0001
1000
1000
0100
0000
,
0010
0002
0000
1003
0020
0000
0130
0002
,
0000
1003
0200
0000
0310
0000
0110
0000
,
0001
0010
0001
1000
0010
0010
0100
0000
,
0001
0000
1000
0100
1100
0000
0011
0000
,
1000
0000
0000
0000
0001
0100
0000
0000
1000
0000
0000
0000
0001
0100
0000
0000
,
0010
0000
0100
0000
0001
0000
1000
0000
0100
0000
0000
0000
1000
0001
1000
0000
,
0010
0100
0000
0000
0100
0001
0000
0000
0001
1000
0000
0000
1000
0100
0000
0000
,
0100
0010
0001
0010
0100
0000
1000
0001
,
0100
0010
0000
0000
2000
0000
0000
0000
3001
0100
0000
0000
0020
0000
0000
0000
,
1030
0000
0100
0000
1000
0000
0001
0000
0020
0000
0000
0000
0031
1000
0001
0000
,
0100
0000
0000
0100
0000
0000
0010
0000
1000
0000
0000
1000
0000
0000
0001
0000
,
0010
0000
0001
0000
1000
0000
0010
0000
0100
0000
0000
0100
0000
0000
0001
0000
,
0100
0000
0001
0000
1000
0000
0010
0000
0100
0000
0000
0100
0000
0000
0010
0000
,
0100
0000
0001
0000
0010
0000
0100
0000
1000
0000
0000
1000
0000
0000
0100
0000
,
1000
0010
1000
0001
0010
0100
1000
0010
,
0100
0000
0001
0000
1000
0000
0010
0000
0100
0000
0000
0100
0000
0000
0000
0000
,
0010
0100
0000
0000
0001
1000
0000
0000
1010
0000
0000
0101
0000
0000
0000
0000
,
1000
0100
0000
0000
0010
0001
0000
0000
1100
0000
0000
1001
0000
0000
0000
0000
,
0010
1000
0100
0010
0002
0000
1003
0010
,
0020
0000
0130
0000
0110
0000
0001
0100
,
0010
0000
1000
0100
0010
0000
0001
1000
,
0000
0010
0100
0000
1001
0000
0010
0000
,
1000
0100
0010
0001
2000
0000
3001
0100
,
0100
0010
0020
0000
1030
0000
0001
1000
,
0100
0010
0001
1000
0010
1000
0002
0000
,
0103
0000
0000
0000
,
0001
0100
1000
0100
0001
0001
1000
1000
,
0001
0010
1000
0010
0001
0001
1000
0000
,
0010
1000
0100
0010
0001
0001
1000
1000
,
0010
1000
0001
0001
0100
0100
0010
0000
,
1000
0010
0001
0010
1000
1000
0001
0001
,
1000
0100
0001
0100
1000
1000
0001
0000
,
0100
0020
0000
1030
0200
0000
0310
0002
,
0000
1003
0020
0000
0130
0000
1001
0000
,
0010
0000
1000
0000
0100
0000
0010
0000
0001
1000
0001
0000
0100
0000
0010
0000
,
0100
0000
0001
0000
0010
0000
0100
0000
1000
0100
1000
0000
0001
0000
0000
0000
,
1000
0000
0010
0000
1000
0000
0001
0000
0100
0010
0100
0000
0001
0000
1000
0000
,
0100
0000
0010
0000
0001
0000
1000
0000
0010
0100
0010
0000
1000
0000
0000
0000
,
0001
0000
0100
0000
0010
0000
1000
0000
0001
0010
0001
0000
0100
0000
0010
0000
,
0100
0000
0001
0000
0010
0000
0100
0000
1000
0100
1000
0000
0001
0000
0000
0000
,
0100
0020
0000
1030
0200
0000
0310
0002
,
0000
1003
0020
0000
0130
0000
1001
0000
,
0010
1010
0000
0000
0100
0101
0000
0000
,
0001
1001
0000
0000
0010
0110
0000
0000
,
0001
0011
0000
0000
1000
1100
0000
0000
,
0001
0101
0000
0000
1000
1010
0000
0000
,
1001
0020
0000
0030
1100
0002
0000
0003
,
0101
2000
0000
3000
1100
0020
0000
0030
,
0101
0100
0010
1000
1010
1000
0001
0010
,
0011
1000
0100
0010
0002
0000
1000
1003
,
0010
0000
0100
0000
0001
0000
1000
0000
0010
0100
0010
0000
1000
0000
0001
0000
,
0010
0000
0100
0000
1000
0000
0001
0000
1000
0010
1000
0000
0001
0000
0000
0000
,
0100
0000
0010
0000
0100
0000
0001
0000
1000
0100
1000
0000
0010
0000
1000
0000
,
0100
0000
0010
0000
0001
0000
1000
0000
0010
0100
0010
0000
1000
0000
0000
0000
,
0001
0000
0010
0000
0100
0000
1000
0000
0001
0010
0001
0000
1000
0000
0001
0000
,
0100
0000
0010
0000
1000
0000
0001
0000
0010
0100
0010
0000
0001
0000
0000
0000
,
0100
0020
0000
1030
0200
0000
0310
0002
,
0000
1003
0020
0000
0130
0000
1001
0000
,
0010
0000
1000
0000
0100
0000
0010
0000
0001
1000
0001
0000
0100
0000
0010
0000
,
1000
0000
0001
0000
0010
0000
0100
0000
1000
0100
1000
0100
1000
0000
0000
0000
,
0010
0000
1000
0000
0100
0000
0010
0000
0001
1000
0001
0000
0100
0000
0010
0000
,
1000
0000
0100
0000
0010
0000
0001
0000
0100
0010
0100
0010
0100
0000
0000
0000
,
0001
0000
0100
0000
0010
0000
1000
0000
0001
0010
0001
0000
0100
0000
0001
0000
,
0010
0000
0100
0000
1000
0000
0001
0000
1000
0010
1000
0010
1000
0000
0000
0000
,
0001
0020
0000
0130
2000
0000
3010
0100
;

//---------------dance-single - ----------------
#NOTES:
     dance-single:
     :
     Medium:
     5:
     0.280204,0.323533,0.067121,0.022374,0.000000,251.000000,9.000000,3.000000,0.000000,0.000000,0.000000,0.280204,0.323533,0.067121,0.022374,0.000000,251.000000,9.000000,3.000000,0.000000,0.000000,0.000000:
0000
0000
0000
0000
,
0000
0000
0000
0000
,
0000
0000
0000
0000
,
0000
0000
0000
0000
,
1000
0000
0001
0000
,
0100
0000
0100
0000
,
0010
1000
0100
0010
,
1001
0000
0000
0000
,
0010
0000
1000
0000
0010
0010
1000
0000
,
0010
0000
1000
0000
0010
0010
0000
0000
,
0100
0000
0001
0000
0100
0100
0001
0000
,
0100
0000
0001
0000
0100
0100
0000
0000
,
0001
0000
1000
0000
0001
0001
1000
0000
,
0001
0000
1000
0000
0001
0001
0000
0000
,
0010
0000
0010
0000
,
0001
0010
0100
1000
,
0010
0000
1000
0000
,
0001
0000
0110
0110
,
0001
0000
1000
0000
,
0100
0000
0110
0110
,
0001
0000
1000
0000
,
0010
1000
0001
0000
,
0100
0000
0100
0000
,
0010
0100
0001
0000
,
1000
0001
0100
0100
,
0010
0000
0100
0000
0001
1000
0001
0000
,
0010
0000
0001
0000
,
1000
0010
0001
0000
,
0100
0010
0100
0001
,
1000
0100
0100
0000
,
0010
0001
1000
0010
,
0100
0100
0100
0000
,
0002
0000
0100
0000
,
1000
0000
1003
0000
,
2000
0000
0100
0000
,
0010
0000
3001
0000
,
0200
0000
0010
0000
,
0001
0000
0301
0000
,
0001
0010
0100
1000
,
1001
0000
0000
0000
,
0010
0000
1000
0000
0010
0010
1000
0000
,
0010
0000
1000
0000
0010
0010
0000
0000
,
0100
0100
0001
0000
0100
0000
0001
0000
,
0100
0000
0001
0000
0100
0100
0000
0000
,
0001
0001
1000
0000
0001
0000
1000
0000
,
0001
0000
1000
0000
0001
0001
0000
0000
,
0010
0000
0001
0000
,
1000
0010
0100
0000
,
0001
0001
0000
0000
1000
0000
0010
0000
,
1000
0001
0100
0000
,
0010
0010
0000
0000
0100
0000
0001
0000
,
0010
0001
1000
0000
,
0100
0100
0000
0000
1000
0000
0010
0000
,
1000
0001
0100
0000
,
0010
0000
1000
0000
,
0001
0010
0100
1000
,
0010
0000
0010
0000
,
1000
0000
1001
0000
,
0100
0000
0100
0000
,
0010
0000
0110
0000
,
0001
0001
0000
0000
1000
1000
0000
0000
,
0010
0010
0000
0000
0100
0100
0000
0000
,
0001
0100
0010
1000
,
0001
0100
0010
1000
0000
0000
0000
0000
,
1001
0100
1000
0010
,
0100
0000
0001
0000
1000
1000
0000
0000
,
0100
1000
0001
0010
,
0001
0000
1000
0000
0010
0010
0000
0000
,
0100
0001
0010
0001
,
1000
0000
0010
0000
0100
0100
0000
0000
,
0010
0000
1000
0000
,
0001
1000
0100
0000
,
0010
0010
0001
0000
1000
0000
0001
0000
,
0100
0000
0010
0000
1000
1000
0000
0000
,
0100
0100
1000
0000
0010
0000
0100
0000
,
0001
0000
1000
0000
0010
0010
0000
0000
,
0100
0100
0001
0000
0010
0000
0001
0000
,
1000
0000
0010
0000
0100
0100
0000
0000
,
0001
0000
0100
0000
0010
0000
1000
0100
;

//---------------dance-single - ----------------
#NOTES:
     dance-single:
     :
     Easy:
     3:
     0.197102,0.264289,0.052205,0.029832,0.000000,174.000000,7.000000,4.000000,0.000000,0.000000,0.000000,0.197102,0.264289,0.052205,0.029832,0.000000,174.000000,7.000000,4.000000,0.000000,0.000000,0.000000:
0000
0000
0000
0000
,
0000
0000
0000
0000
,
0000
0000
0000
0000
,
0000
0000
0000
0000
,
1000
0000
0001
0000
,
0200
0300
0000
0000
,
0010
0000
1000
0000
,
0002
0003
0000
0000
,
1000
0000
0010
0000
,
1000
0000
0001
0000
,
0100
0000
0010
0000
,
0100
0000
0001
0000
,
0010
0000
0100
0000
,
1000
0000
0001
0000
,
0100
0000
0100
0000
,
0010
0000
1000
1000
,
0001
0000
1000
0000
,
0010
0000
0100
0100
,
0010
0000
1000
0000
,
0001
0000
0010
0010
,
0100
0000
1000
0000
,
0001
1000
0010
0000
,
0100
0000
0100
0000
,
0001
0100
0010
0000
,
1000
0000
0001
0000
,
1000
0100
0010
0000
,
0001
0000
1000
0000
,
0010
0100
0001
0000
,
1000
1000
0100
0000
,
0010
0010
0001
0000
,
0100
0000
0010
0000
,
1000
0001
1000
0000
,
0100
0100
0010
0010
,
0001
0000
1000
0000
,
0010
0000
0100
0000
,
0002
0003
0000
0000
,
0100
0100
0010
0010
,
1000
0000
0001
0000
,
1000
0000
0100
0000
,
0020
0030
0000
0000
,
1001
0000
0100
0000
,
0010
0000
0010
0000
,
1000
0000
0001
0000
,
0010
0001
1000
0000
,
0010
0000
0010
0000
,
1000
0000
0001
0000
,
0100
0000
0100
0000
,
0010
0000
1000
1000
,
0001
0000
1000
0000
,
0100
0010
0001
0000
,
1000
0000
0001
0000
,
0100
0010
1000
0000
,
0010
0000
1000
0000
,
0001
1000
0100
0000
,
0010
0000
0010
0000
,
0001
0000
0100
0100
,
0010
0000
1000
0000
,
0001
0000
1001
0000
,
0100
0000
0010
0000
,
1000
0000
0110
0000
,
0001
0000
1000
0000
,
0010
0000
1001
0000
,
0100
0100
0010
0010
,
1001
0000
0000
0000
,
0110
0000
1000
0000
,
0010
0010
0100
0000
,
0001
0000
1000
0000
,
0100
0100
0010
0000
,
0001
0000
1000
0000
,
0010
0010
0100
0000
,
0001
0000
1000
0000
,
0100
0000
0100
0000
,
1001
0000
0010
1000
,
0010
0010
0000
0000
,
1000
0000
0001
0100
,
0001
0001
0000
0000
,
1000
0000
0001
1000
,
0001
0001
0000
0000
,
0010
0000
0010
0010
;

//---------------dance-single - ----------------
#NOTES:
     dance-single:
     :
     Beginner:
     1:
     0.110803,0.176193,0.044747,0.000000,0.000000,98.000000,6.000000,0.000000,0.000000,0.000000,0.000000,0.110803,0.176193,0.044747,0.000000,0.000000,98.000000,6.000000,0.000000,0.000000,0.000000,0.000000:
0000
0000
0000
0000
,
0000
0000
0000
0000
,
0000
0000
0000
0000
,
0000
0000
0000
0000
,
1000
0000
0000
0000
,
0001
0000
0000
0000
,
0100
0000
0100
0000
,
0100
0000
0000
0000
,
1001
0000
0000
0000
,
0010
0000
0010
0000
,
0100
0000
0000
0000
,
0001
0000
0000
0000
,
1000
0000
0000
0000
,
0100
0000
0000
0000
,
0010
0000
0010
0000
,
0010
0000
0000
0000
,
1001
0000
0000
0000
,
0000
0000
0010
0010
,
0000
0000
0000
0000
,
0000
0000
1000
1000
,
0000
0000
0000
0000
,
0000
0000
0001
0001
,
0000
0000
0000
0000
,
0000
0000
0000
0000
,
0110
0000
0000
0000
,
0000
0001
0001
0000
,
0001
0000
0000
0000
,
0000
1000
1000
0000
,
1000
0000
0000
0000
,
0000
0100
0100
0000
,
0100
0000
0000
0000
,
0010
0000
0000
0000
,
1001
0000
0000
0000
,
0010
0000
0000
0000
,
0100
0000
0100
0000
,
0100
0000
0000
0000
,
1001
0000
0000
0000
,
0100
0000
0000
0000
,
0010
0000
0010
0000
,
0010
0000
0000
0000
,
0001
0000
0000
0000
,
1000
0000
0000
0000
,
0010
0000
0000
0000
,
0000
0100
0100
0000
,
0100
0000
0000
0000
,
0001
0000
0000
0000
,
1000
0000
0000
0000
,
0000
0010
0010
0000
,
0010
0000
0000
0000
,
1000
0000
0000
0000
,
0001
0000
0000
0000
,
0000
1000
1000
0000
,
1000
0000
0000
0000
,
0100
0000
0000
0000
,
0010
0000
0000
0000
,
0000
0001
0001
0000
,
0001
0000
0000
0000
,
1000
0000
0000
0000
,
0010
0000
0000
0000
,
0100
0000
0000
0000
,
0001
0001
0000
0000
,
1000
1000
0000
0000
,
0100
0100
0000
0000
,
0010
0010
0000
0000
,
1001
0000
0000
0000
,
0010
0000
0010
0000
,
0100
0000
0000
0000
,
0000
0001
0001
0000
,
0001
0000
0000
0000
,
1000
0000
1000
0000
,
0100
0000
0000
0000
,
0000
0010
0010
0000
,
0010
0000
0000
0000
,
0001
0000
0001
0000
,
1000
0000
0000
0000
,
0000
0010
0010
0000
,
0010
0000
0000
0000
,
0100
0000
0100
0000
,
0001
0000
0000
1000
;

//---------------dance-double - ----------------
#NOTES:
     dance-double:
     :
     Challenge:
     8:
     0.547623,0.528579,0.111869,0.119326,0.052205,483.000000,15.000000,16.000000,0.000000,0.000000,0.000000,0.547623,0.528579,0.111869,0.119326,0.052205,483.000000,15.000000,16.000000,0.000000,0.000000,0.000000:
// measure 0
00000000
00000000
00000000
00000000
,  // measure 1
00000000
00000000
00000000
00000000
,  // measure 2
00000000
00000000
00000000
00000000
,  // measure 3
00000000
00000000
00000000
00000000
,  // measure 4
10000000
00010000
00100000
01000000
,  // measure 5
10000000
00000000
00000000
00000000
00010000
00000000
01000000
00100000
,  // measure 6
01000000
00000000
00010000
00000000
10000000
01000000
00010000
00000000
,  // measure 7
00001000
00000100
00000001
00000100
00000001
00000000
00001000
00000000
,  // measure 8
00000001
00000100
00001000
00010000
00001000
00010000
00001000
00000100
,  // measure 9
00001000
00000100
00001000
00010000
00001000
00000100
00000001
00000000
,  // measure 10
00000001
00000100
00001000
00010000
00001000
00010000
00001000
00000100
,  // measure 11
00001000
00000100
00001000
00010000
00001000
00000100
00000001
00000000
,  // measure 12
00000001
00000100
00001000
00010000
00001000
00010000
00001000
00000100
,  // measure 13
00001000
00000100
00001000
00010000
00001000
00000100
00000001
00000000
,  // measure 14
00001000
00000200
00000000
00010300
00002000
00000000
01003000
00020000
,  // measure 15
00000000
10030000
01000000
00100000
00010000
00000000
11000000
00000000
,  // measure 16
00010000
01000000
00100000
10000000
01000000
00100000
00020000
00000000
,  // measure 17
10030000
00000000
00100000
01000000
01100000
00000000
10010000
00000000
,  // measure 18
00100000
00000000
00000000
00000000
10000000
00010000
00000000
00000000
10010000
00000000
00000000
00000000
10000000
00000000
01000000
00000000
,  // measure 19
00010000
00000000
00001000
00000000
00000100
00000000
00000001
00000000
00001000
00000000
00000000
00000000
00000001
00000100
00000001
00000000
,  // measure 20
00001000
00000010
00000000
00000000
00001000
00000001
00000000
00000000
00001000
00000100
00000000
00000000
00001000
00000010
00000000
00000000
,  // measure 21
00001000
00000100
00000010
00000001
00002000
00000000
00003010
00000100
,  // measure 22
00000001
00000000
00001010
00000000
00000001
00001000
00000100
00000000
,  // measure 23
00001000
00000100
00010000
00001000
00100000
00000000
00101000
00000000
,  // measure 24
00010000
00000000
00000000
00100000
00000000
00000000
00010000
00000000
10000000
00000000
00000000
00100000
00000000
00000000
10000000
00000000
,  // measure 25
01000000
00000000
00100000
00000000
00010000
00000000
01000000
00000000
00100000
00000000
00000000
00100000
00000000
00000000
00000000
00000000
,  // measure 26
10000000
00000000
01000000
00000000
00100000
00000000
00010000
00000000
01000000
00000000
00000000
01010000
00000000
00000000
00000000
00000000
,  // measure 27
00010000
00000000
00100000
00000000
01000000
00000000
10000000
00000000
00100000
00000000
00000000
10100000
00000000
00000000
00000000
00000000
,  // measure 28
10000000
01000000
00010000
00000000
01000000
10000000
00100000
00000000
,  // measure 29
01000000
00000000
00010000
00100000
00000000
00001000
00010000
00000000
00000010
00000000
00000000
00001000
00000000
00000000
00000000
00000000
,  // measure 30
00000001
00001000
00000001
00001000
00000010
00000000
00000010
00000000
,  // measure 31
00001000
00000001
00001000
00000001
00000010
00000000
00000010
00000000
,  // measure 32
00000001
00000100
00000001
00000100
00000020
00000000
00001030
00000100
,  // measure 33
00000020
00000000
00000031
00000000
00001000
00000000
00000010
00001000
,  // measure 34
00000001
00000000
00000100
00000001
00001000
00000000
00000100
00010000
,  // measure 35
00001000
00001000
00011000
00010010
,  // measure 36
00001000
00000010
00000100
00000001
00002000
00000000
00003100
00000010
,  // measure 37
00000002
00000000
00001003
00000000
00000001
00000000
00000100
00000010
,  // measure 38
00000100
00000000
00000001
00000010
00000100
00001000
00000010
00000000
,  // measure 39
00010000
00001000
00010000
00001000
00200000
00000000
00310000
10000000
,  // measure 40
10000000
00100000
00010000
00001000
00010000
00001000
00010000
00100000
,  // measure 41
00010000
00100000
00010000
00001000
00010000
00100000
10000000
00000000
,  // measure 42
10000000
00100000
00010000
00001000
00010000
00001000
00010000
00100000
,  // measure 43
00010000
00100000
00010000
00001000
00010000
00100000
10000000
00000000
,  // measure 44
10000000
00100000
00010000
00001000
00010000
00001000
00010000
00100000
,  // measure 45
00010000
00100000
00010000
00001000
00010000
00100000
10000000
00000000
,  // measure 46
00010000
00200000
00000000
00301000
00020000
00000000
00030010
00002000
,  // measure 47
00000000
00003001
00000010
00000100
00001000
00000000
00000011
00000000
,  // measure 48
00000001
00000100
00001000
00010000
00001000
00010000
00001000
00000100
,  // measure 49
00001000
00000100
00001000
00010000
00001000
00000100
00000001
00000000
,  // measure 50
00000001
00000100
00001000
00010000
00001000
00010000
00001000
00000100
,  // measure 51
00001000
00000100
00001000
00010000
00001000
00000100
00000001
00000000
,  // measure 52
00000001
00000100
00001000
00010000
00001000
00010000
00001000
00000100
,  // measure 53
00001000
00000100
00001000
00010000
00001000
00000100
00000001
00000000
,  // measure 54
00001000
00000200
00000000
00010300
00002000
00000000
01003000
00020000
,  // measure 55
00000000
10030000
01000000
00100000
00010000
00000000
11000000
00000000
,  // measure 56
00010000
00000000
10000000
00000000
00100000
00000000
01000000
01000000
,  // measure 57
00010000
10000000
01000000
00000000
,  // measure 58
00100000
00000000
00010000
00000000
10000000
00000000
00001000
00001000
,  // measure 59
00010000
00000010
00001000
00000000
,  // measure 60
00000001
00000100
00000000
00000000
00000010
00001000
00000000
00000000
,  // measure 61
00000001
00000010
00000000
00000000
00001100
00000000
00000000
00000000
,  // measure 62
00000001
00001000
00000000
00001000
00000010
00000100
00000000
00000100
,  // measure 63
00000001
00001000
00000100
00000010
00000001
00000000
00001100
00000000
,  // measure 64
00000001
00000010
00001000
00000010
00000001
00001000
00000001
00000010
,  // measure 65
00001000
00000010
00000001
00001000
00000001
00000010
00001000
00000010
,  // measure 66
00000001
00001000
00000001
00000010
00001000
00000010
00000001
00001000
,  // measure 67
00000001
00000010
00001000
00000010
00000001
00001000
00000001
00000010
,  // measure 68
00001000
00000010
00000001
00001000
00000001
00000010
00001000
00000010
,  // measure 69
00000001
00001000
00000001
00000010
00001000
00000010
00000001
00001000
,  // measure 70
00000010
00000100
00000000
00000100
00001000
00000000
00001000
00010000
,  // measure 71
00000000
00010000
00100000
10000000
01000000
00100000
00010000
00000000
,  // measure 72
10000000
01000000
00010000
01000000
10000000
00010000
10000000
01000000
,  // measure 73
00010000
01000000
10000000
00010000
10000000
01000000
00010000
01000000
,  // measure 74
10000000
00010000
10000000
01000000
00010000
01000000
10000000
00010000
,  // measure 75
10000000
01000000
00010000
01000000
10000000
00010000
10000000
01000000
,  // measure 76
00010000
01000000
10000000
00010000
10000000
01000000
00010000
01000000
,  // measure 77
10000000
00010000
10000000
01000000
00010000
01000000
10000000
00010000
,  // measure 78
01000000
00100000
00000000
00100000
10000000
00000000
11000000
00000000
;
