#TITLE:Don't Stand So Close To Me '86;
#SUBTITLE:;
#ARTIST:The Police;
#TITLETRANSLIT:;
#SUBTITLETRANSLIT:;
#ARTISTTRANSLIT:;
#GENRE:Lolita;
#CREDIT:;
#BANNER:Don't Stand So Close To me '86.png;
#BACKGROUND:Don't Stand So Close To me '86-bg.png;
#LYRICSPATH:;
#CDTITLE:;
#MUSIC:Don't Stand So Close To me '86.ogg;
#OFFSET:-0.010000;
#SAMPLESTART:76.824188;
#SAMPLELENGTH:13.714000;
#SELECTABLE:YES;
#BPMS:0.000000=124.999992
;
#STOPS:
;
#BGCHANGES:4.000=Don't Stand So Close To Me '86.avi=1.000=0=0=1=====,
99999=-nosongbg-=1.000=0=0=0 // don't automatically add -songbackground-
;
#KEYSOUNDS:;
#ATTACKS:;

//---------------dance-single - ----------------
#NOTES:
     dance-single:
     :
     Hard:
     8:
     0.520899,0.499516,0.107640,0.201825,0.252281,496.000000,16.000000,30.000000,0.000000,0.000000,0.000000,0.520899,0.499516,0.107640,0.201825,0.252281,496.000000,16.000000,30.000000,0.000000,0.000000,0.000000:
0000
0000
0000
0000
,
0000
0000
0000
0000
,
0000
0000
0000
0000
,
0010
1000
0001
0100
0100
0000
0101
0000
,
0001
0010
0100
1000
1000
0000
1100
0000
,
0010
1000
0100
1000
0002
0000
0103
0000
,
0100
0001
1000
0010
0010
0000
1010
0000
,
1000
0100
0010
0001
0001
0000
0011
0000
,
0100
0001
0010
0001
2000
0000
3010
0000
,
0100
0001
1000
0100
0010
0001
1000
0010
,
1000
0001
0100
0010
0000
1000
0000
0001
,
1000
0000
0100
0000
0010
0000
0001
0000
1000
0000
0010
0100
0010
0000
0000
0000
,
2000
0100
0100
3100
,
0002
0100
0100
0103
,
2000
0010
0010
3010
,
0002
0010
0010
0013
,
1000
0000
0000
0000
0001
0100
0000
0000
0100
0010
0000
0000
0010
1000
0000
0000
,
0001
0000
0000
0000
1000
0100
0000
0000
0100
0010
0000
0000
0010
0001
0000
0000
,
1000
0000
0000
0000
0010
0100
0000
0000
0100
0001
0000
0000
0001
1000
0000
0000
,
0100
0000
0010
0020
0000
0000
0031
0000
,
1001
0000
0000
0000
1000
0010
0000
0000
0010
0100
0000
0000
0100
0001
1000
0000
,
1000
0000
0000
0000
0001
0010
0000
0000
0010
0100
0000
0000
0100
1000
0001
0000
,
0001
0000
0000
0000
0100
0010
0000
0000
0010
1000
0000
0000
1000
0001
0010
0000
,
0020
0000
0130
0200
0000
0000
1300
0000
,
0101
0000
0100
0000
0010
1000
0000
0000
1000
0100
0000
0000
0100
0010
0000
0000
,
0011
0000
0001
0000
1000
0010
0000
0000
0010
0100
0000
0000
0100
0001
0000
0000
,
1001
0000
1000
0000
0100
0010
0000
0000
0010
0001
0000
0000
0001
1000
0000
0000
,
0010
1000
0100
0010
0001
1000
0010
0000
,
1010
0000
0010
0000
0100
0001
0000
0000
0001
0010
0000
0000
0010
0100
0000
0000
,
1100
0000
1000
0000
0001
0100
0000
0000
0100
0010
0000
0000
0010
1000
0000
0000
,
1001
0000
0001
0000
0010
0100
0000
0000
0100
1000
0000
0000
1000
0001
0000
0000
,
0100
0000
0001
0000
0010
0000
0100
0000
1000
0000
0001
0000
0100
0010
0000
0000
,
1000
0100
1000
0002
0100
0000
0103
0000
,
0001
0100
0001
2000
0100
0000
3100
0000
,
1000
0010
1000
0002
0010
0000
0013
0000
,
0001
0000
0010
0000
0001
0000
2000
0000
0010
0000
0000
0000
0010
3000
0000
0000
,
0100
0010
1000
0200
0010
0000
0310
0000
,
0010
0001
1000
0010
0100
0001
1000
0000
,
0001
0000
0010
0000
0100
0000
2000
0000
0001
0000
0000
0000
0001
3000
0000
0000
,
1000
0000
0010
0000
0100
0000
0001
0000
1000
0000
1000
0100
0100
0001
1000
0000
,
0010
0100
0001
0010
0100
1000
0010
1000
,
0100
0010
0001
1000
0010
0100
0001
0000
,
2100
0000
3100
1000
0002
0000
0103
0001
,
2000
0000
3010
0100
0001
0000
1000
0100
,
1000
0010
0010
0001
1000
0000
0010
0000
0100
0000
0001
0000
1000
0000
0100
0000
,
0010
0001
1000
0010
1000
0001
0100
0000
,
0012
0000
0013
0001
2000
0000
3010
1000
,
0002
0000
0000
0000
1003
0010
0010
0001
1000
0000
0010
0000
0100
0000
0100
0000
,
0001
1000
0100
1000
0001
0010
0100
1000
,
0010
0100
0000
0001
1000
0100
0010
0000
,
0001
0000
0000
0000
1000
0010
0000
0000
1000
0001
0000
0000
1000
0100
0000
0000
,
1000
0001
0100
0010
1000
0100
0010
0001
,
1000
0001
0000
0000
0100
0010
0000
0000
1000
0001
0000
0000
1001
0000
0000
0000
,
0100
0010
1000
0100
0010
0001
1000
0000
,
0001
0100
0000
0000
0001
0010
0000
0000
0001
1000
0000
0000
0001
0100
0000
0000
,
0010
0100
0001
0010
0100
1000
0001
0000
,
1000
0100
0000
0000
0100
0010
0000
0000
0001
0000
1000
0000
1001
0000
0000
0000
,
0010
0000
0100
0000
0001
1000
0001
0000
1000
0000
0100
0000
0010
0000
0000
0000
,
0001
0000
1000
0000
0010
0100
0010
0000
1000
0000
0100
0000
0010
0000
0000
0000
,
0001
0000
1000
0000
0010
1000
0010
0000
0100
0000
0001
0000
1000
0000
0100
0000
,
0010
0001
0000
0000
0001
1000
0000
0000
1000
0010
0000
0000
0100
0000
0000
0000
,
0001
0000
1000
0000
0100
0010
0100
0000
1000
0000
0001
0000
0100
0000
0000
0000
,
0010
0000
1000
0000
0001
0100
0001
0000
0010
0000
0100
0000
1000
0000
0000
0000
,
0001
0000
1000
0000
0010
0100
0010
0000
1000
0000
0001
0000
0010
0000
0000
0000
,
0100
1000
0000
0000
1000
0001
0000
0000
0001
0000
0001
0100
0100
1000
0001
0000
,
0100
0010
1000
0100
0010
0001
0100
0001
,
0010
0100
1000
0001
0100
0010
1000
0000
,
0002
0010
0000
0000
0013
0000
0001
0000
2000
0010
0000
0000
3010
0000
1000
0000
,
0002
0100
0000
0000
0103
0000
0010
0000
1000
0000
0000
0000
0001
0000
0010
0000
,
0001
1000
0001
0100
0010
1000
0001
0010
,
0100
1000
0001
0100
0001
1000
0010
0000
,
2000
0100
0000
0000
3100
0000
1000
0000
0002
0100
0000
0000
0103
0000
0001
0000
,
2000
0001
0000
0000
3001
0000
0100
0000
0010
0000
1000
0000
0101
0000
0000
0000
,
0000
0000
2000
0000
3200
0000
0000
0002
,
0000
0303
0000
0000
;

//---------------dance-single - ----------------
#NOTES:
     dance-single:
     :
     Medium:
     5:
     0.298892,0.374637,0.141277,0.275827,0.000000,249.000000,21.000000,41.000000,0.000000,0.000000,0.000000,0.298892,0.374637,0.141277,0.275827,0.000000,249.000000,21.000000,41.000000,0.000000,0.000000,0.000000:
0000
0000
0000
0000
,
0000
0000
0000
0000
,
0000
0000
0000
0000
,
0100
0001
1000
1000
,
0100
1000
0001
0001
,
0010
0001
0100
0000
0100
0000
0010
0000
,
1000
0100
0010
0001
,
1000
0010
0100
0000
0001
0000
1000
0000
,
0100
0010
0001
0000
1000
0000
0001
0000
,
0100
0100
0010
1000
,
0001
0000
1000
0100
0010
0000
0001
0000
,
1000
0010
0100
0110
,
0002
0000
0003
0000
,
2000
0000
3000
0000
,
0020
0000
0030
0000
,
0200
0000
0300
0000
,
0000
0001
0010
0100
,
0000
1000
0010
0100
,
0000
0001
0010
0100
,
1000
0000
0010
0010
0000
0000
0000
0000
,
0000
1000
0100
0010
,
0000
0001
0100
0010
,
0000
0100
0001
0010
,
0100
0000
1000
1000
0000
0000
1001
0000
,
0100
0000
0010
1000
0010
0000
0100
0000
,
0001
0000
0010
0100
0010
0000
0001
0000
,
1000
0000
0001
0100
0001
0000
0010
0000
,
0200
1000
1300
0000
,
0100
0000
1000
0001
1000
0000
0010
0000
,
0100
0000
0001
0100
0001
0000
0010
0000
,
0001
0000
1000
0100
1000
0000
0010
0000
,
0200
0001
0301
0000
,
1001
0000
0100
1000
0001
0000
0000
0000
,
0000
0000
0100
0001
1000
0000
0000
0000
,
0000
0000
0010
1000
0001
0000
0000
0000
,
0000
0000
0010
0001
1000
0000
0000
0000
,
0100
0000
0100
1000
0010
0000
0000
0000
,
0100
0000
0100
0001
1000
0000
0000
0000
,
0001
0000
0001
0010
0100
0000
0000
0000
,
1000
0000
1000
0001
0100
0000
0000
0000
,
0010
0000
0110
0000
1002
0000
0000
0200
,
0000
0000
0303
0000
,
0002
0103
2000
3100
,
0020
0100
0130
0000
,
0100
0000
0110
0000
2001
0000
0000
0020
,
0000
0000
3030
0000
,
2000
3010
0002
0013
,
0200
0010
0310
0000
,
0100
0000
0001
1000
0100
0000
0010
0000
,
0001
1000
0100
1100
,
0010
1000
0001
0101
,
0000
1001
0110
1001
,
0200
0320
1030
0000
,
0001
1000
0100
1100
,
0100
0010
0001
0011
,
0000
1001
0110
1001
,
0200
0302
2003
3000
,
0000
0000
0100
0010
0100
0000
0020
0000
,
0030
0000
0001
1000
0001
0000
2000
0000
,
3000
0010
1000
0100
,
0010
0002
2003
3000
,
0010
0000
0100
0001
2000
0000
3000
0000
,
0010
0000
1000
0100
0020
0000
0030
0000
,
0001
1000
0010
0100
,
0002
1000
1003
0000
,
0010
0000
0110
0000
1002
0000
0000
0203
,
0000
0010
0010
0310
,
0200
0301
2000
3100
,
0020
0100
0130
0000
,
0100
0000
0110
0000
2001
0000
0000
3020
,
0000
0100
0100
0130
,
0020
1030
0002
0013
,
0200
0010
0310
0000
,
0000
0000
0002
0000
2003
0000
0000
0200
,
0000
3300
0000
0000
;

//---------------dance-single - ----------------
#NOTES:
     dance-single:
     :
     Easy:
     3:
     0.200863,0.224782,0.067275,0.074002,0.000000,188.000000,10.000000,11.000000,0.000000,0.000000,0.000000,0.200863,0.224782,0.067275,0.074002,0.000000,188.000000,10.000000,11.000000,0.000000,0.000000,0.000000:
0000
0000
0000
0000
,
0000
0000
0000
0000
,
0000
0000
0000
0000
,
0100
0100
0001
0000
,
1000
1000
0100
0000
,
0010
0010
0001
0000
,
1000
1000
0010
0000
,
0100
0100
0001
0000
,
1000
1000
0100
0000
,
0010
0010
0001
0000
,
0100
0100
0010
0010
,
1000
0000
0001
0000
,
0200
0000
0300
0000
,
0002
0000
0003
0000
,
2000
0000
3000
0000
,
0020
0000
0030
0000
,
0000
0100
0100
0100
,
0000
0001
0001
0001
,
0000
1000
1000
1000
,
0100
0010
0001
0000
,
0000
0100
0100
0100
,
0000
0010
0010
0010
,
0000
1000
0010
0100
,
0001
0001
0001
0000
,
0000
1000
0100
0010
,
0000
0001
0100
0010
,
0000
0100
0001
0010
,
0100
0100
0100
0000
,
0000
0010
0001
1000
,
0000
0010
0100
0001
,
0000
0010
0100
1000
,
0001
0001
0001
0000
,
0200
0300
0010
0000
,
2000
3000
0100
0000
,
0020
0030
0001
0000
,
0100
0100
0100
0000
,
0002
0003
0010
0000
,
0200
0300
1000
0000
,
0002
0003
0100
0000
,
0010
0010
0010
0000
,
0000
1001
1001
0000
,
0100
0000
0010
0000
,
1000
1000
0001
0001
,
0100
0000
0010
0000
,
0000
1001
1001
0000
,
0010
0000
0100
0000
,
0001
0001
1000
1000
,
0010
0000
0100
0000
,
0001
0000
1000
0000
,
0100
0000
0100
0000
,
0010
0000
0010
0000
,
0000
0001
1000
0001
,
1000
0100
0100
0000
,
1000
0000
0001
0000
,
0100
0000
0100
0000
,
0001
1000
0001
1000
,
0010
0010
0010
0000
,
0000
0100
0001
1000
,
0000
0100
1000
0010
,
0000
0100
0010
1000
,
0001
0001
0001
0000
,
0000
0010
0001
0100
,
0000
0010
1000
0100
,
0000
1000
0001
0100
,
0010
0010
0010
0000
,
0000
1001
1001
0000
,
0010
0000
0100
0000
,
0001
0001
1000
1000
,
0010
0000
0100
0000
,
0000
1001
1001
0000
,
0100
0000
0010
0000
,
1000
1000
0001
0001
,
0100
0000
0010
0100
,
0000
0000
1001
0000
1001
0000
0000
0200
,
0000
0300
0000
0000
;

//---------------dance-single - ----------------
#NOTES:
     dance-single:
     :
     Beginner:
     2:
     0.119173,0.171299,0.020182,0.000000,0.000000,121.000000,3.000000,0.000000,0.000000,0.000000,0.000000,0.119173,0.171299,0.020182,0.000000,0.000000,121.000000,3.000000,0.000000,0.000000,0.000000,0.000000:
0000
0000
0000
0000
,
0000
0000
0000
0000
,
0000
0000
0000
0000
,
0100
0000
0000
0000
,
0001
0000
0000
0000
,
1000
0000
0000
0000
,
1000
0000
0000
0000
,
0100
0000
0000
0000
,
0010
0000
0000
0000
,
0001
0000
0000
0000
,
1000
0000
0000
0000
,
0010
0000
0000
0000
,
0100
0000
0000
0000
,
0000
0000
0000
0000
,
0001
0000
0000
0000
,
0000
0000
0000
0000
,
0000
1000
1000
1000
,
0000
0001
0001
0001
,
0000
0100
0100
0100
,
0100
0000
0000
0000
,
0000
0010
0010
0010
,
0000
1000
1000
1000
,
0000
0001
0001
0001
,
0001
0000
0000
0000
,
0000
0010
0010
0010
,
0000
0001
0001
0001
,
0000
1000
1000
1000
,
1000
0000
0000
0000
,
0000
0010
0010
0010
,
0000
0100
0100
0100
,
0000
0001
0001
0001
,
0001
0000
0000
0000
,
1001
0000
0000
0000
,
0100
0000
0000
0000
,
0010
0000
0010
0000
,
1000
0000
0000
0000
,
0110
0000
0000
0000
,
0010
0000
0010
0000
,
0001
0000
0000
0000
,
1000
1000
0000
0000
,
0000
0010
0010
0000
,
0010
0000
0000
0000
,
1000
0000
0001
0000
,
0100
0000
0000
0000
,
0000
0001
0001
0000
,
1000
0000
0000
0000
,
0100
0000
0010
0000
,
0001
0000
0000
0000
,
1000
0000
0000
0000
,
0010
0000
0000
0000
,
0000
0100
0100
0000
,
0000
0001
0001
0001
,
0001
0000
0000
0000
,
0010
0000
0000
0000
,
0100
0000
0000
0000
,
0000
1000
1000
1000
,
1000
0000
0000
0000
,
0000
0010
0010
0010
,
0000
1000
1000
1000
,
0000
0001
0001
0001
,
0001
0000
0000
0000
,
0000
0010
0010
0010
,
0000
0100
0100
0100
,
0000
1000
1000
1000
,
1000
0000
0000
0000
,
0000
0010
0010
0000
,
0100
0000
0000
0000
,
0001
0000
1000
0000
,
0100
0000
0000
0000
,
0000
1000
1000
0000
,
0010
0000
0000
0000
,
0100
0000
0001
0000
,
1000
0000
0000
1001
;

//---------------dance-double - ----------------
#NOTES:
     dance-double:
     :
     Challenge:
     7:
     0.441131,0.447294,0.343102,0.349829,0.000000,356.000000,51.000000,52.000000,0.000000,0.000000,0.000000,0.441131,0.447294,0.343102,0.349829,0.000000,356.000000,51.000000,52.000000,0.000000,0.000000,0.000000:
// measure 0
00000000
00000000
00000000
00000000
,  // measure 1
00000000
00000000
00000000
00000000
,  // measure 2
00000000
00000000
00000000
00000000
,  // measure 3
00001000
00000001
00000100
00000010
,  // measure 4
00001000
00000100
00000010
00000000
00000001
00001000
00000010
00000000
,  // measure 5
00000100
00000001
00001000
00000100
,  // measure 6
00010000
00000000
00001000
00000000
00010000
00001000
00100000
00010000
,  // measure 7
00010000
00000000
10000000
00000000
00100000
01000000
00010000
00000000
,  // measure 8
10000000
01000000
00100000
00000000
00010000
10000000
00100000
00000000
,  // measure 9
01000000
00010000
10000000
00010000
,  // measure 10
10000000
01000000
00100000
00010000
10000000
00100000
01000000
00010000
,  // measure 11
00100000
00001000
00010000
00001100
,  // measure 12
00000002
00000000
00000000
00000003
,  // measure 13
00002000
00000000
00000000
00003000
,  // measure 14
00000200
00000000
00000000
00000300
,  // measure 15
00000020
00000000
00000000
00000030
,  // measure 16
00000001
00000011
00000110
00001100
,  // measure 17
00000100
00001100
00011000
00110000
,  // measure 18
01000000
01010000
01100000
10100000
,  // measure 19
00010000
10000000
00010000
02000000
00000000
00000000
03100000
00000000
,  // measure 20
10000000
00000000
01010000
00000000
10100000
00000000
00010000
01000000
,  // measure 21
01000000
01010000
11000000
10010000
,  // measure 22
00100000
00101000
00010100
00001001
,  // measure 23
00000100
00000000
00001000
00000010
00000100
00000000
00000101
00000000
,  // measure 24
00000010
00000000
00001000
00000001
00000100
00000000
00001001
00000000
,  // measure 25
00000010
00000000
00000001
00001000
00000010
00000000
00001001
00000000
,  // measure 26
00000100
00000000
00001000
00000100
00020000
00000000
00032000
00000000
,  // measure 27
00103000
00010000
10000000
00100000
01000000
00010000
10000000
00000000
,  // measure 28
00100000
20100000
30020000
02030000
,  // measure 29
03100000
01000000
02000000
00000000
03020000
00000000
10030000
00000000
,  // measure 30
01000000
11000000
00110000
00011000
,  // measure 31
00001000
00000100
00000001
00001000
00002000
00000000
00003100
00000000
,  // measure 32
00000001
00000010
00001000
00010000
00002000
00000000
00013000
00000000
,  // measure 33
00001000
00010000
00100000
10000000
00020000
00000000
10030000
00000000
,  // measure 34
10000000
00100000
00010000
00001000
00020000
00000000
00031000
00000000
,  // measure 35
00010000
00001000
00000100
00000001
00002000
00000000
00003001
00000000
,  // measure 36
00001000
00000100
00000010
00000001
00002000
00000000
00003010
00000000
,  // measure 37
00000100
00000001
00002000
00000000
00003100
00010000
00001000
00100000
,  // measure 38
00020000
00000000
10030000
00100000
02000000
00000000
03010000
00000000
,  // measure 39
10000000
00000000
00100000
01000000
00100000
00000000
10010000
00000000
,  // measure 40
01000000
00000000
11000000
00000000
00120000
00000000
10030000
02000000
,  // measure 41
00100000
10000000
00010000
13000000
,  // measure 42
11000000
00000000
00010000
00000000
00110000
00000000
00001000
00010000
,  // measure 43
00002000
00000000
00003100
00000000
00000001
00000000
00001000
00000100
,  // measure 44
00000010
00000000
00000011
00000000
00001010
00000000
00000001
00000200
,  // measure 45
00000010
00001000
00000010
00000301
,  // measure 46
00002010
00000000
00003100
00010000
00002000
00000000
00103000
00010000
,  // measure 47
20000000
00000000
30100000
01000000
00010000
00000000
10000000
00000000
,  // measure 48
00010000
00100000
01000000
10000000
00100000
01000000
00010000
00000000
,  // measure 49
10000000
00200000
02300000
03010000
,  // measure 50
10000000
01000000
00200000
00000000
00302000
00000000
00023000
00000000
,  // measure 51
00130000
10000000
01000000
00100000
00010000
01000000
00100000
00010000
,  // measure 52
00001000
00000010
00000001
00000100
00000010
00001000
00000001
00000000
,  // measure 53
00000100
00000020
00002030
00003200
,  // measure 54
00000320
00000032
00002003
00003010
,  // measure 55
00001000
00000000
00000100
00010000
00001000
00000100
00000001
00000010
,  // measure 56
00000100
00001000
00000010
00001000
00000100
00010000
00001000
00000000
,  // measure 57
00100000
00010000
00110000
00000000
10100000
00000000
10010000
00000000
,  // measure 58
01000000
00010000
01010000
00000000
11000000
00000000
01010000
00000000
,  // measure 59
10000000
00010000
01000000
00100000
10000000
01000000
00100000
00010000
,  // measure 60
01000000
00100000
00010000
00001000
00000010
00000001
00001000
00000000
,  // measure 61
00001001
00000101
00000110
00001010
,  // measure 62
00000001
00000010
00000100
00001000
00000010
00000100
00000002
00000000
,  // measure 63
00001003
00000100
00020000
00000000
00032000
00000000
00203000
00000000
,  // measure 64
00310000
10000000
01000000
00010000
00001000
00000100
00000001
00000000
,  // measure 65
00000010
00000000
00000011
00000000
00002100
00000000
00003001
00000020
,  // measure 66
00000100
00000001
00001000
00000031
,  // measure 67
00000011
00000000
00001000
00000000
00001100
00000000
00010000
00001000
,  // measure 68
00020000
00000000
00130000
00000000
10000000
00000000
00010000
00100000
,  // measure 69
01000000
00000000
11000000
00000000
01010000
00000000
10000000
00200000
,  // measure 70
01000000
00010000
01000000
10300000
,  // measure 71
01020000
00000000
00130000
00001000
00020000
00000000
00030100
00001000
,  // measure 72
00000002
00000000
00000103
00000010
00001000
00000000
00000101
00000000
,  // measure 73
00000000
00000000
00002000
00000000
00003200
00000000
00000000
00010300
;
