#TITLE:Watch Me;
#SUBTITLE:;
#ARTIST:Silento;
#TITLETRANSLIT:;
#SUBTITLETRANSLIT:;
#ARTISTTRANSLIT:;
#GENRE:Even The Jacket Sucks;
#CREDIT:;
#BANNER:Watch Me.png;
#BACKGROUND:Watch Me-bg.png;
#LYRICSPATH:;
#CDTITLE:;
#MUSIC:Watch Me.ogg;
#OFFSET:0.010000;
#SAMPLESTART:27.453829;
#SAMPLELENGTH:14.354000;
#SELECTABLE:YES;
#BPMS:0.000000=140.000000
;
#STOPS:
;
#BGCHANGES:8.000=Watch Me.avi=1.000=0=0=1=====,
99999=-nosongbg-=1.000=0=0=0 // don't automatically add -songbackground-
;
#KEYSOUNDS:;
#ATTACKS:;

//---------------dance-single - ----------------
#NOTES:
     dance-single:
     :
     Hard:
     8:
     0.565622,0.562008,0.923849,0.000000,0.123180,345.000000,105.000000,0.000000,0.000000,0.000000,0.000000,0.565622,0.562008,0.923849,0.000000,0.123180,345.000000,105.000000,0.000000,0.000000,0.000000,0.000000:
0000
0000
0000
0000
,
0000
0000
0000
0000
,
0000
0000
0000
0000
,
0000
0000
0000
0000
0000
1000
0100
1000
,
0000
0000
0000
0000
0000
0001
0100
0001
,
0000
0000
0000
0000
0000
1000
0010
1000
,
0000
0000
0000
0000
0000
0000
0001
0010
,
0100
1000
0001
0001
0000
0100
0010
0100
,
1010
0000
0000
0000
0000
1000
0100
1000
,
0001
0001
0000
0000
0000
1000
0010
1000
,
0101
0000
0000
1100
0000
0000
0001
1000
,
0001
1000
0000
0000
0000
0010
0100
0010
,
0101
0000
0000
0000
0000
0001
0010
0001
,
1000
1000
0000
0000
0000
0001
0100
0001
,
1010
0000
0000
0011
0000
0000
1000
0001
,
1000
0001
0000
0000
0000
0100
0010
0010
,
1010
0000
0100
1100
0000
0001
0101
0000
,
1001
0000
0010
0011
0000
1000
1010
0000
,
1001
0000
0100
0101
0000
1000
1100
0000
,
0011
1100
0101
1010
,
1001
0000
1100
0100
0000
0101
0100
0000
,
1001
0000
1010
0010
0000
0011
0010
0000
,
1001
0000
0110
0100
0000
1001
0001
0000
,
1010
0101
0011
1100
,
0001
1000
0001
0000
0110
0000
1000
0001
,
1000
0000
0100
0110
0110
0000
0001
0010
,
0100
0000
1000
0000
1100
0000
0010
1000
,
0001
0000
0100
0101
0101
0000
0010
1000
,
0001
0000
0000
0001
0100
0000
0000
0000
1010
0000
0000
0000
1000
0000
0100
0000
,
0010
0000
0000
0010
0001
0000
0011
0000
0011
0000
0000
0000
0001
0000
1000
0000
,
0001
0000
0000
0001
0100
0000
0000
0000
1010
0000
0000
0000
1000
0000
0001
0000
,
1000
0000
0000
1000
0100
0000
1000
0001
1000
0000
0001
0000
1000
0001
1000
0000
,
0010
0000
0101
1000
0010
0000
0101
1000
,
0010
0000
0101
1000
1010
0000
1001
0000
,
0010
0000
1100
0001
0010
0000
1100
0001
,
0010
0000
1100
0001
0011
0000
1001
0000
,
1000
0000
0110
0010
1000
0000
0110
0010
,
0001
0000
0000
0000
0110
0000
0010
0000
1000
0000
1000
0000
0010
0100
0010
0000
,
1000
0000
1100
0100
0001
0000
0101
0100
,
1000
0000
0000
0000
1001
0000
1000
0001
1000
0000
0001
0000
0100
0000
0010
0000
,
1010
0000
0001
1001
1000
0000
0101
0000
,
0010
0100
0000
0000
0110
0000
0000
0000
1000
0000
1010
0000
0001
0000
0000
0000
,
0011
0000
1000
1001
0100
0000
0011
0000
,
1000
0100
0000
0000
1001
0000
0000
0000
1000
0010
1000
0000
0001
0000
0001
0000
,
0101
0000
1000
1001
0001
0000
0110
0000
,
0001
1000
0000
0000
0110
0000
0000
0000
0001
0000
0011
0000
1000
0000
0100
0000
,
1100
0000
0001
0101
1000
0000
0110
0000
,
1000
0100
0000
0000
1001
0000
1000
0100
1000
0000
0100
0000
0010
0000
0001
0000
,
1001
0000
0000
0000
0101
0000
0000
0000
1000
0100
0000
0000
1000
0000
0001
0000
,
0100
0100
0010
0000
1001
1000
0100
1000
,
1001
0000
1000
0101
1000
0000
0001
1000
,
0010
0010
1000
0001
0011
0000
1100
0000
,
1001
0000
0000
0000
1010
0000
0000
0000
0001
0010
0000
0000
0001
0000
1000
0000
,
0010
0010
0100
0000
1001
0001
0010
0001
,
1001
0000
0001
1010
0001
0000
1000
0001
,
0100
0100
0001
1000
1100
0000
0011
0000
,
1001
0000
0000
0000
0010
1000
0010
0000
0000
0000
1000
0001
1000
0000
0000
0000
,
1001
0000
0000
0000
0001
0100
0001
0000
0000
0000
1000
0100
1000
0000
0000
0000
,
1100
0000
0000
0000
1000
0001
1000
0000
0000
0000
0010
0100
0010
0000
0000
0000
,
1010
0101
0011
1100
,
1001
0000
0000
0000
0010
1000
0010
0000
0000
0000
1000
0001
1000
0000
0000
0000
,
0101
0000
0000
0000
1000
0001
1000
0000
0000
0000
0100
1000
0100
0000
0000
0000
,
0011
0000
0000
0000
1000
0001
1000
0000
0000
0000
0010
0100
0010
0000
0000
0000
,
1010
0000
0110
0000
0101
0000
0011
1100
;

//---------------dance-single - ----------------
#NOTES:
     dance-single:
     :
     Medium:
     5:
     0.380852,0.533907,0.448726,0.466324,0.000000,199.000000,51.000000,53.000000,0.000000,0.000000,0.000000,0.380852,0.533907,0.448726,0.466324,0.000000,199.000000,51.000000,53.000000,0.000000,0.000000,0.000000:
0000
0000
0000
0000
,
0000
0000
0000
0000
,
0000
0000
0000
0000
,
0000
0000
0000
0000
0000
1000
0100
1000
,
0000
0000
0000
0000
0000
0001
0100
0001
,
0000
0000
0000
0000
0000
1000
0001
1000
,
0000
0000
0000
0000
,
0010
0010
0010
0000
,
2200
3300
0000
0001
,
0202
0303
0000
1000
,
2002
0000
3003
2002
0000
3003
0010
0000
,
0220
0330
0000
0001
,
0202
0303
0000
1000
,
2200
3300
0000
0001
,
2002
0000
3003
2002
0000
3003
0010
0000
,
0220
0330
0000
0001
,
1001
0000
0100
0100
0000
0100
0100
0000
,
1001
0000
0100
0100
0000
0100
0100
0000
,
1001
0000
0100
0100
0000
0100
0100
0000
,
1001
1001
1001
1001
,
1001
0000
0010
0010
0000
0010
0010
0000
,
1001
0000
0010
0010
0000
0010
0010
0000
,
1001
0000
0010
0010
0000
0010
0010
0000
,
1001
1001
1001
1001
,
0200
0000
0310
0000
,
0002
0000
0000
0100
0103
0000
0000
0000
,
0020
0000
1030
0000
,
0200
0000
0000
0010
0310
0000
0000
0000
,
0001
0010
0011
0000
,
1000
0000
0100
1000
1100
0000
0000
0000
,
0010
0100
0110
0000
,
1000
0000
0001
1000
1001
0000
0000
0000
,
0200
0310
0000
0010
,
0000
0010
0001
1000
,
0020
0130
0000
0100
,
0000
0100
0001
0010
,
0200
1300
0000
1000
,
0000
1000
0010
0100
,
0002
0013
0000
0010
,
0000
0010
0001
1000
,
0010
0000
0000
0100
0000
0000
0001
0000
,
0000
0000
1000
0000
0000
0100
0000
0000
,
0010
0000
0000
0001
0000
0000
1000
0000
,
0000
0000
0010
0000
0000
0100
0000
0000
,
0020
0000
0000
1030
0000
0000
0200
0000
,
0300
0000
0020
0000
0000
0031
0000
0000
,
2000
0000
0000
3010
0000
0000
0200
0000
,
0300
0000
0001
0000
0000
1000
0100
0000
,
2200
0000
3300
0000
0000
0001
0100
0000
,
0202
0000
0303
0000
0000
1000
0001
0000
,
2002
0000
3003
2002
0000
3003
0010
0000
,
0220
0000
0330
0000
0000
0001
0100
0000
,
0202
0000
0303
0000
0000
1000
0100
0000
,
2200
0000
3300
0000
0000
0001
1000
0000
,
2002
0000
3003
2002
0000
3003
0010
0000
,
0220
0330
0000
1000
,
1001
0000
0100
0100
0000
0100
0100
0000
,
1001
0000
0100
0100
0000
0100
0100
0000
,
1001
0000
0100
0100
0000
0100
0100
0000
,
1100
0011
0101
1010
,
1001
0000
0010
0010
0000
0010
0010
0000
,
1001
0000
0010
0010
0000
0010
0010
0000
,
1001
0000
0010
0010
0000
0010
0010
0000
,
0011
0000
1100
0000
0101
0000
1000
1000
;

//---------------dance-single - ----------------
#NOTES:
     dance-single:
     :
     Easy:
     3:
     0.230019,0.280454,0.043993,0.290352,0.000000,145.000000,5.000000,33.000000,0.000000,0.000000,0.000000,0.230019,0.280454,0.043993,0.290352,0.000000,145.000000,5.000000,33.000000,0.000000,0.000000,0.000000:
0000
0000
0000
0000
,
0000
0000
0000
0000
,
0000
0000
0000
0000
,
0000
0000
0000
1000
,
1000
0000
0000
0001
,
0001
0000
0000
0100
,
0100
0000
0000
0010
,
0010
0000
0000
0000
,
2002
3003
0000
0000
,
0200
0300
0000
0000
,
2002
3003
0000
0000
,
0200
0300
0000
0000
,
2002
3003
0000
0000
,
0020
0030
0000
0000
,
2002
3003
0000
0000
,
0020
0030
0000
0000
,
0001
1000
0001
1000
,
0010
1000
0001
1000
,
0010
1000
0001
1000
,
0010
0010
0010
0000
,
1000
0001
1000
0001
,
0010
0001
1000
0001
,
0010
0001
1000
0001
,
0010
0010
0010
0000
,
0200
0300
1000
0000
,
0020
0030
0100
0000
,
0002
0003
1000
0000
,
0200
0300
0010
0000
,
0001
1000
0000
0000
,
0010
0100
0000
0000
,
0001
0010
0000
0000
,
0100
1000
0000
0000
,
0002
0003
0000
0100
,
0200
0300
0000
0010
,
0020
0030
0000
1000
,
2000
3000
0100
0000
,
0020
0030
0000
0001
,
0002
0003
1000
0000
,
0020
0030
0000
0100
,
0200
0300
0001
0001
,
1000
0000
0000
1000
0000
0000
1000
0000
,
0000
0000
0001
0000
0000
0001
0000
0000
,
0100
0000
0000
0100
0000
0000
0100
0000
,
0000
0000
0010
0000
0000
0010
0000
0000
,
1000
0000
0000
1000
0000
0000
1000
0000
,
0000
0000
0100
0000
0000
0100
0000
0000
,
0010
0000
0000
0010
0000
0000
0010
0000
,
0000
0000
0001
0000
0000
0001
0000
0000
,
2000
3000
0010
0000
,
0002
0003
0010
0000
,
2000
3000
0100
0000
,
0002
0003
0100
0000
,
2002
3003
0000
0010
,
0020
0030
0000
0100
,
0200
0300
0000
0001
,
0002
0003
0000
0000
,
1000
0001
1000
0001
,
0010
0001
1000
0001
,
0010
0001
1000
0001
,
0010
0010
0010
0000
,
0001
1000
0001
1000
,
0010
1000
0001
1000
,
0010
1000
0001
1000
,
0010
0010
0010
0010
;

//---------------dance-single - ----------------
#NOTES:
     dance-single:
     :
     Beginner:
     1:
     0.062847,0.140227,0.052791,0.000000,0.000000,44.000000,6.000000,0.000000,0.000000,0.000000,0.000000,0.062847,0.140227,0.052791,0.000000,0.000000,44.000000,6.000000,0.000000,0.000000,0.000000,0.000000:
0000
0000
0000
0000
,
0000
0000
0000
0000
,
0000
0000
0000
0000
,
0000
0000
0000
0000
,
0000
0000
0000
0000
,
0000
0000
0000
0000
,
0000
0000
0000
0000
,
0000
0000
0000
0000
,
0100
0000
0000
0000
,
0001
0000
0000
0000
,
1000
0000
0000
0000
,
0010
0000
0000
0000
,
1000
0000
0000
0000
,
0100
0000
0000
0000
,
0010
0000
0000
0000
,
0001
0000
0000
0000
,
0000
1000
0000
0000
,
0000
0001
0000
0000
,
0000
0100
0000
0000
,
0100
0000
0000
0000
,
0000
0010
0000
0000
,
0000
1000
0000
0000
,
0000
0001
0000
0000
,
0010
0000
0000
0000
,
1001
0000
0000
0000
,
0000
0000
0000
0000
,
0000
0000
0000
0000
,
0000
0000
0000
0000
,
1001
0000
0000
0000
,
0000
0000
0000
0000
,
0000
0000
0000
0000
,
0000
0000
0000
0000
,
1001
0000
0000
0000
,
0000
0000
0000
0000
,
0000
0000
0000
0000
,
0000
0000
0000
0000
,
1001
0000
0000
0000
,
0000
0000
0000
0000
,
0000
0000
0000
0000
,
0000
0000
0000
0000
,
1001
0000
0000
0000
,
0000
0000
0000
0000
,
0000
0000
0000
0000
,
0000
0000
0000
0000
,
1001
0000
0000
0000
,
0000
0000
0000
0000
,
0000
0000
0000
0000
,
0000
0000
0000
0000
,
0010
0000
0000
0000
,
1000
0000
0000
0000
,
0001
0000
0000
0000
,
0010
0000
0000
0000
,
0100
0000
0000
0000
,
1000
0000
0000
0000
,
0001
0000
0000
0000
,
0100
0000
0000
0000
,
0010
0010
0000
0000
,
1000
1000
0000
0000
,
0001
0001
0000
0000
,
0100
0000
0000
0000
,
0100
0000
0000
0000
,
0001
0000
0000
0000
,
1000
0000
0000
0000
,
0100
0100
0100
0100
;

//---------------dance-double - ----------------
#NOTES:
     dance-double:
     :
     Challenge:
     8:
     0.323033,0.477707,0.492719,0.087986,0.000000,191.000000,56.000000,10.000000,0.000000,0.000000,0.000000,0.323033,0.477707,0.492719,0.087986,0.000000,191.000000,56.000000,10.000000,0.000000,0.000000,0.000000:
// measure 0
00000000
00000000
00000000
00000000
,  // measure 1
00000000
00000000
00000000
00000000
,  // measure 2
00000000
00000000
00000000
00000000
,  // measure 3
00000000
00000000
00000000
00000000
00000000
10000000
01000000
10000000
,  // measure 4
00000000
00000000
00000000
00000000
00000000
00010000
01000000
00010000
,  // measure 5
00000000
00000000
00000000
00000000
00000000
01000000
00001000
00010000
,  // measure 6
00000000
00000000
00000000
00000000
,  // measure 7
00001000
00001000
00010000
00000000
,  // measure 8
00002200
00003300
00000000
00000000
,  // measure 9
10000000
00010000
00000000
00000000
00000000
00000000
00000000
00000000
,  // measure 10
00001100
00000000
00000000
00001100
00000000
00000000
00000000
00000000
,  // measure 11
10000000
00010000
00000000
00000000
00000000
00000000
00000000
00000000
,  // measure 12
01010000
00000000
00000000
00000000
,  // measure 13
00000001
00001000
00000000
00000000
00000000
00000000
00000000
00000000
,  // measure 14
01010000
00000000
00000000
01010000
00000000
00000000
00000000
00000000
,  // measure 15
00000001
00001000
00000000
00000000
00000000
00000000
00000000
00000000
,  // measure 16
00011000
00000000
00000010
00000010
00000000
00100000
00100000
00000000
,  // measure 17
00011000
00000000
00000010
00000010
00000000
00100000
00100000
00000000
,  // measure 18
00011000
00000000
00000010
00000010
00000000
00100000
00100000
00000000
,  // measure 19
00011000
00100100
00011000
01000010
,  // measure 20
00011000
00000000
01000000
01000000
00000000
00000100
00000100
00000000
,  // measure 21
00011000
00000000
01000000
01000000
00000000
00000100
00000100
00000000
,  // measure 22
00011000
00000000
01000000
01000000
00000000
00000100
00000100
00000000
,  // measure 23
00011000
00100010
00011000
01000100
,  // measure 24
20010000
00000000
31000000
00000000
,  // measure 25
10020000
00000000
00000000
01000000
01030000
00000000
00000000
00000000
,  // measure 26
20001000
00000000
31000000
00000000
,  // measure 27
10002000
00000000
00000000
01000000
01003000
00000000
00000000
00000000
,  // measure 28
20000100
00000000
31000000
00000000
,  // measure 29
10000200
00000000
00000000
01000000
01000300
00000000
00000000
00000000
,  // measure 30
20000001
00000000
31000000
00000000
,  // measure 31
10000002
00000000
00000000
10000000
10000003
00000000
00000000
00000000
,  // measure 32
00011000
00000000
01000000
00000010
00000000
00000000
00100000
00000100
,  // measure 33
00000000
00000000
00010000
00001000
00011000
00000000
00011000
00000000
,  // measure 34
00000000
00000000
00100000
00000100
00000000
00000000
01000000
00000010
,  // measure 35
00000000
00000000
00010000
00001000
00011000
00000000
00011000
00000000
,  // measure 36
00000000
00000000
10000000
00001000
00000000
00000000
00010000
00000001
,  // measure 37
00000000
00000000
00010000
00001000
00011000
00000000
00011000
00000000
,  // measure 38
00000000
00000000
00000001
00010000
00000000
00000000
00001000
10000000
,  // measure 39
00000000
00000000
00001000
00010000
00011000
00000000
00011000
00000000
,  // measure 40
00100000
00000000
00000000
00000001
00000000
00000000
01000000
00000000
,  // measure 41
00000000
00000000
00000010
00000000
00000000
10000000
00000000
00000000
,  // measure 42
00000100
00000000
00000000
00100000
00000000
00000000
00000001
00000000
,  // measure 43
00000000
00000000
00010000
00000000
00000000
00000010
00000000
00000000
,  // measure 44
01000000
00000000
00000000
00000100
00000000
00000000
10000000
00000000
,  // measure 45
00000000
00000000
00001000
00000000
00000000
00100000
00000000
00000000
,  // measure 46
00000010
00000000
00000000
00010000
00000000
00000000
00000001
00000000
,  // measure 47
00000000
00000000
10000000
00000001
10000000
00000000
00000000
00000000
,  // measure 48
01010000
00000000
00000000
00000000
,  // measure 49
00000001
00001000
00000000
00000000
00000000
00000000
00000000
00000000
,  // measure 50
01010000
00000000
00000000
01010000
00000000
00000000
00000000
00000000
,  // measure 51
00000001
00001000
00000000
00000000
00000000
00000000
00000000
00000000
,  // measure 52
00001100
00000000
00000000
00000000
,  // measure 53
01000000
00010000
00000000
00000000
00000000
00000000
00000000
00000000
,  // measure 54
00001100
00000000
00000000
00001100
00000000
00000000
00000000
00000000
,  // measure 55
01000000
00010000
00000000
00000000
00000000
00000000
00000000
00000000
,  // measure 56
10001000
00000000
00000010
00000010
00000000
00100000
00100000
00000000
,  // measure 57
10001000
00000000
00000010
00000010
00000000
00100000
00100000
00000000
,  // measure 58
10001000
00000000
00000010
00000010
00000000
00100000
00100000
00000000
,  // measure 59
10001000
00011000
10000001
00011000
,  // measure 60
00010001
00000000
00000100
00000100
00000000
01000000
01000000
00000000
,  // measure 61
00010001
00000000
00000100
00000100
00000000
01000000
01000000
00000000
,  // measure 62
00010001
00000000
00000100
00000100
00000000
01000000
01000000
00000000
,  // measure 63
00010001
00000000
00011000
00000000
10000001
00000000
00000001
10000000
;
