#VERSION:0.82;
#TITLE:Yey;
#SUBTITLE:;
#ARTIST:Beast;
#TITLETRANSLIT:Yey;
#SUBTITLETRANSLIT:;
#ARTISTTRANSLIT:Beast;
#GENRE:YEYEYEYEYE;
#ORIGIN:;
#CREDIT:;
#BANNER:Yey.png;
#BACKGROUND:Yey-bg.png;
#PREVIEWVID:;
#JACKET:jacket.png;
#CDIMAGE:;
#DISCIMAGE:;
#LYRICSPATH:;
#CDTITLE:;
#MUSIC:Yey.ogg;
#OFFSET:-0.200000;
#SAMPLESTART:59.248219;
#SAMPLELENGTH:14.820000;
#SELECTABLE:YES;
#BPMS:0.000=128.000,
192.000=64.000,
208.000=128.000;
#STOPS:;
#DELAYS:;
#WARPS:;
#TIMESIGNATURES:0.000=4=4;
#TICKCOUNTS:0.000=4;
#COMBOS:0.000=1;
#SPEEDS:0.000=1.000=0.000=0;
#SCROLLS:0.000=1.000;
#FAKES:;
#LABELS:0.000=Song Start;
#BGCHANGES:8.000=Yey.avi=1.000=1=0=1===CrossFade==,
99999=-nosongbg-=1.000=0=0=0 // don't automatically add -songbackground-
;
#KEYSOUNDS:;
#ATTACKS:
;

//---------------dance-single - ----------------
#NOTEDATA:;
#CHARTNAME:;
#STEPSTYPE:dance-single;
#DESCRIPTION:;
#CHARTSTYLE:;
#DIFFICULTY:Hard;
#METER:8;
#RADARVALUES:0.480657,0.562373,0.172913,0.072047,0.061240,433.000000,24.000000,10.000000,0.000000,0.000000,0.000000,0.000000,0.000000,0.480657,0.562373,0.172913,0.072047,0.061240,433.000000,24.000000,10.000000,0.000000,0.000000,0.000000,0.000000,0.000000;
#CREDIT:Ben Speirs;
#NOTES:
0000
0000
0000
0000
,
0000
0000
0000
0000
,
0001
0100
0001
0000
1000
0000
0010
1000
,
0200
0000
0320
0000
,
0031
1000
0001
0000
0100
0000
0010
1000
,
0200
0000
2300
0000
,
3010
0100
0001
1000
,
2200
0000
0000
3300
,
0001
0000
1000
0000
0010
0100
0001
0000
,
1000
0001
1000
0000
0100
0000
0010
0000
,
0001
0000
1000
0000
0010
1000
0100
0000
,
0010
0001
1000
0000
,
0010
0000
0100
0000
0001
0100
0010
0000
,
1000
0000
0001
0000
1000
0100
0010
0000
,
0001
1000
0010
0000
0100
0001
1000
0000
,
0100
0100
0100
0000
,
1001
0000
0100
0010
1010
0000
0100
0000
,
0001
0010
1000
0010
0001
0001
1000
0000
,
0101
0000
1000
0010
1010
0000
0100
0000
,
0010
0100
0001
0010
0100
1000
0001
0000
,
1000
0100
1000
0100
0010
0001
0010
0000
,
0001
0100
0001
0100
0010
1000
0010
0000
,
1000
0001
1000
0001
0100
0010
0100
0010
,
1000
0100
0010
0001
1000
0010
0100
0000
,
1001
0000
0000
0000
0100
0000
0000
0100
0010
0000
1000
0000
0001
0000
0000
0000
,
1001
0000
0000
0000
0100
0000
0000
0100
0010
0000
0001
0000
1000
0000
0000
0000
,
1010
0000
0000
0000
1000
0000
0000
1000
0010
0000
0100
0000
0001
0000
0000
0000
,
1001
0000
0000
0000
0001
0000
0000
0001
0010
0000
0100
0000
1000
0000
0000
0000
,
0010
1000
0010
1000
0001
0100
0001
0100
,
0001
1000
0001
1000
0100
0010
0100
0010
,
0001
0010
0100
1000
0010
0100
0001
1000
,
0010
0000
0000
0000
0000
0100
0100
0100
,
1001
0000
1000
0100
0001
0010
0001
0000
,
1000
0001
0100
0010
1000
1000
0001
0100
,
0010
0000
1000
0100
1000
0001
0010
0000
,
0001
1000
0010
1000
0001
0100
0100
0100
,
1001
0000
0001
0010
1000
0100
1000
0000
,
0001
1000
0010
0100
0001
0001
1000
0010
,
0100
0000
0001
0010
0001
1000
0100
0000
,
1000
0001
0100
0001
1000
0010
0010
0010
,
0102
0000
1003
0100
1000
0001
0010
0100
,
0010
0001
1000
0010
0100
0010
0010
0010
,
2100
0000
3001
1000
0010
0100
0001
0010
,
0100
0010
0001
1000
0010
0100
0100
0100
,
1002
0000
0103
0010
0100
0001
0010
0100
,
1000
0000
0000
1000
0100
0000
0000
0010
0000
0000
0001
0000
1000
0000
0000
0000
,
0110
0001
1000
0001
0100
0000
1001
0000
,
0100
1000
0010
0100
0001
0010
0100
1000
,
0010
0000
0100
0001
1000
0000
0100
0000
0010
0000
0001
1000
0010
0000
0100
0000
,
0001
0000
1000
0100
0010
0000
0001
0000
1000
0000
0001
0100
0010
0000
0000
0000
,
1000
0000
0010
0000
0100
0100
0100
0000
0001
0000
1000
0000
0100
0100
0100
0000
,
0020
0000
0030
0000
0001
1000
0001
0000
0100
0000
0010
0000
1000
0100
0010
0001
,
1001
0000
0101
1000
0100
0010
0001
1000
,
0010
1000
0001
0100
0010
1000
0100
0010
,
0001
0000
0010
0001
1000
0010
0100
0001
,
0010
1000
0010
0001
0100
0010
0010
0010
,
1001
0000
1010
0001
0010
0100
1000
0001
,
0100
0001
1000
0010
0100
0001
0010
0100
,
1000
0000
0100
1000
0001
0100
0010
1000
,
0100
0001
0100
1000
0010
0100
0100
0100
,
1001
0000
0100
0010
0010
1000
1000
0001
,
0001
0010
0010
0001
0001
1000
0100
0010
,
1001
0000
0010
0100
0100
0001
0001
1000
,
1000
0100
0100
1000
1000
0001
0010
0100
,
1100
0000
0010
1000
0100
1000
0010
0100
,
0001
0000
0000
0001
1000
0000
0000
0100
0000
0000
0100
0000
0010
0000
0000
0000
,
1001
0001
0100
1000
0100
0000
0010
0100
,
0001
0010
0100
1000
0010
0100
0001
1000
;

//---------------dance-single - ----------------
#NOTEDATA:;
#CHARTNAME:;
#STEPSTYPE:dance-single;
#DESCRIPTION:;
#CHARTSTYLE:;
#DIFFICULTY:Challenge;
#METER:9;
#RADARVALUES:0.658717,0.782432,0.172913,0.079252,0.515137,605.000000,24.000000,11.000000,0.000000,0.000000,0.000000,0.000000,0.000000,0.658717,0.782432,0.172913,0.079252,0.515137,605.000000,24.000000,11.000000,0.000000,0.000000,0.000000,0.000000,0.000000;
#CREDIT:Ben Speirs;
#OFFSET:-0.200000;
#BPMS:0.000000=128.000000
,192.000000=64.000000
,208.000000=128.000000
,246.500000=256.000000
,248.000000=128.000000
,254.500000=256.000000
,256.000000=128.000000
;
#STOPS:246.500000=0.117188
,247.000000=0.117188
,247.500000=0.117188
,254.500000=0.117188
,255.000000=0.117188
,255.500000=0.117188
;
#DELAYS:;
#WARPS:;
#TIMESIGNATURES:0.000000=4=4
;
#TICKCOUNTS:0.000000=4
;
#COMBOS:0.000000=1
;
#SPEEDS:0.000000=1.000000=0.000000=0
;
#SCROLLS:0.000000=1.000000
;
#FAKES:;
#LABELS:0.000000=Song Start
;
#NOTES:
0000
0000
0000
0000
,
0000
0000
0000
0000
,
0001
0100
1000
0100
0010
0001
0010
1000
,
0200
0310
0020
0031
,
1000
0010
0001
0010
0100
1000
0100
0001
,
0020
0000
0130
0000
0100
1000
0010
0100
,
0002
0000
1003
1000
0100
1000
0010
0100
,
2002
0000
0000
3003
,
0012
0000
1003
0010
1000
0001
0100
0020
,
0000
1030
0001
1000
0000
0100
0010
0001
,
0100
0000
0100
0100
0010
0100
0001
1000
,
0100
1000
0001
0200
0000
0000
0310
0100
,
0001
0001
1000
1000
0100
1000
0010
0100
,
0000
0001
1000
0100
0000
1000
0001
0100
,
0010
0100
0001
0010
0100
1000
0010
0100
,
0002
1003
2000
3100
,
0011
1000
0001
0100
1010
0000
0001
1000
,
0010
0100
0001
0010
1001
1000
0010
0100
,
0001
0000
1000
0000
0100
0000
0010
0000
0011
0000
0000
1000
0000
0000
0010
0100
,
0010
1000
0100
0010
0001
1000
0010
0010
,
0100
0001
0100
0010
1000
0010
0100
0001
1000
0000
0000
0000
,
0001
0010
0001
1000
0010
1000
0001
0010
0100
0000
0000
0000
,
1000
0100
1000
0001
0100
0001
1000
0010
1000
0001
0000
0000
,
0100
0010
1000
0100
0010
0001
1000
0010
0100
0001
0000
0000
,
1100
0000
0100
1000
0001
0000
0100
0001
1000
0000
1000
0000
0010
0000
0100
0000
,
0101
0000
0100
0001
1000
0000
0100
1000
0001
0000
0001
0000
0100
0000
0010
0000
,
1010
0000
0010
1000
0001
0000
0010
0001
1000
0000
1000
0000
0010
0000
1000
0000
,
1001
0000
0110
1000
0001
0000
0110
0000
,
0001
0010
0100
1000
0001
0100
0010
1000
,
0001
0010
0100
1000
0001
0100
0010
1000
,
0001
0010
0001
0010
0001
0010
0001
0010
0100
1000
0100
1000
0100
1000
0100
1000
,
0010
0000
0100
0000
0001
0000
0010
0000
0100
0000
1000
0001
1000
0001
1000
0001
,
0100
0100
0010
1000
0100
0010
0001
1000
,
0010
0100
0010
0000
1000
0000
0100
0000
0000
0000
0100
0000
0010
0000
0001
0000
,
1000
1000
0010
1000
0001
0100
0010
1000
,
0001
0010
0001
0000
1000
0000
0001
0000
0100
0000
0010
1000
0010
1000
0010
1000
,
0010
0100
0100
0001
1000
0100
0010
0001
,
1000
0010
1000
0000
0001
0000
0100
0000
0000
0000
0100
0000
0010
0000
1000
0000
,
0100
0010
0001
1000
0010
0100
0001
1000
,
0010
0100
0010
0000
1000
0000
0100
0000
0010
0000
0001
1000
0001
1000
0001
1000
,
0010
0010
0100
0001
0010
0100
1000
0001
,
0100
0010
0100
0000
0001
0000
0010
0000
0000
0000
0100
1000
0100
1000
0100
1000
,
0001
0001
0100
0001
1000
0010
0100
0001
,
1000
0100
1000
0000
0001
0000
1000
0000
0010
0000
0100
0001
0100
0001
0100
0001
,
0100
0010
0010
1000
0001
0010
0100
1000
,
0001
0100
0010
1000
0100
0000
0000
0010
0000
0000
0001
1000
0001
0000
0000
0000
,
0110
0000
0001
1000
0001
1000
0001
1000
0001
0000
0000
0000
0110
0000
0000
0000
,
1000
0100
0010
0001
1000
0100
0010
0001
1000
0010
0100
0001
1000
0010
0100
0001
,
1000
0000
0100
1000
0010
0100
0001
1000
0000
0100
0000
0010
0001
1000
0001
0100
,
0010
0000
1000
0100
1000
0010
0100
0001
0000
1000
0000
0100
0000
0010
0001
0000
,
1000
0010
1000
0001
1000
0100
1000
0000
0001
0100
0001
1000
0001
0010
0001
0000
,
1000
0010
0100
0001
0010
0100
1000
0001
1000
0010
1000
0001
0100
0010
0010
0010
,
1001
0000
1000
0100
1000
0000
0001
0100
0010
0000
1000
0000
0100
0000
0010
0000
,
0001
1000
0100
1000
0001
0000
1000
0000
0010
0000
0100
0000
0100
0000
0010
0000
,
1000
0000
0100
0010
0100
0000
1000
0000
0001
0100
0010
1000
0001
0000
1000
0000
,
0010
0100
0010
0000
1000
0000
0100
0000
0010
0000
0001
1000
0001
1000
0001
1000
,
0001
0000
0100
0000
0010
0000
1000
0100
1000
0000
0010
0000
0100
0000
0001
0000
,
1000
0100
1000
0100
0010
0000
0001
0000
1000
0000
0010
0100
0010
0000
1000
0000
,
0100
0000
0100
0000
0010
0000
0001
0000
1000
0010
1000
0000
0001
0000
0100
0000
,
0010
1000
0010
0000
0100
0000
0001
0000
1000
0000
0001
0100
0001
0100
0001
0100
,
0010
0000
1000
0000
0100
0000
0010
0001
0010
0000
0001
0000
1000
0000
0001
0000
,
0100
0010
0100
0010
0100
0000
0001
0000
1000
0000
1010
0000
0110
0000
0101
0000
,
1001
0000
0001
0000
0010
0000
0100
1000
0100
0000
1000
0000
0001
0000
1000
0000
,
0010
0100
0010
0100
0010
0000
1000
0000
0001
0000
0101
0000
0110
0000
1010
0000
,
1001
0000
0001
0000
0100
0000
0010
0000
1000
0000
0100
0000
1000
0100
0010
0001
,
1000
0000
0001
0100
0001
0000
0000
1000
0000
0000
0100
0000
0010
0001
1000
0000
,
1001
0000
0100
0010
0100
0010
0100
0010
0100
0000
0000
0000
0001
0000
0100
0000
,
0010
1000
0100
0010
0001
1000
0010
0100
0001
0010
0100
1000
0010
0000
0100
0000
;

//---------------dance-single - ----------------
#NOTEDATA:;
#CHARTNAME:;
#STEPSTYPE:dance-single;
#DESCRIPTION:;
#CHARTSTYLE:;
#DIFFICULTY:Medium;
#METER:5;
#RADARVALUES:0.374645,0.439308,0.749290,0.072047,0.000000,250.000000,104.000000,10.000000,0.000000,0.000000,0.000000,0.000000,0.000000,0.374645,0.439308,0.749290,0.072047,0.000000,250.000000,104.000000,10.000000,0.000000,0.000000,0.000000,0.000000,0.000000;
#CREDIT:Ben Speirs;
#NOTES:
0000
0000
0000
0000
,
0000
0000
0000
0000
,
1000
0001
0100
0100
,
0010
0000
1000
0000
,
0001
1000
0100
0100
,
0010
0000
0001
0000
,
1000
0000
0010
0000
,
2002
0000
0000
3003
,
0100
0010
1000
1000
,
0100
1000
0001
0000
,
0100
0100
0010
1000
,
0100
0010
0001
0000
,
1000
0000
0001
0000
,
0100
0100
0010
0000
,
1000
0010
0100
0001
,
1000
0000
0001
0000
,
1000
0000
0100
0010
0001
0000
0000
0000
,
1000
0000
0010
0100
0001
0000
0000
0000
,
0100
0000
0010
1000
0100
0000
0000
0000
,
1000
0000
0100
1000
0001
0000
0000
0000
,
0100
0000
0100
0000
0010
0100
0010
0000
,
1000
0000
1000
0000
0001
1000
0001
0000
,
0010
0000
0010
0000
0100
0010
0100
0000
,
2000
0000
0000
3000
,
0101
1000
0001
0100
,
1010
0001
1000
0100
,
0011
1000
0001
0100
,
1001
0000
1000
0000
0100
0010
0001
0000
,
1000
0100
1000
0100
1000
0000
0000
0000
,
0001
0100
0001
0100
0001
0000
0000
0000
,
1000
0001
1000
0001
1000
0001
1000
0001
,
1000
0000
0000
0000
,
0110
1001
0110
1001
,
0110
1001
0110
1001
,
0110
1001
0110
1001
,
0110
0000
1001
0000
0100
0010
0001
0000
,
1001
1100
1001
0101
,
1001
1100
1001
0101
,
1001
1100
1001
0101
,
1001
0000
1100
0000
0001
1000
0010
0000
,
1010
0011
1010
0011
,
1100
0101
1100
0101
,
1010
0011
1010
0011
,
1100
0101
1100
0101
,
1001
0110
1001
0110
,
2000
0000
3000
0000
,
0000
0001
1000
0001
1000
0000
0110
0000
,
0001
1000
0100
0000
,
2000
3000
0002
0003
,
0200
0300
0010
0010
,
1000
0100
1000
0000
0001
0100
0001
0000
,
1000
0010
1000
0000
2002
0000
3003
0000
,
0110
0110
1001
1001
,
0110
1001
0110
1001
,
0110
0110
1001
1001
,
0110
0000
1001
0000
0010
1000
0001
0000
,
0101
0101
1100
1100
,
0101
1100
0101
1100
,
0011
0011
1010
1010
,
0011
0000
1010
0000
0010
1000
0001
0000
,
1001
1100
1001
0101
,
1001
1010
1001
0011
,
1001
0110
1001
0110
,
1010
0101
0011
1100
,
1001
0110
1001
0110
,
0002
0000
0000
0003
,
0000
0100
0010
0100
0010
0000
1001
0000
,
0010
1000
0100
0001
;

//---------------dance-single - ----------------
#NOTEDATA:;
#CHARTNAME:;
#STEPSTYPE:dance-single;
#DESCRIPTION:;
#CHARTSTYLE:;
#DIFFICULTY:Easy;
#METER:3;
#RADARVALUES:0.170855,0.195248,0.057638,0.043228,0.000000,152.000000,8.000000,6.000000,0.000000,0.000000,0.000000,0.000000,0.000000,0.170855,0.195248,0.057638,0.043228,0.000000,152.000000,8.000000,6.000000,0.000000,0.000000,0.000000,0.000000,0.000000;
#CREDIT:Ben Speirs;
#NOTES:
0000
0000
0000
0000
,
0000
0000
0000
0000
,
0100
0000
0010
0000
,
1000
0000
0001
0000
,
1000
0000
0100
0000
,
0010
0000
0010
0000
,
0001
0000
1000
0000
,
2002
0000
0000
3003
,
0010
0000
0100
0100
,
0010
0000
1000
0000
,
0001
0000
1000
1000
,
0001
0000
0010
0000
,
0100
0000
1000
1000
,
0100
0000
1000
0000
,
0010
0000
0100
0100
,
0010
0000
1000
0000
,
1001
0000
0100
0000
,
0000
0010
0010
0000
,
0001
0000
1001
0000
,
0000
1000
1000
0000
,
0010
0010
0010
0000
,
0100
0100
0100
0000
,
0001
0001
0001
0000
,
1001
0000
0000
0000
,
0100
0000
0010
0010
,
1000
0000
0100
0100
,
0010
0000
0001
0001
,
1000
0000
0010
0010
,
0100
0000
0001
0000
,
1000
0000
0010
0000
,
0100
0001
1000
0010
,
1001
0000
0000
0000
,
1000
0000
0100
1000
,
0001
0000
0100
0001
,
1000
0000
0010
0010
,
0010
0000
0000
1000
,
0001
0000
0100
0010
,
1000
0000
0100
0010
,
0001
0000
1000
0000
,
0001
0000
0000
0100
,
0100
0000
0010
1000
,
0001
0000
0000
1000
,
1000
0000
0100
1000
,
0001
0000
0000
0100
,
0100
0000
0010
0000
,
2002
0000
0000
3003
,
0000
0010
0010
0000
,
1000
0100
0010
0001
,
1000
0000
0000
0000
,
0001
0000
0000
0000
,
0100
0000
0100
0000
,
0010
0000
0010
0000
,
1000
0000
0100
0000
,
0010
0000
0010
0000
,
0001
0000
1000
0000
,
0010
0010
0000
0100
,
0100
0000
0001
0000
,
1000
0000
0100
0000
,
0010
0000
0001
0000
,
1000
1000
0000
0001
,
0001
0000
0100
0000
,
0010
0000
0000
1000
,
1000
0000
0100
0000
,
0010
0000
0000
0001
,
0001
0000
1000
0000
,
2002
0000
0000
3003
,
0010
0100
0010
0000
,
1000
0001
1000
0110
;

//---------------dance-single - ----------------
#NOTEDATA:;
#CHARTNAME:;
#STEPSTYPE:dance-single;
#DESCRIPTION:;
#CHARTSTYLE:;
#DIFFICULTY:Beginner;
#METER:2;
#RADARVALUES:0.126597,0.195248,0.072047,0.000000,0.000000,113.000000,10.000000,0.000000,0.000000,0.000000,0.000000,0.000000,0.000000,0.126597,0.195248,0.072047,0.000000,0.000000,113.000000,10.000000,0.000000,0.000000,0.000000,0.000000,0.000000,0.000000;
#CREDIT:Ben Speirs;
#NOTES:
0000
0000
0000
0000
,
0000
0000
0000
0000
,
0010
0000
0000
0000
,
1000
0000
0000
0000
,
0001
0000
0000
0000
,
1000
0000
0000
0000
,
0100
0000
0000
0000
,
0100
0000
0000
0000
,
1001
0000
0000
0000
,
0010
0000
0010
0000
,
1000
0000
0000
0000
,
0001
0000
0000
0000
,
1000
0000
0000
0000
,
0100
0000
0100
0000
,
0010
0000
0000
0000
,
0001
0000
0000
0000
,
0100
0000
0100
0000
,
0000
0000
0001
0000
,
1000
0000
1000
0000
,
0000
0000
0010
0000
,
0100
0100
0100
0000
,
0100
0100
0100
0000
,
0010
0010
0010
0000
,
1001
0000
0000
0000
,
1000
0000
1000
0000
,
0001
0000
0001
0000
,
1000
0000
1000
0000
,
0001
0000
0001
0000
,
0100
0000
0100
0000
,
0010
0000
0010
0000
,
0100
0100
0100
0100
,
0100
0000
0000
0000
,
0001
0000
1000
0000
,
0010
0000
0010
0000
,
1000
0000
0100
0000
,
0010
0000
0010
0000
,
0001
0000
1000
0000
,
0001
0000
0100
0000
,
0010
0000
1000
0000
,
0100
0000
0100
0000
,
1000
0000
0001
0000
,
1000
0000
0010
0000
,
0100
0000
0001
0000
,
1000
0000
0100
0000
,
1000
0000
0001
0000
,
0100
0000
0000
0000
,
0010
0010
0010
0000
,
1000
0000
0001
0000
,
0110
0000
0000
0000
,
1000
0000
0001
0000
,
0010
0000
0000
0000
,
0100
0000
1001
0000
,
0110
0000
0000
0000
,
1000
1000
0000
0000
,
0001
0000
0000
0000
,
0010
0010
0000
0000
,
1001
0000
0000
0000
,
0010
0010
0000
0000
,
1000
0000
0000
0000
,
0100
0100
0000
0000
,
1001
0000
0000
0000
,
0001
0001
0000
0000
,
1001
0000
0000
0000
,
1000
1000
0000
0000
,
1001
0000
0000
0000
,
0110
0000
0000
0000
,
0000
1000
1000
0000
,
0001
0001
0001
0001
;

//---------------dance-double - ----------------
#NOTEDATA:;
#CHARTNAME:;
#STEPSTYPE:dance-double;
#DESCRIPTION:;
#CHARTSTYLE:;
#DIFFICULTY:Challenge;
#METER:8;
#RADARVALUES:0.517710,0.562373,0.208937,0.050433,0.136890,467.000000,29.000000,7.000000,0.000000,0.000000,0.000000,0.000000,0.000000,0.517710,0.562373,0.208937,0.050433,0.136890,467.000000,29.000000,7.000000,0.000000,0.000000,0.000000,0.000000,0.000000;
#CREDIT:Ben Speirs;
#NOTES:
// measure 0
00000000
00000000
00000000
00000000
,  // measure 1
00000000
00000000
00000000
00000000
,  // measure 2
00000000
00000000
00000000
00000000
,  // measure 3
00000000
00000000
00000000
00000000
,  // measure 4
00010000
00001000
00010000
00000100
00001000
00000100
00010000
00001000
,  // measure 5
00100000
00010000
10000000
00000000
,  // measure 6
00100000
00000000
01000000
00100000
,  // measure 7
10000000
00000000
00010000
00000000
,  // measure 8
10000000
01000000
00100000
00010000
01000000
00010000
00100000
00001000
,  // measure 9
00010000
00000000
00000100
00001000
00000010
00000000
00000100
00000000
,  // measure 10
00000001
00000100
00000010
00001000
00000100
00010000
00001000
00010000
,  // measure 11
00000100
00000000
00001000
00000010
00000100
00000000
00000001
00000000
,  // measure 12
00000100
00000000
00000010
00001000
00000100
00010000
00001000
00001000
,  // measure 13
00000000
00100000
00010000
00010000
00000000
01000000
00010000
10000000
,  // measure 14
00100000
00000000
01000000
00100000
10000000
01000000
00100000
00010000
,  // measure 15
02000000
00000000
00100000
03100000
,  // measure 16
01100000
00000000
00010000
01000000
01001000
00000000
01000000
00000000
,  // measure 17
00010000
10000000
00100000
01000000
00010000
00010000
00100000
00001000
,  // measure 18
00010000
00000000
00000100
00010000
00011000
00000000
00010000
00000100
,  // measure 19
00001000
00001000
00000010
00000100
00000001
00001000
00000001
00000000
,  // measure 20
00000100
00000001
00000100
00000001
00001010
00000000
00001010
00000000
,  // measure 21
00001000
00000100
00001000
00000100
00011000
00000000
00011000
00000000
,  // measure 22
00100000
00010000
10000000
00100000
01000000
00010000
00100000
00001000
,  // measure 23
00010000
00000100
00001000
00000010
00000100
00000001
00001000
00000000
,  // measure 24
00001001
00000000
00001000
00000100
00010000
00001000
00100000
00000000
,  // measure 25
00101000
00000000
00100000
00001000
00010000
00001000
01000000
00010000
,  // measure 26
10000000
00000000
00100000
10000000
00100000
10000000
01000000
00000000
,  // measure 27
01010000
00000000
10010000
00000000
00100000
10000000
01000000
00000000
,  // measure 28
11000000
00000000
00010000
00100000
00001000
00010000
00000100
00000000
,  // measure 29
00001010
00000000
00001000
00000100
00010000
00001000
00100000
00000000
,  // measure 30
00010000
00000000
00010000
00000000
10000000
00000000
10000000
00000000
00100000
00000000
01000000
00000000
00010000
00100000
00010000
00100000
,  // measure 31
00001000
00000000
00010000
00000000
00000100
00000000
00001000
00000000
00000010
00000000
00000100
00000010
00000100
00000010
00000100
00000010
,  // measure 32
00001000
00000000
00000100
00001000
00000010
00000100
00000001
00000010
,  // measure 33
00000100
00000100
00000010
00000001
00000001
00000100
00000010
00001000
,  // measure 34
00000100
00010000
00010000
00001000
00100000
00010000
01000000
00100000
,  // measure 35
10000000
00000000
10000000
00000000
01000000
00000000
10000000
00000000
00100000
00000000
01000000
00010000
01000000
00010000
01000000
00010000
,  // measure 36
10000000
00000000
00100000
10000000
01000000
00100000
00010000
01000000
,  // measure 37
00001000
00001000
00010000
00010000
00001000
00010000
00000100
00001000
,  // measure 38
00000010
00000010
00000100
00000010
00001000
00000100
00010000
00001000
,  // measure 39
00010000
00000000
00000100
00000000
00001000
00000000
00000010
00000000
00000100
00000000
00000001
00001000
00000001
00001000
00000001
00001000
,  // measure 40
00000010
00000000
00000100
00000001
00000010
00000010
00000100
00001000
,  // measure 41
00000010
00000000
00000100
00000000
00001000
00000000
00010000
00000000
00100000
00000000
10000000
01000000
10000000
01000000
10000000
01000000
,  // measure 42
10000000
00000000
00100000
10000000
01000000
00100000
00010000
01000000
,  // measure 43
01000000
00000000
00100000
00000000
00010000
00000000
00001000
00000000
00010000
00000000
00000010
00010000
00000010
00010000
00000010
00010000
,  // measure 44
00001000
00000000
00010000
00000100
00001000
00000010
00000100
00000000
,  // measure 45
00000001
00000000
00000100
00000010
00000100
00000000
00000000
00000001
00000000
00000000
00001000
00000000
00000010
00000000
00000000
00000000
,  // measure 46
00000000
00001100
00001100
00001001
00001001
00000000
00000001
00000010
,  // measure 47
00000100
00001000
00000010
00000100
00001000
00010000
00100000
10000000
,  // measure 48
02000000
00000000
03100000
00010000
20000000
00000000
30100000
10000000
,  // measure 49
00020000
00000000
01030000
00001000
00010000
00010000
00000100
00000100
,  // measure 50
00000020
00000000
00000000
00000000
00000031
00000010
00000100
00000000
00002000
00000000
00000000
00000000
00003010
00001000
00000100
00000000
,  // measure 51
00010000
00000000
00001000
00010000
00001000
00000000
00100000
00010000
02000000
00000000
00000000
00000000
00000000
00100000
03100000
00000000
,  // measure 52
01100000
00000000
00100000
10000000
01000000
00100000
00010000
01000000
,  // measure 53
00100000
01000000
00010000
00100000
00100000
00001000
00010000
00010000
,  // measure 54
00000100
00001000
00000010
00000100
00000001
00000001
00000010
00000100
,  // measure 55
00001000
00000000
00001000
00000000
00000100
00000000
00010000
00000000
00001000
00000000
00010000
00000100
00010000
00000100
00010000
00000100
,  // measure 56
00001000
00000000
00000100
00001000
00000010
00000100
00000001
00001000
,  // measure 57
00000010
00000010
00001000
00000001
00000001
00000010
00000001
00000100
,  // measure 58
00000010
00001000
00000100
00010000
00010000
00001000
00100000
00010000
,  // measure 59
10000000
00000000
10000000
00000000
00100000
00000000
01000000
00000000
00010000
00000000
10000000
01000000
10000000
01000000
10000000
01000000
,  // measure 60
00100000
00000000
00010000
10000000
00100000
01000000
01010000
00100000
,  // measure 61
10000000
00000000
01000000
00000000
11000000
00000000
10000000
00000000
00100000
00000000
01000000
00010000
01000000
00010000
01000000
00010000
,  // measure 62
00100000
00000000
00101000
00001000
00010000
00000100
00001100
00001000
,  // measure 63
00000010
00000000
00000100
00000000
00000110
00000000
00000100
00000000
00000001
00000000
00001000
00000100
00001000
00000100
00001000
00000100
,  // measure 64
00000010
00000000
00000011
00000001
00001000
00000010
00000100
00000000
,  // measure 65
00000001
00000000
00000100
00000010
00000100
00000000
00000000
00000001
00000000
00000000
00001000
00000000
00000010
00000000
00000000
00000000
,  // measure 66
00000000
00001100
00001100
00010100
00010100
00000000
00001000
00010000
,  // measure 67
00001000
00100000
00010000
01000000
01000000
00100000
10000000
01010000
;
