#TITLE:You Said No;
#SUBTITLE:;
#ARTIST:Busted;
#TITLETRANSLIT:;
#SUBTITLETRANSLIT:;
#ARTISTTRANSLIT:;
#GENRE:;
#CREDIT:;
#BANNER:You Said No-bn.png;
#BACKGROUND:You Said No-bg.png;
#LYRICSPATH:;
#CDTITLE:;
#MUSIC:You Said No.mp3;
#OFFSET:-0.360;
#SAMPLESTART:83.280;
#SAMPLELENGTH:14.340;
#SELECTABLE:YES;
#BPMS:0.000=164.000
,290.000=82.000
;
#STOPS:120.000=0.720
;
#BGCHANGES:-0.800=You Said No.avi=1.000=1=0=0=StretchNoLoop==CrossFade==,
99999=-nosongbg-=1.000=0=0=0 // don't automatically add -songbackground-
;
#KEYSOUNDS:;
#ATTACKS:;

//---------------dance-single - ----------------
#NOTES:
     dance-single:
     :
     Hard:
     11:
     0.448,0.437,0.314,0.132,0.008,325.000,38.000,16.000,0.000,0.000,0.000,0.448,0.437,0.314,0.132,0.008,325.000,38.000,16.000,0.000,0.000,0.000: // measure 0
0000
0000
0000
0000
,  // measure 1
0000
0000
0000
0000
,  // measure 2
0000
0000
0000
0000
,  // measure 3
0000
0000
0000
0000
,  // measure 4
0001
0000
0000
1000
0100
0000
1000
0000
,  // measure 5
0010
0000
0000
0100
0001
0000
1000
0000
,  // measure 6
0100
0000
0000
1000
0001
0000
1000
0000
,  // measure 7
0010
0000
0100
0000
0010
1000
0001
0000
,  // measure 8
0100
0000
0000
0010
1000
0000
0001
0000
,  // measure 9
1000
0000
0000
0100
0010
0000
0001
0000
,  // measure 10
1000
0000
0000
0010
1000
0000
0001
0000
,  // measure 11
0100
0000
0010
0000
0100
0001
1000
0000
,  // measure 12
2100
0100
0010
0100
,  // measure 13
0010
0000
0001
0000
0100
0100
3100
0000
,  // measure 14
1002
0100
0010
1000
,  // measure 15
0010
0000
1000
0000
0100
0100
0103
0000
,  // measure 16
0010
0100
0001
0000
0010
0100
1000
0000
,  // measure 17
0001
1000
0010
0000
1000
0001
0100
0000
,  // measure 18
0010
0000
0100
0000
0001
0010
1000
0000
,  // measure 19
0010
0001
1000
0000
0100
1000
0001
0000
,  // measure 20
0110
0000
0001
1000
0000
0010
0100
0000
,  // measure 21
0001
0000
0010
0100
0000
1000
0001
0000
,  // measure 22
1000
0000
0010
0100
0000
0001
0100
0101
,  // measure 23
0000
1100
0000
1001
0000
0110
0000
1000
,  // measure 24
0100
0000
1000
0001
0000
0010
0100
0000
,  // measure 25
0010
0000
0001
1000
0000
0010
0100
0000
,  // measure 26
0001
0000
1000
0100
0000
0010
0001
0000
,  // measure 27
1000
0000
0010
1000
0001
1000
0010
0000
,  // measure 28
0100
0000
0010
0100
0001
0000
0010
0100
,  // measure 29
2000
0001
0010
3100
,  // measure 30
1001
0000
0100
0001
,  // measure 31
1000
0100
1000
0010
,  // measure 32
0100
0000
0001
0000
0101
0000
0000
1100
,  // measure 33
0000
2002
3003
0010
,  // measure 34
1000
0001
0011
0000
0101
0000
0010
0000
,  // measure 35
0100
0001
0010
0100
,  // measure 36
0010
0000
0001
0000
0011
0000
0000
1100
,  // measure 37
0000
2002
3003
0100
,  // measure 38
0010
0100
0001
0000
1000
0010
1000
0010
,  // measure 39
0000
0000
0100
0001
0100
0001
0000
0000
,  // measure 40
0020
0000
0230
0000
1300
0001
1000
0001
,  // measure 41
0000
0000
0100
0001
0100
0001
0000
0000
,  // measure 42
0020
0000
0032
0000
1003
0100
1000
0100
,  // measure 43
0000
0000
1000
0010
1000
0010
0000
0000
,  // measure 44
0100
0000
0010
0000
1010
0000
0000
1001
,  // measure 45
0000
0000
0101
0000
0000
0110
0000
0000
,  // measure 46
1001
1100
2000
0000
,  // measure 47
3002
0000
0000
0000
,  // measure 48
0000
0000
0103
0001
,  // measure 49
1000
0000
0100
1000
0100
0000
1000
0000
,  // measure 50
0001
0000
0100
0001
0100
0000
0010
0000
,  // measure 51
1000
0000
0001
1000
0001
0010
0100
1000
,  // measure 52
0010
0100
0010
1000
0100
0000
1001
0000
,  // measure 53
0110
0000
1000
0001
0100
0000
0110
0000
,  // measure 54
0101
0000
0010
0100
1000
0000
1100
0000
,  // measure 55
1001
0000
1000
0001
1000
0010
0100
0000
,  // measure 56
0001
0010
0100
0000
1100
0000
1000
0001
,  // measure 57
0000
0100
0010
0000
1000
0000
0010
0100
,  // measure 58
0000
0001
0010
0000
0100
0000
0010
0001
,  // measure 59
0000
1000
0001
1001
0000
1010
0000
0101
,  // measure 60
0000
1100
0000
0010
0001
0000
0010
0100
,  // measure 61
0000
1000
0001
0000
0100
0000
0010
1000
,  // measure 62
0000
0100
0010
0000
0001
0000
1000
0100
,  // measure 63
0000
0010
0001
0000
1000
0000
0001
0100
,  // measure 64
1000
0100
0001
0000
0011
0000
0100
0010
,  // measure 65
0000
0001
1000
0000
0010
0000
0100
0010
,  // measure 66
0000
1000
0100
0000
0010
0000
0001
1000
,  // measure 67
0000
0010
1000
1010
0000
1001
0000
0110
,  // measure 68
0000
0101
0000
1000
0100
0000
0010
0001
,  // measure 69
0000
1000
0010
0000
0100
0000
0010
1000
,  // measure 70
0000
0100
0010
0000
0001
0000
1000
0010
,  // measure 71
0000
0100
0001
0000
1000
0000
0001
0010
,  // measure 72
0100
1000
0010
0100
0002
0000
0000
0000
,  // measure 73
0000
0000
0000
0000
0000
0000
0000
0000
0203
0000
0000
0000
,  // measure 74
0000
0000
0000
0000
0000
0000
0000
0000
0000
0300
0000
0020
,  // measure 75
0000
0000
0030
0000
;

//---------------dance-single - ----------------
#NOTES:
     dance-single:
     :
     Medium:
     7:
     0.330,0.344,0.323,0.083,0.008,230.000,39.000,10.000,0.000,0.000,0.000,0.330,0.344,0.323,0.083,0.008,230.000,39.000,10.000,0.000,0.000,0.000: // measure 0
0000
0000
0000
0000
,  // measure 1
0000
0000
0000
0000
,  // measure 2
0000
0000
0000
0000
,  // measure 3
0000
0000
0000
0000
,  // measure 4
0010
0000
1000
0001
,  // measure 5
0100
0000
0001
0010
,  // measure 6
0100
0000
0010
0001
,  // measure 7
1000
0100
1000
0010
,  // measure 8
0100
0000
0010
1000
,  // measure 9
0001
0000
1000
0100
,  // measure 10
0010
0000
0001
0010
,  // measure 11
0100
1000
0010
0000
,  // measure 12
1001
1000
0100
0010
,  // measure 13
0001
0100
0010
0100
,  // measure 14
0001
0010
0001
1000
,  // measure 15
0100
1000
0010
0100
,  // measure 16
0010
1000
0100
1000
,  // measure 17
0001
0010
0001
1000
,  // measure 18
0010
0100
0001
1000
,  // measure 19
0010
0100
0000
1001
,  // measure 20
1001
0000
0000
0100
0000
0000
1000
0000
,  // measure 21
0001
0000
0000
0010
0000
0000
0011
0000
,  // measure 22
0011
0000
0000
0100
0000
0000
0000
1001
,  // measure 23
0000
1001
0000
1001
0000
1001
0000
0000
,  // measure 24
1010
0000
0000
0100
0000
0000
1000
0000
,  // measure 25
0001
0000
0000
0100
0000
0000
0110
0000
,  // measure 26
0110
0000
0000
0100
0000
0000
0000
0000
,  // measure 27
0010
1000
0001
1000
,  // measure 28
0200
0000
2300
0000
,  // measure 29
3002
0000
0000
0000
,  // measure 30
1003
0000
0010
0010
,  // measure 31
1000
0001
1000
0010
,  // measure 32
0100
0000
0001
0000
1000
0000
1000
0001
,  // measure 33
0000
0001
0200
0000
0000
0000
0010
0000
,  // measure 34
0010
0310
0010
1000
,  // measure 35
0100
1000
0001
0010
,  // measure 36
0100
0000
1000
0000
0001
0000
0001
0010
,  // measure 37
0000
0010
0200
0000
0000
0000
0010
0000
,  // measure 38
0010
0000
0010
0000
0310
0000
0001
0010
,  // measure 39
0000
0000
0001
0000
0010
0001
0000
0000
,  // measure 40
0000
0000
0000
0000
0100
0000
1000
0100
,  // measure 41
0000
0000
1000
0000
0100
1000
0000
0000
,  // measure 42
0000
0000
0000
0000
0010
0100
0010
0100
,  // measure 43
0000
0000
0010
0100
0010
0100
0000
0000
,  // measure 44
0000
0000
0000
0000
1001
0000
0000
1001
,  // measure 45
0000
0000
0110
0000
0000
0110
0000
0000
,  // measure 46
0001
0100
0020
0000
,  // measure 47
0000
0000
0000
0000
,  // measure 48
0000
0000
0130
0100
,  // measure 49
0100
0100
0010
0010
,  // measure 50
0010
0010
1000
1000
,  // measure 51
1000
1000
0001
0001
,  // measure 52
0001
0001
1000
0001
,  // measure 53
0100
0000
0010
0100
0010
0000
1000
0000
,  // measure 54
0001
0000
0010
0100
0010
0000
0001
0000
,  // measure 55
1000
0000
0010
0100
0010
0000
1000
0000
,  // measure 56
0001
0000
1001
0000
1001
0000
0000
0100
,  // measure 57
0000
0000
1000
0000
0010
0000
0000
0100
,  // measure 58
0000
0000
0110
0000
0110
0000
0000
0100
,  // measure 59
0000
0000
0000
0101
0000
1100
0000
1001
,  // measure 60
0000
0110
0000
0000
0101
0000
0000
1000
,  // measure 61
0000
0000
0010
0000
0010
0000
0000
1000
,  // measure 62
0000
0000
1100
0000
1100
0000
0000
1000
,  // measure 63
0000
0000
0010
1000
,  // measure 64
0001
0000
0101
0000
0101
0000
0000
0010
,  // measure 65
0000
0000
1000
0000
0001
0000
0000
1000
,  // measure 66
0000
0000
0110
0000
0110
0000
0000
0001
,  // measure 67
0000
0000
0000
0110
0000
1001
0000
1100
,  // measure 68
0000
0101
0000
0000
1100
0000
0000
0010
,  // measure 69
0000
0000
1000
0000
0001
0000
0000
0100
,  // measure 70
0000
0000
1001
0000
1001
0000
0000
0010
,  // measure 71
0000
0000
1000
0001
,  // measure 72
0100
0010
1000
0000
0200
0000
0000
0000
,  // measure 73
0000
0000
0000
0000
0000
0000
0000
0000
0320
0000
0000
0000
,  // measure 74
0000
0000
0000
0000
0000
0000
0030
0000
0000
0000
0000
2002
,  // measure 75
0000
0000
3003
0000
;

//---------------dance-single - ----------------
#NOTES:
     dance-single:
     :
     Beginner:
     2:
     0.112,0.180,0.033,0.000,0.000,91.000,4.000,0.000,0.000,0.000,0.000,0.112,0.180,0.033,0.000,0.000,91.000,4.000,0.000,0.000,0.000,0.000: // measure 0
0000
0000
0000
0000
,  // measure 1
0000
0000
0000
0000
,  // measure 2
0000
0000
0000
0000
,  // measure 3
0000
0000
0000
0000
,  // measure 4
0010
0000
0000
0000
,  // measure 5
0010
0000
0000
0000
,  // measure 6
0010
0000
0000
0000
,  // measure 7
0010
0000
0010
0000
,  // measure 8
0100
0000
0000
0000
,  // measure 9
0100
0000
0000
0000
,  // measure 10
0100
0000
0000
0000
,  // measure 11
0100
0000
0100
0000
,  // measure 12
0100
0000
0000
0000
,  // measure 13
0001
0000
0000
0000
,  // measure 14
1000
0000
0000
0000
,  // measure 15
0010
0000
0000
0000
,  // measure 16
1000
0000
0000
0000
,  // measure 17
0100
0000
0000
0000
,  // measure 18
0010
0000
0000
0000
,  // measure 19
0001
0000
0000
0000
,  // measure 20
1000
0000
1000
0000
,  // measure 21
1000
0000
1000
0000
,  // measure 22
1000
0000
1000
0000
,  // measure 23
1000
0000
0000
0000
,  // measure 24
0010
0000
0010
0000
,  // measure 25
0010
0000
0010
0000
,  // measure 26
0010
0000
0010
0000
,  // measure 27
0010
0000
0000
0000
,  // measure 28
0100
0000
0000
0000
,  // measure 29
0001
0000
0000
0000
,  // measure 30
1001
0000
0100
0000
,  // measure 31
0000
0000
0100
0000
,  // measure 32
0000
0000
1000
0000
,  // measure 33
0000
0000
1000
0000
,  // measure 34
0000
0000
0001
0000
,  // measure 35
0000
0000
0001
0000
,  // measure 36
0000
0000
0010
0000
,  // measure 37
0000
0000
0010
0000
,  // measure 38
0000
0000
0100
0000
,  // measure 39
0000
0000
0000
0000
,  // measure 40
0000
0000
1001
0000
,  // measure 41
0000
0000
0000
0000
,  // measure 42
0000
0000
0010
0000
,  // measure 43
0000
0000
0000
0000
,  // measure 44
0000
0000
1001
0000
,  // measure 45
0000
0000
0000
0000
,  // measure 46
0000
0000
0100
0000
,  // measure 47
0000
0000
0000
0000
,  // measure 48
0000
0000
0010
0000
,  // measure 49
0000
0000
0000
0000
,  // measure 50
0000
0000
0001
0000
,  // measure 51
0000
0000
0000
0000
,  // measure 52
0000
0000
1000
1000
,  // measure 53
1000
0000
0001
0001
,  // measure 54
0001
0000
0010
0010
,  // measure 55
0010
0000
0100
0100
,  // measure 56
0100
0000
1000
0000
,  // measure 57
1000
0000
1000
0000
,  // measure 58
1000
0000
1000
0000
,  // measure 59
1000
0000
1000
0000
,  // measure 60
0000
0000
0001
0000
,  // measure 61
0001
0000
0001
0000
,  // measure 62
0001
0000
0001
0000
,  // measure 63
0001
0000
0001
0000
,  // measure 64
0000
0000
0010
0000
,  // measure 65
0010
0000
0010
0000
,  // measure 66
0010
0000
0010
0000
,  // measure 67
0010
0000
0010
0000
,  // measure 68
0000
0000
0100
0000
,  // measure 69
0100
0000
0100
0000
,  // measure 70
0100
0000
0100
0000
,  // measure 71
0100
0000
0100
0000
,  // measure 72
0000
0000
0110
0000
;

//---------------dance-single - ----------------
#NOTES:
     dance-single:
     :
     Easy:
     4:
     0.188,0.187,0.074,0.058,0.000,143.000,9.000,7.000,0.000,0.000,0.000,0.188,0.187,0.074,0.058,0.000,143.000,9.000,7.000,0.000,0.000,0.000: // measure 0
0000
0000
0000
0000
,  // measure 1
0000
0000
0000
0000
,  // measure 2
0000
0000
0000
0000
,  // measure 3
0000
0000
0000
0000
,  // measure 4
0010
0000
0000
0000
,  // measure 5
1000
0000
0000
0000
,  // measure 6
0001
0000
0000
0000
,  // measure 7
0010
0000
0001
0000
,  // measure 8
1000
0000
0000
0000
,  // measure 9
0010
0000
0000
0000
,  // measure 10
1000
0000
0000
0000
,  // measure 11
0100
0000
1000
0000
,  // measure 12
0010
1000
0100
0000
,  // measure 13
1000
0100
1000
0000
,  // measure 14
0010
1000
0001
0000
,  // measure 15
0010
0001
0010
0000
,  // measure 16
0001
0000
1000
0000
,  // measure 17
0010
0000
0100
0000
,  // measure 18
0001
0000
1000
0000
,  // measure 19
0100
1000
0100
0000
,  // measure 20
1000
0000
0001
0100
,  // measure 21
0001
0000
1000
0100
,  // measure 22
1000
0000
0010
0000
,  // measure 23
1000
0000
0001
0000
,  // measure 24
0010
0000
0001
0100
,  // measure 25
0001
0000
1000
0001
,  // measure 26
1000
0000
0100
0000
,  // measure 27
1000
0010
0100
0001
,  // measure 28
0200
0000
0302
0000
,  // measure 29
2003
0000
0000
0000
,  // measure 30
3001
0000
1000
0000
,  // measure 31
0001
0000
0100
0000
,  // measure 32
0001
0000
1000
0000
,  // measure 33
1000
0000
1000
0000
,  // measure 34
0000
0000
0010
0000
,  // measure 35
1000
0000
0001
0000
,  // measure 36
0010
0000
0100
0000
,  // measure 37
0100
0000
0100
0000
,  // measure 38
0000
0000
1001
0000
,  // measure 39
0000
0110
0000
0000
,  // measure 40
0000
0000
0110
0000
,  // measure 41
0000
1001
0000
0000
,  // measure 42
0000
0000
0100
1000
,  // measure 43
0000
0001
0100
0000
,  // measure 44
0000
0000
0010
1000
,  // measure 45
0001
1000
0100
0010
,  // measure 46
0001
2000
0002
0000
,  // measure 47
0000
0000
0000
0000
,  // measure 48
0000
3003
0100
0000
,  // measure 49
0100
0000
0010
0000
,  // measure 50
0010
0000
1000
0000
,  // measure 51
1000
0000
0001
0000
,  // measure 52
0001
0000
0000
0100
,  // measure 53
0100
0000
0000
1001
,  // measure 54
1001
0000
0000
0010
,  // measure 55
0010
0000
0000
1001
,  // measure 56
1001
0000
0100
0000
,  // measure 57
1000
0000
0010
0000
,  // measure 58
0100
0000
0001
0000
,  // measure 59
1000
0000
0001
0010
,  // measure 60
0100
1000
0010
0000
,  // measure 61
1000
0000
0001
0000
,  // measure 62
1000
0000
0010
0000
,  // measure 63
1000
0000
0010
0100
,  // measure 64
0010
0000
1000
0000
,  // measure 65
0001
0000
1000
0000
,  // measure 66
0100
0000
0010
0000
,  // measure 67
0001
0000
1000
0100
,  // measure 68
0010
0001
0100
0000
,  // measure 69
0001
0000
1000
0000
,  // measure 70
0001
0000
0010
0100
,  // measure 71
0010
0000
0001
0000
,  // measure 72
1000
0000
2002
0000
,  // measure 73
0000
0000
0000
0000
,  // measure 74
0000
0000
0000
0000
,  // measure 75
0000
0000
3003
0000
;
