#VERSION:0.82;
#TITLE:All Star;
#SUBTITLE:;
#ARTIST:Smash Mouth;
#TITLETRANSLIT:;
#SUBTITLETRANSLIT:;
#ARTISTTRANSLIT:;
#GENRE:Pop-Rock;
#ORIGIN:;
#CREDIT:;
#BANNER:All Star.png;
#BACKGROUND:All Star-bg.png;
#PREVIEWVID:;
#JACKET:jacket.png;
#CDIMAGE:;
#DISCIMAGE:;
#LYRICSPATH:;
#CDTITLE:;
#MUSIC:All Star.ogg;
#OFFSET:1.591000;
#SAMPLESTART:37.643852;
#SAMPLELENGTH:13.714000;
#SELECTABLE:YES;
#BPMS:0.000=104.000;
#STOPS:;
#DELAYS:;
#WARPS:;
#TIMESIGNATURES:0.000=4=4;
#TICKCOUNTS:0.000=4;
#COMBOS:0.000=1;
#SPEEDS:0.000=1.000=0.000=0;
#SCROLLS:0.000=1.000;
#FAKES:;
#LABELS:0.000=Song Start;
#BGCHANGES:3.750=All Star.avi=1.000=0=0=1=====,
99999=-nosongbg-=1.000=0=0=0 // don't automatically add -songbackground-
;
#KEYSOUNDS:;
#ATTACKS:
;

//---------------dance-single - ----------------
#NOTEDATA:;
#CHARTNAME:;
#STEPSTYPE:dance-single;
#DESCRIPTION:;
#CHARTSTYLE:;
#DIFFICULTY:Hard;
#METER:7;
#RADARVALUES:0.418080,0.472880,0.124007,0.157075,0.107473,320.000000,15.000000,19.000000,0.000000,0.000000,0.000000,0.000000,0.000000,0.418080,0.472880,0.124007,0.157075,0.107473,320.000000,15.000000,19.000000,0.000000,0.000000,0.000000,0.000000,0.000000;
#CREDIT:Ben Speirs;
#NOTES:
0000
0000
0000
0000
,
0000
0000
0000
0000
,
0000
0000
0000
0000
,
0000
0000
0000
0000
,
0000
0000
0000
0000
,
0001
0000
1000
0010
0010
0000
0100
0001
,
1000
0000
0001
0010
0010
0001
0000
1000
,
0010
0000
1000
0100
0100
0000
1000
0001
,
0100
0000
0000
0010
0100
0000
0000
0010
0100
0000
0000
0000
1001
0000
0000
0000
,
1000
0100
0010
0001
0100
0100
0001
0000
,
0001
0100
0010
1000
0100
0100
1000
0000
,
0001
1000
0010
0100
0001
1000
0001
0000
,
1000
1000
0100
1000
0001
0001
0100
0000
,
0001
0100
0000
0010
1000
0000
0001
0100
0000
0010
1000
0000
0001
0000
1000
0000
,
0100
0100
0010
0001
1000
1000
0001
0000
,
1000
0100
1000
0010
1000
0000
0000
0000
,
0001
0100
0001
0010
0001
0000
2000
0000
,
3010
0000
0010
0000
1000
0000
0001
0000
0100
0000
0100
0000
0001
0000
1000
0100
,
1000
0000
0100
0000
0000
0000
1100
0000
0000
0000
2002
0000
0000
3003
0000
0000
,
0001
0000
0001
0000
1000
0000
0001
0000
0100
0000
0100
0000
0001
0000
1000
0010
,
1000
0000
0001
0000
0010
0000
0001
0000
0000
0000
0022
0000
0000
0033
0000
0000
,
0001
1000
0001
0000
1000
0100
0010
0001
,
2000
0000
0010
0000
3100
1000
0010
0100
,
0002
0100
0013
1001
,
1000
0001
0100
0000
0010
1000
0010
1000
,
0100
0010
0100
0010
0001
1000
0001
1000
,
0010
0100
0001
0010
0100
1000
0001
0100
,
0020
0000
2030
0000
3100
0000
1000
0001
,
1000
0000
0001
0100
0001
0000
1000
0010
,
1000
0001
0010
0001
1000
0010
0100
0001
,
2000
0000
3100
1000
0010
0100
0001
0000
,
0100
0000
0000
0010
0100
0000
0000
0010
0100
0000
0000
0000
1001
0000
0000
0000
,
0001
0001
0100
0001
1000
1000
0010
0000
,
1000
1000
0100
1000
0001
0001
0010
0000
,
0001
1000
0001
0000
1000
0000
0010
1000
0010
0000
1000
0000
0001
0000
0000
0000
,
1000
0001
1000
0000
0001
0000
0010
0001
0010
0000
0001
0000
1000
0000
0000
0000
,
0001
0100
0000
0010
1000
0000
0001
0100
0000
0010
1000
0000
0001
0000
1000
0000
,
0100
0100
0010
0010
0001
1000
0001
0000
,
1000
0100
1000
0000
0100
1000
0100
0000
1000
0000
0000
0000
1100
0000
0000
0000
,
0001
0100
0001
0000
0100
0001
0100
0000
0001
0000
0000
0000
1001
0000
0000
0000
,
1010
0000
0010
0000
0100
0000
0001
0000
1000
0000
1000
0000
0100
0000
1000
0001
,
1000
0001
0000
1100
0000
0202
0000
0303
,
0101
0000
0100
0000
0010
0000
1000
0000
0001
0000
0001
0000
0010
0000
0001
1000
,
0001
1000
0000
0011
0000
2020
0000
3030
,
0010
1000
0100
0000
0010
0001
0100
0010
,
1000
0001
2000
0000
3001
1000
0100
0010
,
0001
1000
0002
0000
0103
0001
1000
0000
,
0010
0000
0010
0000
0010
0000
0000
0000
1000
0000
0100
0000
1000
0001
1000
0001
,
1000
0010
0100
0001
0010
0100
1000
0010
,
0100
0001
1000
0000
0001
1000
0010
0100
,
0001
1000
0002
0000
0013
0001
1000
0000
,
2200
0000
0000
0000
,
3300
0000
0000
0000
;

//---------------dance-single - ----------------
#NOTEDATA:;
#CHARTNAME:;
#STEPSTYPE:dance-single;
#DESCRIPTION:;
#CHARTSTYLE:;
#DIFFICULTY:Challenge;
#METER:9;
#RADARVALUES:0.544449,0.537363,0.206678,0.107473,0.405089,423.000000,25.000000,13.000000,0.000000,0.000000,0.000000,0.000000,0.000000,0.544449,0.537363,0.206678,0.107473,0.405089,423.000000,25.000000,13.000000,0.000000,0.000000,0.000000,0.000000,0.000000;
#CREDIT:Ben Speirs;
#NOTES:
0000
0000
0000
0000
,
0000
0000
0000
0000
,
0000
0000
0000
0000
,
0000
0000
0000
0000
,
0000
0000
0000
0000
,
2000
0000
3100
1000
0020
0100
0130
0010
,
2000
0000
3100
1000
0002
0100
0000
1003
,
0020
0000
1030
0100
2000
0010
3010
1000
,
0100
0000
0000
1000
0100
0000
0000
0010
0001
0000
0000
0000
1001
0000
0000
0001
,
0100
0000
0100
0000
0010
1000
0010
1000
0100
0000
0010
0000
0001
1000
0000
0000
,
0001
0000
1000
0100
1000
0000
0001
0100
0001
1000
0001
0000
1000
0010
0000
0000
,
1000
0100
0010
0000
0001
0000
0010
0100
0010
0000
0001
0000
1000
0000
0000
0000
,
0001
0100
0010
0000
1000
0000
0010
0100
0010
0000
1000
0000
0001
0000
0000
0000
,
1000
0100
0100
0001
1000
0000
0001
0100
0100
1000
0001
0000
1000
0100
0000
1000
,
0000
0001
0000
0100
0000
0010
0000
1000
0001
0000
1000
0000
0001
0000
1000
0000
,
0010
0100
0010
0000
1000
0001
1000
0000
0001
0000
1000
0100
0010
0000
0001
0000
,
1000
0100
1000
0000
0001
0100
0001
0000
0100
0000
0010
0000
2010
0000
0000
0000
,
3001
0000
0001
0000
1000
0000
0010
1000
0001
0000
0001
0000
0010
0000
0001
1000
,
0001
0000
1000
0000
0010
1000
0100
0000
0010
0001
0200
0000
0310
0000
0100
0001
,
1000
0000
1000
0000
0001
0000
0100
0001
1000
0000
1000
0000
0100
0000
1000
0001
,
1000
0000
0001
0000
0100
0001
0010
0000
0100
1000
0020
0000
0130
0000
0010
1000
,
0002
0100
0203
0010
0310
1000
0100
0010
,
0001
1000
0001
0000
1000
0001
0100
0010
,
1000
1000
1100
0000
0001
0001
0101
0000
,
0001
0100
1000
0100
0010
1000
0100
0001
,
0100
0010
0001
1000
0010
0100
0010
0100
,
0001
0010
1000
0010
0001
1000
0010
0100
,
0001
0000
1000
0000
0100
0000
0010
0000
0001
0000
1000
0000
0010
1000
0100
0000
,
0101
0000
0000
0000
0100
0001
1000
0000
1010
0000
0000
0000
0010
1000
0000
0001
,
0000
0010
0001
0010
0001
0000
1000
0000
0001
0000
0100
0000
0010
0000
1000
0000
,
1100
0100
0110
0010
0011
0001
1001
1000
,
1010
0000
0000
0001
0010
0000
0000
1000
0010
0000
0000
0000
1001
0000
0000
1000
,
0100
0000
1100
0000
0001
0100
0001
0100
0010
0000
1010
0000
0001
1000
0000
0000
,
0001
0000
0010
0001
0010
0000
0001
1000
0001
1000
0010
0000
1000
0100
0000
0000
,
1000
0100
0010
0000
0001
0000
0010
0100
0010
0000
0001
0000
1000
0000
0000
0000
,
0001
0100
0010
0000
1000
0000
0010
0100
0010
0000
1000
0000
0001
0000
0000
0000
,
1000
0010
0010
0001
1000
0000
0001
0010
0010
1000
0001
0000
1000
0010
0000
1000
,
0000
0001
0000
0010
0000
0001
0000
1000
0010
0000
0100
0000
0001
0000
1000
0000
,
0010
1000
0001
0000
0010
0001
1000
0000
0010
0000
0000
0000
1001
0000
0000
0000
,
0001
1000
0100
0000
1000
0001
0100
0000
0001
0000
0000
0000
1000
0001
1000
0001
,
0100
0000
1001
0000
0001
0000
1000
0010
0100
0000
0101
0000
0010
0000
1000
0100
,
0010
0000
0001
0000
0010
0001
1000
0000
0001
1000
0010
0000
0100
0000
0001
1000
,
0010
0000
1010
0000
0001
0000
1000
0001
0010
0000
0011
0000
0001
0000
1000
0100
,
0010
0000
0001
0000
1000
0010
1000
0000
0001
0010
0001
0000
1000
0000
0001
0100
,
0010
0010
1010
1000
0100
0100
0110
0010
,
0001
0000
0001
0000
0101
0000
0100
0000
0010
1000
0010
0000
1000
0001
1000
0000
,
0001
0100
0101
0000
0010
1000
1010
0000
,
0001
0000
1000
0000
0001
0000
1000
0100
1000
0000
0001
0000
0100
0010
0100
0010
,
1000
0000
1000
0000
0100
1000
0100
1000
0001
0000
0001
0000
0010
0001
0010
0001
,
1000
0000
1000
0000
0001
0100
0001
0100
0010
0000
0010
0000
1000
0010
1000
0010
,
0100
0001
0010
0100
1000
0010
0100
0000
,
2002
0000
0000
0000
,
3003
0000
0000
0000
;

//---------------dance-double - ----------------
#NOTEDATA:;
#CHARTNAME:;
#STEPSTYPE:dance-double;
#DESCRIPTION:;
#CHARTSTYLE:;
#DIFFICULTY:Challenge;
#METER:8;
#RADARVALUES:0.519648,0.534780,0.181877,0.074404,0.380288,409.000000,22.000000,9.000000,0.000000,0.000000,0.000000,0.000000,0.000000,0.519648,0.534780,0.181877,0.074404,0.380288,409.000000,22.000000,9.000000,0.000000,0.000000,0.000000,0.000000,0.000000;
#CREDIT:Ben Speirs;
#NOTES:
00000000
00000000
00000000
00000000
,
00000000
00000000
00000000
00000000
,
00000000
00000000
00000000
00000000
,
00000000
00000000
00000000
00000000
,
00000000
00000000
00000000
00000000
,
00000100
00000000
00010000
00000100
00000010
00000000
00000001
00001000
,
00000010
00000000
00000100
00000010
00001000
00001100
00000000
00010100
,
00010000
00000000
00001000
00010000
00100000
00000000
01000000
00100000
,
10000000
00000000
00000000
00100000
10000000
00000000
00000000
00010000
10000000
00000000
00000000
00000000
01010000
00000000
00000000
00000000
,
10000000
00000000
10000000
00000000
00100000
01000000
00100000
01000000
00010000
00000000
10000000
00000000
00010000
10000000
00000000
00000000
,
00010000
00000000
00100000
00010000
00100000
00000000
00010000
01000000
00010000
01000000
00001000
00000000
00010000
00001000
00000000
00000000
,
00010000
00000100
00010000
00000000
00000100
00000000
00001000
00000010
00001000
00000000
00000010
00000000
00000100
00000000
00000000
00000000
,
00000001
00001000
00000001
00000000
00001000
00000000
00000010
00000100
00000010
00000000
00000100
00000000
00000001
00000000
00000000
00000000
,
00000001
00000010
00000000
00000100
00001000
00000000
00000010
00010000
00000000
00001000
00100000
00000000
00010000
01000000
00000000
00100000
,
00000000
10000000
00000000
01000000
00000000
00100000
00000000
00010000
10000000
00000000
00010000
00000000
10000000
00000000
00010000
00000000
,
01000000
00100000
01000000
00000000
00100000
10000000
00100000
00000000
10000000
00000000
00010000
00100000
01000000
00000000
10000000
00000000
,
00010000
00100000
00010000
00000000
01000000
00010000
01000000
00000000
00001000
00000000
00010000
00000000
00022000
00000000
00003000
00000000
,
00030100
00000000
00001100
00000000
00000001
00000000
00001000
00000010
00000100
00000000
00000110
00000000
00000001
00000000
00000100
00000001
,
00001000
00000000
00000010
00000000
00001000
00000100
00001000
00000000
00000100
00010000
00000100
00000000
00010000
00000000
00001000
00000000
,
00100000
00000000
00100000
00000000
00010000
00000000
10000000
00100000
01000000
00000000
01000000
00000000
00100000
00000000
10000000
01000000
,
00100000
00000000
00010000
00000000
10000000
00100000
01000000
00000000
00010000
10000000
00010000
00000000
01000000
00000000
00100000
10000000
,
02000000
00100000
03200000
00010000
00320000
10030000
00100000
01000000
,
00010000
00000000
10000000
00000000
00010000
00000000
10000000
00000000
00100000
01000000
00100000
00000000
01000000
00010000
01000000
00000000
,
00010000
00100000
00002000
00000000
00013000
00000000
00011000
00000000
,
00001000
00000100
00000001
00000010
00001000
00000010
00000001
00000100
,
00000010
00001000
00000100
00010000
00000100
00010000
00001000
00100000
,
00001000
00010000
00100000
10000000
01000000
00010000
01000000
10000000
,
00100000
00000000
01000000
00000000
00010000
00000000
00100000
00000000
01000000
00000000
10000000
00000000
00100000
01000000
00010000
00000000
,
10010000
00000000
00000000
00000000
00100000
10000000
01000000
00000000
10010000
00000000
00000000
00000000
10000000
01000000
00000000
00100000
,
00000000
00010000
01000000
00010000
01000000
00000000
00100000
00000000
01000000
00000000
00010000
00000000
00100000
00000000
00001000
00000000
,
00010000
00000010
00000001
00000010
00001000
00000100
00000010
00000001
,
00001000
00000000
00000000
00000001
00000100
00000000
00000000
00000010
00001000
00000000
00000000
00000000
00001001
00000000
00000000
00000000
,
00000101
00000000
00000100
00000000
00000010
00001000
00000010
00001000
00000100
00000000
00001100
00000000
00001000
00000001
00000000
00000000
,
00010000
00000000
00001000
00010000
00001000
00000000
00100000
00001000
00100000
00001000
00100000
00000000
00010000
01000000
00000000
00000000
,
00010000
10000000
00010000
00000000
01000000
00000000
00100000
10000000
00100000
00000000
10000000
00000000
00010000
00000000
00000000
00000000
,
10000000
01000000
10000000
00000000
00100000
00000000
01000000
00010000
01000000
00000000
00100000
00000000
10000000
00000000
00000000
00000000
,
00010000
00100000
00000000
00001000
00010000
00000000
00000010
00001000
00000000
00000001
00000100
00000000
00000010
00001000
00000000
00000100
,
00000000
00000010
00000000
00000001
00000000
00001000
00000000
00000010
00000100
00000000
00000010
00000000
00001000
00000000
00000100
00000000
,
00010000
00001000
00010000
00000000
00001000
00010000
00001000
00000000
00010000
00000000
00000000
00000000
00100100
00000000
00000000
00000000
,
00010000
00001000
00010000
00000000
00001000
00010000
00001000
00000000
00010000
00000000
00000000
00000000
00001000
00010000
00100000
10000000
,
01000000
00000000
01000000
00000000
10000000
00000000
00100000
01000000
00100000
00000000
00100000
00000000
10000000
00000000
01000000
00100000
,
00010000
00000000
00010000
00000000
01000000
00010000
10000000
00000000
00100000
10000000
00010000
00000000
00100000
00000000
00010000
00000000
,
01000000
00000000
01010000
00000000
01000000
00000000
00001000
00010000
00000100
00000000
00010100
00000000
00010000
00000000
00001000
00010000
,
00000100
00000000
00001000
00000000
00000010
00000100
00000010
00000000
00001000
00000100
00001000
00000000
00000001
00000000
00000010
00000000
,
00000011
00000001
00001000
00000010
00000110
00000100
00000010
00001000
,
00001100
00000100
00020000
00000000
00031000
00100000
00010000
01000000
,
00100000
00100000
10100000
00000000
01000000
01000000
01010000
00000000
,
00010000
00000000
10000000
00000000
10010000
00000000
00000000
00000000
10000000
00000000
01000000
00000000
10000000
00010000
10000000
00010000
,
01000000
00000000
01000000
00000000
00010000
00100000
00010000
00100000
00001000
00000000
00001000
00000000
00010000
00001000
00010000
00001000
,
01000000
00000000
01000000
00000000
00010000
01000000
00010000
01000000
00001000
00000000
00001000
00000000
00010000
00001000
00010000
00001000
,
00010000
00010000
00000100
00000100
00001000
00000010
00000100
00000000
,
00002002
00000000
00000000
00003003
;

//---------------dance-single - ----------------
#NOTEDATA:;
#CHARTNAME:;
#STEPSTYPE:dance-single;
#DESCRIPTION:;
#CHARTSTYLE:;
#DIFFICULTY:Medium;
#METER:5;
#RADARVALUES:0.288168,0.322418,0.115740,0.107473,0.000000,217.000000,14.000000,13.000000,0.000000,0.000000,0.000000,0.000000,0.000000,0.288168,0.322418,0.115740,0.107473,0.000000,217.000000,14.000000,13.000000,0.000000,0.000000,0.000000,0.000000,0.000000;
#CREDIT:Ben Speirs;
#NOTES:
0000
0000
0000
0000
,
0000
0000
0000
0000
,
0000
0000
0000
0000
,
0000
0000
0000
0000
,
0000
0000
0000
0000
,
1000
0000
0000
0001
0100
0000
0000
0001
,
1000
0000
0000
1000
0100
0000
0000
1000
,
0010
0000
0000
1000
0001
0000
0000
0001
,
0010
0010
0010
1001
,
2000
0000
3100
0000
1000
0100
0010
0000
,
0002
0000
0103
0000
0001
0100
0010
0000
,
1000
0010
1000
0000
0001
0000
0001
0000
,
0001
0010
0001
0000
1000
0000
1000
0000
,
0001
1000
0010
0100
,
0001
1000
0001
0000
1000
0100
1000
0000
,
0001
0010
0100
0010
0001
0000
0000
0000
,
1000
0100
0010
0100
1000
0000
0000
0000
,
0010
1000
0000
0000
0001
0010
0000
0000
,
0001
0100
0000
0101
0000
1001
0000
0000
,
1000
0100
0000
0000
0010
0001
0000
0000
,
1000
0010
0000
1010
0000
0011
0000
0000
,
0002
0000
2003
0000
3010
0100
0010
0000
,
2000
0000
3000
0000
0100
1000
0100
1000
,
0002
0003
0000
1000
,
0001
0010
0001
0000
0100
0010
0100
0000
,
0010
1000
0010
0000
1000
0100
1000
0000
,
0002
0013
0001
1000
,
2000
0000
3100
0000
1000
0000
0010
1000
,
0001
0000
0010
0001
1000
0000
0010
0000
,
1010
0000
0110
0000
0101
0000
1000
0001
,
1000
0001
0010
0000
,
0100
0100
0100
1001
,
1000
0100
1000
0000
0010
0010
0010
0000
,
1000
0001
1000
0000
0001
0001
0001
0000
,
0100
0000
0001
0000
1000
0100
1000
0000
,
0100
0000
1000
0000
0001
0100
0001
0000
,
1000
0010
1000
0001
1000
0100
1000
0000
,
0001
0001
1000
0000
,
0001
0100
0001
0100
0001
0000
0000
0000
,
1000
0100
1000
0100
1000
0000
0000
0000
,
0001
0010
0000
0000
0100
1000
0000
0000
,
0010
1000
0000
1010
0000
0011
0000
0000
,
0001
0100
0000
0000
0001
1000
0000
0000
,
1000
0100
0000
1100
0000
0011
0000
0000
,
0002
0000
1003
0000
0001
1000
0001
0000
,
2000
0000
3100
0000
1000
0100
1000
0000
,
0020
0000
0030
0000
0100
0100
0100
0000
,
0010
0100
0010
0000
1000
0001
1000
0000
,
0001
0010
0100
0000
1000
0100
0010
0000
,
0001
0100
0010
0000
1000
0010
0100
0000
,
0001
1000
0010
0100
,
2002
0000
0000
0000
,
3003
0000
0000
0000
;

//---------------dance-single - ----------------
#NOTEDATA:;
#CHARTNAME:;
#STEPSTYPE:dance-single;
#DESCRIPTION:;
#CHARTSTYLE:;
#DIFFICULTY:Easy;
#METER:3;
#RADARVALUES:0.171248,0.236440,0.041336,0.049603,0.000000,134.000000,5.000000,6.000000,0.000000,0.000000,0.000000,0.000000,0.000000,0.171248,0.236440,0.041336,0.049603,0.000000,134.000000,5.000000,6.000000,0.000000,0.000000,0.000000,0.000000,0.000000;
#CREDIT:Ben Speirs;
#NOTES:
// measure 0
0000
0000
0000
0000
,  // measure 1
0000
0000
0000
0000
,  // measure 2
0000
0000
0000
0000
,  // measure 3
0000
0000
0000
0000
,  // measure 4
0000
0000
0000
0000
,  // measure 5
0001
0000
1000
0000
,  // measure 6
0010
0010
0100
0000
,  // measure 7
0001
0000
1000
0000
,  // measure 8
0100
0100
0100
1001
,  // measure 9
0010
0000
1000
0000
,  // measure 10
0100
1000
0010
0000
,  // measure 11
0100
0100
0001
0000
,  // measure 12
0001
0001
1000
0000
,  // measure 13
0001
1000
0010
0100
,  // measure 14
0001
0001
1000
0000
,  // measure 15
1000
0100
1000
0000
,  // measure 16
0001
0100
0001
0000
,  // measure 17
1000
0000
0010
0000
,  // measure 18
0100
0100
0010
0010
,  // measure 19
1000
0000
0001
0000
,  // measure 20
1000
1000
0100
0100
,  // measure 21
0010
0001
0010
0001
,  // measure 22
1000
0000
0010
0000
,  // measure 23
0200
0000
0300
0100
,  // measure 24
0001
0000
1000
0000
,  // measure 25
0010
0010
1000
0000
,  // measure 26
0100
1000
0100
0000
,  // measure 27
0010
0000
0000
0001
,  // measure 28
1000
0000
0010
0000
,  // measure 29
0100
0100
0100
0001
,  // measure 30
1000
0000
0010
0000
,  // measure 31
2002
0000
3003
1001
,  // measure 32
1000
0100
0010
0001
,  // measure 33
1000
0100
0010
0000
,  // measure 34
0001
0100
0010
1000
,  // measure 35
0001
0100
0010
0000
,  // measure 36
1000
0001
1000
1000
,  // measure 37
0001
1000
0001
0000
,  // measure 38
0000
0001
0100
1001
,  // measure 39
0000
1000
0100
0000
,  // measure 40
1000
0000
0010
0000
,  // measure 41
0100
0100
0001
0001
,  // measure 42
1000
0000
0010
0000
,  // measure 43
1000
1000
0100
0100
,  // measure 44
0010
0001
0010
0000
,  // measure 45
0001
0000
1000
0000
,  // measure 46
0010
0000
1000
0000
,  // measure 47
0001
0001
1000
1000
,  // measure 48
0010
0100
0010
0010
,  // measure 49
1000
0000
0001
0001
,  // measure 50
0020
0030
0000
0010
,  // measure 51
2002
0000
0000
0000
,  // measure 52
3003
0000
0000
0000
;

//---------------dance-single - ----------------
#NOTEDATA:;
#CHARTNAME:;
#STEPSTYPE:dance-single;
#DESCRIPTION:;
#CHARTSTYLE:;
#DIFFICULTY:Beginner;
#METER:1;
#RADARVALUES:0.099206,0.168649,0.041336,0.000000,0.000000,79.000000,5.000000,0.000000,0.000000,0.000000,0.000000,0.000000,0.000000,0.099206,0.168649,0.041336,0.000000,0.000000,79.000000,5.000000,0.000000,0.000000,0.000000,0.000000,0.000000,0.000000;
#CREDIT:Ben Speirs;
#NOTES:
// measure 0
0000
0000
0000
0000
,  // measure 1
0000
0000
0000
0000
,  // measure 2
0000
0000
0000
0000
,  // measure 3
0000
0000
0000
0000
,  // measure 4
0000
0000
0000
0000
,  // measure 5
0010
0000
0000
0000
,  // measure 6
0100
0000
0000
0000
,  // measure 7
0001
0000
0001
0000
,  // measure 8
1000
0000
0000
1001
,  // measure 9
1000
0000
0000
0000
,  // measure 10
0010
0000
0000
0000
,  // measure 11
0100
0100
0000
0000
,  // measure 12
0100
0100
0000
0000
,  // measure 13
0001
0000
0001
0000
,  // measure 14
0001
0000
0000
0000
,  // measure 15
1000
1000
1000
0000
,  // measure 16
0010
0010
0010
0000
,  // measure 17
1001
0000
0000
0000
,  // measure 18
0001
0000
0001
0001
,  // measure 19
0001
0000
0000
0000
,  // measure 20
0100
0000
0100
0100
,  // measure 21
0100
0000
0010
0000
,  // measure 22
0010
0000
0000
0000
,  // measure 23
1000
0000
0000
0000
,  // measure 24
0001
0000
0001
0000
,  // measure 25
0001
0000
0000
0000
,  // measure 26
0100
0000
0100
0000
,  // measure 27
0100
0000
0000
0010
,  // measure 28
0010
0000
0000
0000
,  // measure 29
1000
0000
0000
0000
,  // measure 30
0100
0000
0100
0000
,  // measure 31
0100
0000
0000
1001
,  // measure 32
0001
0000
0000
0000
,  // measure 33
1000
0000
0000
0000
,  // measure 34
0010
0010
0010
0000
,  // measure 35
0100
0100
0100
0000
,  // measure 36
0001
0000
0000
0000
,  // measure 37
1000
0000
0000
0000
,  // measure 38
0010
0010
0000
0100
,  // measure 39
0100
0100
0000
0000
,  // measure 40
1001
0000
0000
0000
,  // measure 41
1000
1000
0000
0000
,  // measure 42
0010
0000
0000
0000
,  // measure 43
0100
0100
0000
0000
,  // measure 44
0001
0000
0001
0000
,  // measure 45
0001
0000
0000
0000
,  // measure 46
1000
0000
1000
0000
,  // measure 47
1000
0000
0000
0010
,  // measure 48
0010
0000
0000
0000
,  // measure 49
0100
0000
0000
0000
,  // measure 50
0001
0000
0001
0000
,  // measure 51
1001
0000
0000
0000
;
