#TITLE:THE PARTY'S JUST BEGUN;
#SUBTITLE:;
#ARTIST:THE CHEETAH GIRLS;
#TITLETRANSLIT:;
#SUBTITLETRANSLIT:;
#ARTISTTRANSLIT:;
#CREDIT:;
#BANNER:THE PARTY'S JUST BEGUN.png;
#BACKGROUND:THE PARTY'S JUST BEGUN-bg.png;
#LYRICSPATH:;
#CDTITLE:./CDTITLES/Dance Dance Revolution Disney Channel Edition.png;
#MUSIC:THE PARTY'S JUST BEGUN.mp3;
#OFFSET:-1.752;
#SAMPLESTART:13.264;
#SAMPLELENGTH:15.000;
#SELECTABLE:YES;
#BPMS:0.000=104.000;
#STOPS:;
#BGCHANGES:;

//---------------dance-single - ----------------
#NOTES:
     dance-single:
     :
     Beginner:
     1:
     0.068,0.084,0.017,0.000,0.000:
0000
0000
0000
0000
,
0000
0000
0000
0000
,
0000
0000
0000
0000
,
0010
0000
0000
0000
,
0100
0000
0100
0000
,
0001
0000
0000
0000
,
1000
0000
0000
0000
,
0010
0000
0000
0000
,
0100
0000
0000
0000
,
0001
0000
0000
0000
,
1000
0000
0000
0000
,
0100
0000
0000
0000
,
0010
0000
0000
0000
,
0001
0000
0000
0000
,
0100
0000
0000
0000
,
1000
0000
0000
0000
,
0100
0000
0100
0000
,
0010
0000
0000
0000
,
0100
0000
0000
0000
,
0001
0000
0000
0000
,
1000
0000
0000
0000
,
1001
0000
0000
0000
,
1000
0000
0000
0000
,
0001
0000
0000
0000
,
0100
0000
0000
0000
,
0010
0000
0000
0000
,
1000
0000
0000
0000
,
0001
0000
0000
0000
,
0100
0000
0000
0000
,
0010
0000
0000
0000
,
0001
0000
0000
0000
,
1000
0000
0000
0000
,
0100
0000
0100
0000
,
0010
0000
0000
0000
,
0100
0000
0000
0000
,
1000
0000
0000
0000
,
0001
0000
0001
0000
,
0100
0000
0000
0000
,
0010
0000
0000
0000
,
1000
0000
0000
0000
,
0001
0000
0001
0000
,
0001
0000
0000
0000
,
0100
0000
0000
0000
,
0010
0000
0000
0000
,
1000
0000
1000
0000
,
0100
0000
0000
0000
,
0010
0000
0000
0000
,
1000
0000
0000
0000
,
0001
0000
1000
0000
,
1001
0000
0000
0000
;

//---------------dance-single - ----------------
#NOTES:
     dance-single:
     :
     Easy:
     3:
     0.157,0.168,0.094,0.000,0.000:
0000
0000
0000
0000
,
0000
0000
0000
0000
,
0000
0000
0000
0000
,
1000
1000
0000
0000
,
0001
0001
0010
0000
,
0110
0000
0100
0000
,
1000
1000
0001
0000
,
0010
0000
0100
0000
,
0010
0010
0100
0000
,
0001
0000
1000
0000
,
0010
0100
0010
0000
,
1000
0000
0001
0000
,
1000
0100
0001
0000
,
0110
0000
1000
0000
,
1001
0000
0010
0000
,
0110
0000
0100
0000
,
0010
0001
0100
1000
,
0001
0000
1000
0000
,
0001
0100
0001
0000
,
0010
0000
0100
0000
,
1000
0001
1000
0000
,
1001
0000
0010
0000
,
1001
0000
0100
0000
,
0110
0000
0001
0000
,
0110
0000
0010
0100
,
1000
0000
0010
0000
,
0001
0001
1000
0000
,
0100
0000
0010
0000
,
0100
0100
0010
0000
,
1000
0000
0001
0000
,
0100
0010
0100
0000
,
0001
0000
1000
0000
,
0001
0010
1000
0000
,
0110
0000
0001
0000
,
1001
0000
0100
0000
,
0110
0000
0010
0000
,
0100
1000
0010
0001
,
1000
0000
0001
0000
,
1000
0010
1000
0000
,
0100
0000
0010
0000
,
0001
1000
0001
0000
,
0010
0100
0001
0000
,
0001
1000
0010
0000
,
0100
0010
0100
0000
,
0010
1000
0100
0001
,
1000
0000
0001
0000
,
1000
0100
1000
0000
,
0010
0000
0100
0000
,
0001
1000
0001
0000
,
0100
0000
0000
0000
;

//---------------dance-single - ----------------
#NOTES:
     dance-single:
     :
     Medium:
     6:
     0.304,0.293,0.162,0.017,0.000:
0000
0000
0000
0000
,
0000
0000
0000
0000
,
0000
0000
0000
0000
,
0101
0000
0010
0000
1000
0100
0010
0000
,
0002
0000
2003
0000
3001
0010
0100
0000
,
0010
0000
1000
0000
0001
1000
0010
0000
,
0100
0000
0001
0000
0010
0100
1000
0000
,
1000
0000
0100
0000
1000
0001
1000
0000
,
0100
0010
0100
0000
0001
0010
0001
0100
,
0010
0000
0100
0000
0010
1000
0010
0000
,
0100
0000
0001
0000
1000
0100
1000
0000
,
0010
0000
0100
0000
0001
1000
0001
0000
,
1000
0010
0100
0000
0001
0010
0100
0000
,
0101
0000
0010
0000
1000
0100
0010
0000
,
1010
0000
0100
0000
0001
0010
0100
0000
,
1000
0100
0001
0000
0001
0000
1000
0000
,
0110
1001
0010
0100
,
0001
0000
1000
0000
0010
0100
0010
0000
,
1000
0000
0001
0000
0100
0010
0100
0000
,
0001
0100
1000
0110
,
0001
0000
0010
0000
1000
0010
1000
0010
,
0100
0001
0010
1000
,
0100
0000
0010
0000
0001
0001
1000
0000
,
1001
0100
0010
0001
,
0010
0010
0100
0000
1000
0000
0001
0000
,
0100
0000
0001
0000
1000
0001
0100
0000
,
0010
0000
1000
0000
0100
0010
0001
0000
,
0001
0000
0010
0000
0001
1000
0001
0000
,
0010
0100
0010
0000
1000
0100
1000
0000
,
0010
0000
1000
0000
0001
0010
0001
0000
,
0100
0000
0010
0000
1000
0001
1000
0000
,
0001
0100
0010
0000
1000
0100
0010
0000
,
1010
0000
0100
0000
0001
0010
0100
0000
,
0110
1001
0100
0010
,
1000
0000
0001
0000
0100
0010
0100
0000
,
0101
0000
0010
0000
1000
0100
0010
0000
,
0001
0100
1000
0010
,
0101
0000
0010
0000
1000
0100
0010
0000
,
1010
0000
0100
0000
0001
0010
0100
0000
,
1000
0100
0001
0000
0001
0000
1000
0000
,
0110
1000
1001
0100
,
0001
0000
1000
0000
0010
0100
0010
0000
,
1000
0000
0001
0000
0100
0010
0100
0000
,
0001
0100
1000
0110
,
0001
0010
0001
0000
1000
0010
1000
0000
,
1001
0010
0100
1000
,
1001
0000
0100
0000
0010
0001
0010
0000
,
0100
0001
0010
1000
,
0100
1000
0001
0000
0010
0000
0100
0000
,
1001
0000
0000
0000
;

//---------------dance-single - ----------------
#NOTES:
     dance-single:
     :
     Hard:
     7:
     0.360,0.377,0.060,0.000,0.000: // measure 1
0000
0000
0000
0000
,  // measure 2
0000
0000
0000
0000
,  // measure 3
0000
0000
0000
0000
,  // measure 4
1000
0000
0010
0000
0000
0100
0001
0010
,  // measure 5
0100
0000
1000
0000
0001
1000
0001
1000
,  // measure 6
0010
0000
0100
0000
0001
0010
0001
0000
,  // measure 7
1000
0010
1000
0000
0100
0001
0100
0000
,  // measure 8
0001
0010
0001
0000
1000
0100
1000
0000
,  // measure 9
0010
1000
0100
0010
0001
0100
0010
1000
,  // measure 10
0100
0000
0010
0000
0000
0001
0010
0100
,  // measure 11
1000
0000
0010
0000
0000
1000
0010
0100
,  // measure 12
0001
0000
0010
0000
0000
0100
1000
0010
,  // measure 13
1000
0001
1000
0001
1000
0010
0100
0010
,  // measure 14
1000
0001
0010
0000
0100
1000
0010
0000
,  // measure 15
0010
0001
1000
0000
0100
1000
0001
0000
,  // measure 16
0001
0010
1000
0000
1000
0010
0001
0000
,  // measure 17
0100
1000
0100
0001
0010
0100
1000
0010
,  // measure 18
0100
0000
0001
0000
0010
0100
1000
0000
,  // measure 19
0010
0100
0001
1000
0010
1000
0001
0100
,  // measure 20
0010
0000
0001
0000
0010
0100
1000
0000
,  // measure 21
0010
0100
0001
1000
0010
0100
0001
0010
,  // measure 22
0110
0000
1000
0100
0010
0001
0010
0100
,  // measure 23
1100
0000
0010
0001
1000
0000
0011
0000
,  // measure 24
0110
0000
0001
0010
0100
1000
0100
0010
,  // measure 25
0011
0000
0100
1000
0001
0000
1100
0000
,  // measure 26
0001
0000
0010
0000
1000
0100
1000
0000
,  // measure 27
0001
0100
0001
0000
0010
1000
0010
0000
,  // measure 28
1000
0100
1000
0000
0001
0010
0001
0000
,  // measure 29
0100
0001
0010
0100
1000
0010
0100
0001
,  // measure 30
0010
0000
0100
0000
0000
1000
0100
0010
,  // measure 31
0001
0000
0100
0000
0000
0001
0100
0010
,  // measure 32
1000
0000
0100
0000
0000
0010
0001
0100
,  // measure 33
0001
1000
0001
1000
0001
0100
0010
0100
,  // measure 34
0001
1000
0100
0000
0010
0001
0100
0000
,  // measure 35
0100
1000
0001
0000
0010
0001
1000
0000
,  // measure 36
1000
0100
0001
0000
0001
0100
1000
0000
,  // measure 37
0010
0001
0010
1000
0100
0010
0001
0100
,  // measure 38
0010
0000
1000
0000
0100
0010
0001
0000
,  // measure 39
0100
0010
1000
0001
0100
0001
1000
0010
,  // measure 40
0100
0000
1000
0000
0100
0010
0001
0000
,  // measure 41
0100
0010
1000
0001
0100
0010
1000
0100
,  // measure 42
0001
1000
0010
0000
0100
0001
0010
0000
,  // measure 43
0010
1000
0001
0000
0100
0001
1000
0000
,  // measure 44
1000
0010
0001
0000
0001
0010
1000
0000
,  // measure 45
0100
0001
0100
1000
0010
0100
0001
0010
,  // measure 46
0100
0000
1000
0000
0010
0100
0001
0000
,  // measure 47
0010
0100
1000
0001
0010
0001
1000
0100
,  // measure 48
0010
0000
1000
0000
0010
0100
0001
0000
,  // measure 49
0010
0100
1000
0001
0010
0100
1000
0010
,  // measure 50
0101
0000
0000
0000
;

//---------------dance-double - ----------------
#NOTES:
     dance-double:
     :
     Easy:
     3:
     0.160,0.188,0.103,0.000,0.000:
00000000
00000000
00000000
00000000
,
00000000
00000000
00000000
00000000
,
00000000
00000000
00000000
00000000
,
00001000
00001000
00000000
00000000
,
00010000
00010000
01000000
00000000
,
10010000
00000000
01000000
00000000
,
00010000
00010000
00001000
00000000
,
00000100
00000000
00000001
00000000
,
00000010
00000010
00000100
00000000
,
00001000
00000000
00010000
00000000
,
00100000
01000000
00010000
00000000
,
10000000
00000000
01000000
00000000
,
00010000
00100000
00001000
00000000
,
00011000
00000000
00000100
00000000
,
00000110
00000000
00000001
00000000
,
00001001
00000000
00000100
00000000
,
00010000
00001000
00010000
00001000
,
00010000
00000000
01000000
00000000
,
10000000
00100000
10000000
00000000
,
01000000
00000000
00010000
00000000
,
00001000
00010000
00001000
00010000
,
00011000
00000000
00000100
00000000
,
00001001
00000000
00000010
00000000
,
00000110
00000000
00001000
00000000
,
00011000
00000000
00100000
00010000
,
01000000
00000000
00100000
00000000
,
10000000
10000000
01000000
00000000
,
00010000
00000000
00001000
00000000
,
00000100
00000100
00000001
00000000
,
00000010
00000000
00000100
00000000
,
00010000
00001000
00010000
00000000
,
00001000
00000000
01000000
00000000
,
00100000
10000000
01000000
00100000
,
00010000
00000000
00001000
00000000
,
00011000
00000000
00000010
00000000
,
00000110
00000000
00000001
00000000
,
00001000
00000001
00001000
00000001
,
00001000
00000000
00000100
00000000
,
00010000
00001000
00010000
00000000
,
01000000
00000000
00100000
00000000
,
00010000
10000000
00010000
10000000
,
00100000
00000000
00010000
00000000
,
00011000
00000000
00000100
00000000
,
00000110
00000000
00000001
00000000
,
00001000
00000001
00001000
00000001
,
00001000
00000000
00000010
00000000
,
00010000
00001000
00010000
00000000
,
00100000
00000000
01000000
00000000
,
00010000
10000000
00010000
10000000
,
01000000
00000000
00000000
00000000
;

//---------------dance-double - ----------------
#NOTES:
     dance-double:
     :
     Medium:
     6:
     0.344,0.335,0.179,0.197,0.000:
00000000
00000000
00000000
00000000
,
00000000
00000000
00000000
00000000
,
00000000
00000000
00000000
00000000
,
00000011
00000000
00000010
00000000
00000100
00001000
00000001
00000000
,
00000200
00002300
00023000
02030000
,
13000000
00000000
00010000
00000000
01000000
00100000
01000000
00000000
,
00010000
00000000
00100000
00000000
00001000
00010000
00001000
00000000
,
00000100
00000000
00000010
00000000
00001000
00000001
00001000
00000000
,
00000001
00000100
00000001
00000100
00001000
00000100
00001000
00000100
,
00000010
00000000
00010000
00000000
00001000
00010000
00001000
00000000
,
00100000
00000000
01000000
00000000
10000000
00010000
10000000
00000000
,
00100000
00000000
01000000
00000000
00010000
00100000
00001000
00000000
,
00010000
00000100
00010000
00000100
00001000
00000010
00001000
00000010
,
00000200
00000000
00000301
00000000
00000010
00000001
00000100
00000000
,
00001010
00000000
00000100
00000000
00010000
00001000
00010000
00000000
,
01000000
00100000
01000000
00000000
00010000
00000000
10000000
00000000
,
01100000
00110000
00011000
00001100
,
00000020
00000000
00000031
00000000
00000100
00000001
00000010
00000000
,
00001100
00000000
00000010
00000000
00010000
00001000
00010000
00000000
,
00100000
01000000
00100000
00000000
10000000
00000000
00010000
00000000
,
10000000
01000000
10000000
01000000
00010000
01000000
00010000
01000000
,
00100000
00001000
00010000
00000010
,
00001000
00000000
00000100
00000000
00010000
00000000
00001000
00010000
,
00012000
00103000
00010000
01000000
,
00200000
00320000
00032000
00003200
,
00000301
00000000
00001000
00000000
00000100
00001000
00000010
00000000
,
00010000
00000000
00001000
00000000
00100000
00010000
01000000
00000000
,
00100000
00000000
10000000
00000000
01000000
00100000
00010000
00000000
,
02000000
03002000
00023000
00030200
,
00001300
00000000
00000001
00000000
00000010
00000100
00001000
00000000
,
00000010
00000000
00000100
00000000
00001000
00010000
00001000
00000000
,
00100000
00010000
01000000
00000000
00100000
10000000
00010000
00000000
,
00200000
00302000
00023000
00030020
,
00000230
00000000
00000301
00000000
00000010
00000001
00000100
00000000
,
00001010
00000000
00000100
00000000
00010000
00001000
00010000
00000000
,
01000000
00100000
01000000
00000000
00010000
00000000
10000000
00000000
,
01100000
00110000
00011000
00001100
,
00000020
00000000
00000031
00000000
00000100
00000001
00000010
00000000
,
00001100
00000000
00000010
00000000
00010000
00001000
00010000
00000000
,
00100000
01000000
00100000
00000000
10000000
00000000
00010000
00000000
,
00100000
01000000
10000000
00100000
01000000
00001000
00010000
00000100
,
00000020
00000000
00000031
00000000
00000100
00000001
00001000
00000000
,
00001100
00000000
00000100
00000000
00010000
00001000
00100000
00000000
,
00010000
01000000
00100000
00000000
10000000
00000000
00010000
00000000
,
00110000
00101000
00011000
00010100
,
00002000
00000000
00003010
00000000
00000100
00000001
00001000
00000000
,
00000110
00000000
00001000
00000000
00010000
00001000
01000000
00000000
,
00100000
00010000
10000000
00000000
00100000
00000000
01000000
00000000
,
10000000
00100000
10000000
00100000
01000000
00010000
01000000
00010000
,
10010000
00000000
00000000
00000000
;

//---------------dance-double - ----------------
#NOTES:
     dance-double:
     :
     Hard:
     7:
     0.383,0.398,0.094,0.094,0.000:
00000000
00000000
00000000
00000000
,
00000000
00000000
00000000
00000000
,
00000000
00000000
00000000
00000000
,
00000100
00002002
00003003
00000010
,
00000001
00000100
00001000
00010000
01000000
00010000
00001000
00000010
,
00000002
00000000
00001003
00000000
00000010
00000100
00000001
00000000
,
00000010
00000100
00001000
00000000
00000010
00010000
00001000
00000000
,
01000000
00001000
00010000
00000000
00100000
00010000
10000000
00000000
,
00100000
10000000
01000000
00010000
00001000
00010000
01000000
10000000
,
00200000
00000000
10300000
00000000
00000000
01000000
00010000
00100000
,
00002000
00000000
00013000
00000000
00000000
00000100
00001000
00000010
,
00000200
00000000
00000301
00000000
00000000
00000010
00000001
00000100
,
00000010
00001000
00000100
00010000
00001000
00100000
00010000
01000000
,
00100000
10000000
01000000
00000000
01000000
10000000
00100000
00000000
,
00100000
00010000
00001000
00000000
00010000
00001000
00000010
00000000
,
00000001
00000100
00000010
00000000
00001000
00000100
00000010
00000000
,
00000001
00000001
00000100
00000100
00001000
00001000
00010000
00010000
,
01000000
10000000
00100000
00000000
00100000
10000000
01000000
00000000
,
01000000
00010000
00001000
00000000
00010000
00001000
00000100
00000000
,
00000001
00000010
00000100
00000000
00001000
00000010
00000100
00000000
,
00000001
00000002
00000013
00000010
00001000
00001000
00010000
00010000
,
00011000
00000000
00001000
00100000
00010000
10000000
00010000
01000000
,
01100000
00000000
00100000
00010000
00001000
00000100
00000010
00000100
,
00001001
00000000
00000010
00000100
00001000
00000001
00000100
00000010
,
00000001
00000010
00001000
00010000
01000000
00100000
00010000
00001000
,
00000200
00000000
00000301
00000000
00000000
00000010
00000001
00000000
,
00000100
00000010
00001000
00000000
00000100
00010000
00001000
00000000
,
00100000
00001000
00010000
00000000
01000000
00010000
10000000
00000000
,
01000000
10000000
00100000
00010000
00001000
00010000
00100000
10000000
,
02000000
00000000
13000000
00000000
00000000
00100000
00010000
01000000
,
00002000
00000000
00013000
00000000
00000000
00000010
00001000
00000100
,
00000020
00000000
00000031
00000000
00000000
00000100
00000001
00000010
,
00000100
00001000
00000010
00010000
00001000
01000000
00010000
00100000
,
01000000
10000000
00100000
00000000
00100000
10000000
01000000
00000000
,
01000000
00010000
00001000
00000000
00010000
00001000
00000100
00000000
,
00000001
00000010
00000100
00000000
00001000
00000010
00000100
00000000
,
00000001
00000001
00000010
00000010
00001000
00001000
00010000
00010000
,
00100000
10000000
01000000
00000000
01000000
10000000
00100000
00000000
,
00100000
00010000
00001000
00000000
00010000
00001000
00000010
00000000
,
00000001
00000100
00000010
00000000
00001000
00000100
00000010
00000000
,
00000001
00000001
00000100
00000100
00001000
00001000
00010000
00010000
,
01000000
10000000
00010000
00000000
01000000
00010000
00110000
00000000
,
00001000
00010000
00000100
00000000
00001000
00000001
00000101
00000000
,
00000010
00001000
00000001
00000000
00000100
00000010
00001010
00000000
,
00000100
00000100
00010000
00010000
00001000
00001000
01000000
01000000
,
00100000
10000000
00010000
00000000
00100000
00010000
01010000
00000000
,
00001000
00010000
00000010
00000000
00001000
00000001
00000110
00000000
,
00000010
00001000
00000001
00000000
00000010
00000100
00001001
00000000
,
00000010
00000010
00010000
00010000
00001000
00001000
00100000
00100000
,
10010000
00000000
00000000
00000000
;
