#TITLE:Butterfly;
#SUBTITLE:;
#ARTIST:Crazy Town;
#TITLETRANSLIT:;
#SUBTITLETRANSLIT:;
#ARTISTTRANSLIT:;
#GENRE:Red Hot Chili Peppers?;
#CREDIT:;
#BANNER:Butterfly.png;
#BACKGROUND:Butterfly-bg.png;
#LYRICSPATH:;
#CDTITLE:;
#MUSIC:Butterfly.ogg;
#OFFSET:-0.020000;
#SAMPLESTART:74.194206;
#SAMPLELENGTH:13.714000;
#SELECTABLE:YES;
#DISPLAYBPM:103.000000;
#BPMS:0.000000=103.500000
,111.000000=109.559906
,112.000000=103.500000
,127.000000=101.440048
,128.000000=103.500000
;
#STOPS:
;
#BGCHANGES:7.667=Butterfly.avi=1.000=0=0=1=====,
99999=-nosongbg-=1.000=0=0=0 // don't automatically add -songbackground-
;
#KEYSOUNDS:;
#ATTACKS:;

//---------------dance-single - ----------------
#NOTES:
     dance-single:
     :
     Hard:
     7:
     0.378136,0.404649,0.083668,0.174942,0.038031,314.000000,11.000000,23.000000,0.000000,0.000000,0.000000,0.378136,0.404649,0.083668,0.174942,0.038031,314.000000,11.000000,23.000000,0.000000,0.000000,0.000000:
0000
0000
0000
0000
,
0000
0000
0000
0000
,
0000
0000
0000
0000
,
0000
0000
0000
1001
,
1000
0100
1000
0100
0010
0001
1000
0000
,
0010
1000
0001
0000
0101
0000
1100
0000
,
0001
0100
0001
0100
0010
1000
0001
0000
,
1000
0100
0010
0000
0011
0000
1100
0000
,
0001
0010
0100
0000
1000
0000
0001
0000
,
1000
0010
0100
0001
1000
0000
0001
0000
,
0010
0001
1000
0000
0100
1000
0010
0000
,
2000
0000
0000
3001
0200
0000
0000
0000
,
0310
0100
0001
1000
0100
0010
0001
0000
,
1000
0000
0001
0000
0100
1000
0010
0100
,
0001
1000
0100
0010
0001
1000
0010
0000
,
1000
0001
0100
1001
,
0010
1000
0001
0000
0010
0000
0001
1000
,
0100
0000
0000
1000
0010
1000
0001
0000
,
0200
0000
0310
0000
1000
0001
0020
0000
,
0032
0000
1003
0100
2000
0000
3010
1000
,
0001
0010
0001
0010
0100
1000
0001
0000
,
0100
0001
1000
0000
1010
0000
0011
0000
,
1000
0010
1000
0010
0100
0001
1000
0000
,
0001
0010
0100
1000
1000
0010
0100
0000
,
0001
0100
0001
0100
0010
1000
0001
0000
,
1000
0100
0010
0000
0011
0000
1100
0000
,
1000
0001
0100
0010
1000
0001
0100
0000
,
0001
0010
0100
0000
1000
0010
0100
0000
,
0002
0100
0010
1003
,
2000
0100
0010
3001
,
0200
0010
0001
0310
,
0020
1000
0130
1001
,
1000
0010
0100
0001
0010
0100
1000
0000
,
0001
0010
0001
0001
2000
0000
3020
0000
,
0130
0001
0010
0001
1000
0010
0100
0000
,
0001
1000
0010
0000
1000
0001
0010
0000
,
0001
0100
0010
1000
0100
0010
0001
0000
,
1000
0100
1000
1000
0002
0000
0203
0000
,
0310
1000
0100
1000
0001
0100
0010
0000
,
1000
0001
0100
0000
0001
1000
0100
0000
,
1000
0001
0100
0010
1000
0100
0010
0000
,
0001
0000
1000
0000
0010
0000
0000
0000
1000
0001
0000
0000
1000
0001
0000
0000
,
1000
0010
0100
0001
0010
0100
1000
0000
,
0001
0010
0001
0000
0010
0000
0000
0000
0001
1000
0001
0000
1000
0000
0000
0000
,
0001
0100
0010
1000
0100
0010
0001
0000
,
1000
0000
0001
0000
0100
0000
0000
0000
0010
1000
0000
0000
0010
1000
0000
0000
,
0010
0100
0001
0010
0100
1000
0001
0000
,
1000
0010
1000
0000
0001
0000
0000
0000
0010
0001
0010
0000
0001
0000
1000
0000
,
0010
0100
0001
0010
0100
1000
0020
0000
,
2030
0000
0000
0000
0000
0000
3001
0100
0002
0000
0000
0000
0000
0000
0000
0000
,
2003
0000
0100
0000
0001
0000
3100
0010
,
0002
0000
0103
0010
2000
0000
0000
0100
,
3200
0000
0010
0000
1000
0000
0310
0001
,
1000
0000
0010
0000
0100
0000
0001
1000
0002
0000
0000
0000
0103
0000
0000
0000
,
0020
0000
1000
0000
0100
0000
1030
0100
,
0010
0000
0001
1000
0010
0000
0100
0001
,
1000
0000
0000
0000
;

//---------------dance-single - ----------------
#NOTES:
     dance-single:
     :
     Challenge:
     10:
     0.704115,0.830595,0.152124,0.015212,0.985001,626.000000,20.000000,2.000000,0.000000,0.000000,0.000000,0.704115,0.830595,0.152124,0.015212,0.985001,626.000000,20.000000,2.000000,0.000000,0.000000,0.000000:
0000
0000
0000
0000
,
0000
0000
0000
0000
,
0000
0000
0000
0000
,
0000
0000
0000
0000
0000
0000
1001
1000
,
0010
0100
0000
0100
0001
1000
0000
0100
0000
0100
0000
1000
0001
0010
0000
0000
,
0001
0100
0010
0100
0001
0000
1000
0000
0010
1000
0010
0000
1000
0000
0001
0000
,
0100
0010
0000
0010
1000
0001
0000
0010
0000
0010
0000
0001
1000
0100
0000
0000
,
1000
0010
0100
0010
1000
0000
0001
0000
0100
0001
0100
0000
0001
0000
1000
0000
,
0010
0100
0001
0000
0100
0010
1000
0000
0100
0010
0001
0010
0100
0000
1000
0000
,
0001
0100
0001
0100
0010
1000
0010
1000
0100
0010
0001
0000
1000
0000
0000
0010
,
0100
0001
0100
0001
1000
0000
1000
0100
0010
0001
0100
0010
1000
0000
0001
0100
,
0001
0100
0010
1000
0001
0000
1000
0100
0010
0100
0010
0100
0010
0000
0001
1000
,
0001
0000
0100
0001
1000
0000
0010
1000
0001
0000
1000
0100
0010
0000
0001
0100
,
0010
0000
1000
0001
1000
0000
0001
0100
0001
0000
1000
0100
0010
0000
0001
1000
,
0010
0000
0100
0000
0001
0010
0000
0010
0100
0000
1000
0000
0001
0000
0100
0010
,
1000
0100
1000
0100
0010
0001
0010
0001
0100
0000
0010
0000
1010
0000
1000
0001
,
0200
0000
0010
0000
0310
0100
0001
0010
0100
1000
0001
1000
0010
0000
1000
0100
,
0010
0001
0100
0010
1000
0001
1000
0010
0100
0000
0001
0000
1000
0000
0100
0010
,
0001
0000
1000
0100
1000
0000
0001
1000
0001
1000
0010
0100
0001
0000
1000
0001
,
1000
0001
0100
0010
1000
0001
1000
0000
0001
0010
0100
1000
0001
0000
0001
0000
,
0100
0010
0000
0010
1000
0001
0000
0010
0000
0010
0000
0001
1000
0100
0000
0000
,
1000
0010
0100
0010
1000
0000
0001
0000
0100
0001
0100
0000
0001
0000
1000
0000
,
0010
0100
0000
0100
0001
1000
0000
0100
0000
0100
0100
1000
0001
0010
0000
0000
,
0001
0100
0010
1000
0001
0000
0000
0000
1000
0100
0010
0000
0001
0000
1000
0000
,
0010
0100
0000
0100
0001
1000
0000
0100
0000
0100
0000
1000
0001
0010
0000
0000
,
0001
0100
0010
0100
0001
0000
1000
0000
0010
1000
0010
0000
1000
0000
0001
0000
,
0100
0010
0000
0010
1000
0001
0000
0010
0000
0010
0010
0001
1000
0100
0000
0000
,
1000
0010
0100
0001
1000
0000
0000
0000
0001
0010
0100
0000
1001
0000
0000
0000
,
1000
0100
1000
0001
0100
0001
1000
0100
1000
0001
0100
0001
1000
0010
1000
0001
0010
0001
1000
0010
1000
0001
0100
0010
,
1000
0100
1000
0001
0100
0001
1000
0000
0000
0001
0000
0000
0200
0000
0000
0000
0000
0000
0000
0000
0000
0310
0000
0000
,
0100
0000
0000
0000
0000
0000
0000
0000
0000
0000
0000
0000
0001
0000
0000
0000
0000
0000
0000
0000
0000
0000
0000
0000
0100
0000
0000
0000
0000
0000
0000
0000
0000
0000
0000
0000
0010
0000
0000
0000
0000
0000
0000
0000
0000
0000
0000
0000
0000
0000
0000
0000
0000
0000
0000
0000
0000
0000
0000
0000
0010
0000
0000
0000
0000
0000
0000
0000
0000
0000
0000
0000
1000
0000
0000
0000
0000
0000
0000
0000
0000
0000
0000
0000
0100
0000
0000
0000
0000
0000
0000
0000
0000
0000
0000
0000
1000
0000
0000
0000
0000
0000
0000
0000
0001
0000
0000
0000
0000
0000
0000
0000
0100
0000
0000
0000
0000
0000
0000
0000
0010
0000
0000
0000
0000
0000
0000
0000
1000
0000
0000
0000
0000
0000
0000
0000
0100
0000
0000
0000
0000
0000
0000
0000
0010
0000
0000
0000
0000
0000
0000
0000
0000
0000
0000
0000
0000
0000
0000
0000
0000
0000
0000
0000
0000
0000
0000
0000
0001
0000
0000
0000
0000
0000
0000
0000
0000
0000
0000
0000
1000
0000
0000
0000
0000
0000
0100
0000
0000
0000
0000
0000
,
1000
0000
0001
1000
0001
0000
0100
0001
0100
0000
0010
0100
0010
0000
1000
0010
1000
0000
0001
0010
0001
0000
1000
0000
1001
0000
0000
0000
0000
0000
0000
0000
,
0001
0100
0010
1000
0001
0001
0000
1000
0010
0100
0001
1000
0001
0001
0000
0000
,
1000
0100
1000
0100
0010
0000
0001
0000
0100
0001
1000
0000
0100
1000
0001
0000
,
1000
0010
0100
0001
1000
1000
0000
0001
0100
0010
1000
0001
1000
1000
0000
0000
,
0001
0010
0001
0010
0100
0000
1000
0000
0010
1000
0001
0000
0010
0001
1000
0000
,
0001
0100
1000
0100
0001
0001
0000
1000
0100
0001
0100
1000
0001
0001
1000
0000
,
0010
0100
0001
1000
0010
0000
0100
0000
0001
1000
0001
0000
0010
0100
0010
0000
,
0001
0010
1000
0010
0001
0001
0000
0001
0100
1000
0100
0001
1000
1000
0100
0010
,
0000
0010
0001
1000
0010
0000
1000
0001
0000
0001
0100
0010
1000
0000
0001
0000
,
1000
0100
1000
0100
0010
0001
0010
0001
1000
0010
1000
0010
0100
0001
0100
0000
,
0010
1000
0001
0000
0100
0000
0001
0000
1000
0100
1000
0000
0001
0100
0001
0000
,
1000
0100
1000
0100
0010
0001
0010
0001
1000
0010
1000
0010
0100
0001
0100
0001
,
1000
1000
0100
0000
0010
0000
0001
0001
1000
0010
0100
0000
0101
0000
1100
0000
,
1000
0010
0001
0010
1000
1000
0000
0001
0010
1000
0010
0001
1000
1000
0001
0000
,
0100
0010
1000
0001
0100
0000
0010
0000
1000
0001
1000
0000
0100
0010
0100
0000
,
1000
0100
0001
0100
1000
1000
0000
1000
0010
0001
0010
1000
0001
0001
0010
0100
,
0000
0100
1000
0001
0100
0000
0001
1000
0000
1000
0010
0100
0001
0000
1000
0100
,
0010
0001
0011
0001
1000
0010
1010
1000
,
0001
0000
0100
0000
0101
0000
0100
0010
1000
0000
0001
0000
1001
0000
0000
0000
,
1000
0100
1100
1000
0001
0010
0011
0001
,
1000
0000
0010
0100
0001
0000
0010
0100
1000
0000
0001
0000
1001
0000
0000
0000
,
0101
0100
1010
1000
0100
0010
0110
0010
,
0001
0000
1000
0000
1010
0000
0010
1000
0001
0000
0100
0000
0101
0000
0000
0000
,
0001
1000
1100
1000
0001
0010
0011
0001
,
1000
0010
0100
0000
0001
0000
1000
0100
0010
0000
0001
0000
1000
0001
1000
0010
,
0100
0000
0000
0000
;

//---------------dance-double - ----------------
#NOTES:
     dance-double:
     :
     Challenge:
     9:
     0.546558,0.532433,0.098880,0.007606,0.638919,489.000000,13.000000,1.000000,0.000000,0.000000,0.000000,0.546558,0.532433,0.098880,0.007606,0.638919,489.000000,13.000000,1.000000,0.000000,0.000000,0.000000:
// measure 0
00000000
00000000
00000000
00000000
,  // measure 1
00000000
00000000
00000000
00000000
,  // measure 2
00000000
00000000
00000000
00000000
,  // measure 3
00000000
00000000
00000000
00011000
,  // measure 4
00001000
00010000
00000000
00010000
01000000
00010000
00000000
00001000
00000000
00010000
00000000
00001000
00000100
00001000
00000000
00000000
,  // measure 5
00000100
00000001
00000100
00000001
00001000
00000000
00000000
00000000
00000100
00000010
00000000
00000000
00000100
00000010
00000000
00000000
,  // measure 6
00000001
00001000
00000000
00000010
00000100
00000010
00000000
00001000
00000000
00000001
00000000
00000010
00000100
00000010
00000000
00000000
,  // measure 7
00000001
00000100
00000001
00000100
00000010
00000000
00000000
00000000
00001000
00000100
00000000
00000000
00010000
00001000
00000000
00000000
,  // measure 8
01010000
00000000
00010000
00000000
10000000
00000000
00100000
00000000
10000000
01000000
00100000
00010000
10000000
00000000
00000000
00000000
,  // measure 9
00100000
00000000
01000000
00000000
00010000
00000000
10000000
00000000
00010000
00100000
01000000
10000000
00010000
00000000
00000000
00000000
,  // measure 10
10000000
00000000
00100000
01000000
00100000
00000000
10000000
01000000
10000000
00000000
00010000
00000000
01000000
00000000
00001000
00000000
,  // measure 11
00010000
00001000
00010000
00001000
00000100
00000000
00000001
00000100
00000001
00000000
00000000
00000000
00000000
00000000
00000000
00000000
,  // measure 12
00001100
00000000
00001000
00000000
00000010
00000000
00000100
00000000
00000001
00001000
00000010
00001000
00000001
00000000
00000010
00000100
,  // measure 13
00001000
00000000
00000100
00000000
00001000
00000000
00000010
00000000
00000100
00000000
00000001
00000000
00000100
00000010
00000100
00000010
,  // measure 14
00001000
00000000
00000100
00000000
00010000
00000000
00001000
00000000
00010000
00000000
00000100
00000000
00010000
00001000
01000000
00000000
,  // measure 15
00010000
10000000
00010000
10000000
00100000
01000000
00100000
01000000
00010000
00000000
00000000
00000000
10010000
00000000
00000000
00000000
,  // measure 16
11000000
00000000
01000000
00000000
10000000
00100000
01000000
00000000
00010000
00000000
10000000
00000000
00010000
00000000
00100000
00000000
,  // measure 17
00001000
00010000
00001000
00000000
00100000
00000000
00001000
00000000
00010000
00000010
00010000
00000000
00000010
00000000
00001000
00000000
,  // measure 18
00000100
00000010
00000100
00000010
00000001
00000010
00000001
00000000
00001000
00000010
00000100
00000001
00001000
00000000
00000001
00000000
,  // measure 19
00000100
00000010
00000100
00000000
00000001
00000000
00001000
00000000
00000100
00010000
00000100
00000000
00010100
00000000
00000000
00000000
,  // measure 20
00010000
00001000
00000000
00001000
00000010
00001000
00000000
00010000
00000000
00001000
00000000
00010000
00100000
00010000
00000000
00000000
,  // measure 21
00100000
10000000
00100000
10000000
00010000
00000000
00000000
00000000
00100000
01000000
00000000
00000000
00100000
01000000
00000000
00000000
,  // measure 22
10000000
00010000
00000000
01000000
00100000
01000000
00000000
00010000
00000000
10000000
01000000
00000000
10000000
01000000
00100000
00010000
,  // measure 23
00000000
00010000
01000000
00000000
00100000
00000000
10000000
00010000
00000000
00010000
00100000
00000000
00101000
00000000
00001000
00000000
,  // measure 24
00001000
00010000
00000000
00010000
01000000
00010000
00000000
00001000
00000000
00010000
00000000
00001000
00000100
00001000
00000000
00000000
,  // measure 25
00000100
00000001
00000100
00000001
00001000
00000000
00000000
00000000
00000100
00000010
00000000
00000000
00000100
00000010
00000000
00000000
,  // measure 26
00000001
00001000
00000000
00000010
00000100
00000010
00000000
00001000
00000000
00000001
00000010
00000000
00000001
00000010
00000100
00001000
,  // measure 27
00000000
00001000
00000010
00000000
00000100
00000000
00000001
00001000
00000000
00001000
00000100
00000000
00010100
00000000
00010000
00000000
,  // measure 28
00001000
01000000
00100000
01000000
00001000
01000000
00100000
01000000
,  // measure 29
00001000
01000000
00100000
00010000
00002000
00000000
00103000
00000000
,  // measure 30
00001000
00000000
00010000
00000010
00000000
00001000
00000010
00000000
00010000
00000000
00000010
00000000
00001000
00000000
00000010
00000000
,  // measure 31
00010000
00001000
01000000
10000000
01000000
00001000
00011000
00000000
,  // measure 32
00001000
00010000
00000000
00010000
01000000
00010000
00000000
00001000
00000000
00010000
00000000
00001000
00000100
00001000
00000000
00000000
,  // measure 33
00000100
00000001
00000100
00000001
00001000
00000000
00000000
00000000
00000100
00000010
00000000
00000000
00000100
00000010
00000000
00000000
,  // measure 34
00000001
00001000
00000000
00000010
00000100
00000010
00000000
00001000
00000000
00000001
00000010
00000000
00000001
00000010
00000100
00001000
,  // measure 35
00000000
00001000
00000010
00000000
00000100
00000000
00000001
00001000
00000000
00001000
00000100
00000000
00010100
00000000
00010000
00000000
,  // measure 36
00010000
00001000
00000000
00001000
00000010
00001000
00000000
00010000
00000000
00001000
00000000
00010000
00100000
00010000
00000000
00000000
,  // measure 37
00100000
10000000
00100000
10000000
00010000
00000000
00000000
00000000
00100000
01000000
00000000
00000000
00100000
01000000
00000000
00000000
,  // measure 38
10000000
00010000
00000000
01000000
00100000
01000000
00000000
00010000
00000000
10000000
01000000
00000000
10000000
01000000
00100000
00010000
,  // measure 39
00000000
00010000
01000000
00000000
00100000
00000000
10000000
00010000
00000000
00010000
00100000
00000000
00101000
00000000
00001000
00000000
,  // measure 40
00010000
00000000
01000000
00000000
10000000
00000000
00100000
00000000
01000000
00010000
01000000
00010000
10000000
00000000
00000000
00000000
,  // measure 41
00100000
01000000
00100000
01000000
00100000
00000000
10000000
00000000
00010000
01000000
00000000
00000000
00001000
00010000
00000000
00000000
,  // measure 42
00001000
00000000
00000010
00000000
00000001
00000000
00000100
00000000
00000010
00001000
00000010
00001000
00000001
00000000
00000000
00000000
,  // measure 43
00000100
00000010
00000100
00000010
00000100
00000000
00000001
00000000
00001000
00000000
00000010
00000000
00010000
00000000
00001000
00000000
,  // measure 44
00010000
00001000
00000000
00001000
00000100
00001000
00000000
00010000
00000000
00010000
00000000
00010000
01000000
00010000
00000000
00000000
,  // measure 45
00001000
00010000
01000000
10000000
00010000
00000000
10000000
00000000
00100000
01000000
00000000
00000000
00100000
01000000
00000000
00000000
,  // measure 46
00010000
00100000
00000000
00100000
10000000
00100000
00000000
00010000
00000000
10000000
01000000
00100000
00010000
00000000
01000000
00100000
,  // measure 47
00000000
00100000
10000000
00000000
01000000
00000000
00100000
00001000
00000000
00001000
00010000
00000000
00011000
00000000
00000000
00000000
,  // measure 48
00001010
00000010
00000100
00000001
00000010
00000100
00001000
00000010
,  // measure 49
00000100
00000001
00001000
00000100
00010000
00001000
00100000
00100000
,  // measure 50
00010000
01000000
00100000
10000000
00010000
10000000
01000000
00100000
,  // measure 51
00010000
10000000
00100000
01000000
00010000
00100000
00001000
00010000
,  // measure 52
00000100
00010000
00001000
01000000
00100000
01000000
00010000
00100000
,  // measure 53
00001000
00010000
00000100
00001000
00000010
00000100
00000001
00001000
,  // measure 54
00000100
00000010
00000001
00001000
00000100
00010000
00010000
00000100
,  // measure 55
00001000
00000010
00000100
00000001
00001000
00000100
00000100
00010000
,  // measure 56
00001000
00000000
00000000
00000000
;

//---------------dance-single - ----------------
#NOTES:
     dance-single:
     :
     Medium:
     5:
     0.311853,0.319460,0.114093,0.220579,0.000000,243.000000,15.000000,29.000000,0.000000,0.000000,0.000000,0.311853,0.319460,0.114093,0.220579,0.000000,243.000000,15.000000,29.000000,0.000000,0.000000,0.000000:
0000
0000
0000
0000
,
0000
0000
0000
0000
,
0000
0000
0000
0000
,
0000
0000
0000
1001
,
1000
0000
0001
0000
0100
0010
1000
0000
,
0100
0010
0001
0000
1000
0000
1000
0000
,
0010
0000
0100
0000
0001
0010
0100
0000
,
1000
0100
1000
0000
0001
0000
0100
0000
,
0010
0000
1000
0000
0001
0010
0100
0000
,
1000
0000
0001
0000
1000
0010
0100
0000
,
0002
1003
2000
3001
,
1000
0100
0010
0001
1000
0000
0000
0000
,
0101
1000
0020
0130
,
0001
1000
0100
0000
0010
0000
0002
0000
,
1003
0000
0010
1000
0100
0000
1000
0000
,
0001
0100
0001
0000
1000
0000
0101
0000
,
2100
0100
3001
0002
,
0203
0000
0300
0010
0020
0000
1030
0000
,
0002
0100
1003
1000
,
0002
0000
0003
1000
2000
0000
3000
0100
,
0100
0000
0010
0000
0001
1000
0010
0000
,
0100
0100
0100
0000
0010
0000
0010
0000
,
1000
0000
0001
0000
1000
0100
1000
0000
,
0002
0000
0013
0000
0002
0000
1003
1000
,
0010
0000
0100
0000
0001
0010
0100
0000
,
1000
0001
1000
0000
0100
0000
0100
0000
,
1000
0000
0000
0000
0001
1000
0010
0000
,
2000
0000
3100
0000
2000
0000
3010
0010
,
0200
0000
0300
0002
,
2003
0000
3000
0100
0200
0000
0300
0000
,
2000
0000
3000
0020
,
0230
0000
0300
0001
0002
0000
0003
0000
,
1001
0000
1100
0000
0001
0010
0001
0000
,
1000
0010
1000
0000
0100
0100
0100
0000
,
1010
0000
0011
0000
0001
0010
0001
0000
,
2000
3001
0002
1003
,
0010
1000
0001
0000
0100
0100
0100
0000
,
0101
0000
1000
1000
,
0001
0010
0100
1000
0010
0000
1000
0000
,
0010
0100
0010
0000
1000
0100
1000
0000
,
0001
0000
2000
3001
,
0200
0000
0300
0010
0010
1000
0001
0000
,
1100
0101
1000
1001
,
0010
0000
1000
0000
0001
0010
0100
1000
,
0010
1000
0001
0100
,
0200
0000
0300
0001
2000
0000
3000
0000
,
0101
1000
0010
0110
,
1001
0000
0000
0001
0001
0010
0001
1000
,
1000
0000
0100
0000
0010
0100
1000
0000
,
0010
0000
1000
0000
0001
0100
0010
1000
,
0001
0000
1000
0000
0001
0000
1000
0100
,
0010
0000
0000
0001
1000
0000
0000
0010
,
0100
0000
0001
0000
1000
0100
0010
0000
,
0001
0000
0000
1000
1000
0000
0010
0000
,
0100
0001
1000
0000
0100
0000
0010
0000
,
0001
0010
0100
1000
1000
0010
0100
0001
,
1000
0000
0000
0000
;

//---------------dance-single - ----------------
#NOTES:
     dance-single:
     :
     Easy:
     2:
     0.146691,0.170378,0.030425,0.000000,0.000000,131.000000,4.000000,0.000000,0.000000,0.000000,0.000000,0.146691,0.170378,0.030425,0.000000,0.000000,131.000000,4.000000,0.000000,0.000000,0.000000,0.000000:
0000
0000
0000
0000
,
0000
0000
0000
0000
,
0000
0000
0000
0000
,
0000
0000
0000
1001
,
1000
0000
0001
0000
,
0100
0000
0010
1000
,
0001
0000
1000
0000
,
0100
0100
0010
0010
,
0001
0000
1000
0000
,
0010
1000
0001
0000
,
0100
0000
0001
0000
,
1000
0000
1001
0000
,
0110
0000
1000
0001
,
0100
0000
0001
0010
,
0100
0000
1000
0001
,
0100
0000
0000
0010
,
0010
0000
1000
0000
,
0001
0100
0010
0000
,
1000
0000
0001
0000
,
1000
0010
0100
0000
,
0001
0000
1000
0000
,
0100
0000
0010
0010
,
0001
0000
1000
0000
,
0010
1000
0001
0100
,
0010
0000
1000
0000
,
0100
0000
1000
1000
,
0001
0000
0100
0000
,
0010
1000
0001
0100
,
0001
0000
0000
1000
,
1000
0000
0100
0000
,
0010
0000
0000
0000
,
0001
0000
1000
1001
,
0001
0000
1000
0000
,
0010
0010
1000
0000
,
0001
0000
1000
0000
,
0100
0100
0010
0010
,
0001
0000
1000
0000
,
0001
0001
0100
0000
,
0010
0000
1000
0000
,
0100
0100
0010
0010
,
0001
0000
1000
0000
,
0010
1000
0001
0000
,
0100
0000
0001
0000
,
1000
1000
0001
0010
,
0100
0000
1000
0000
,
0010
1000
0001
0000
,
0100
0000
0001
0000
,
1000
0100
0010
0001
,
1000
0000
0000
0010
,
0010
0000
0100
0000
,
0001
0000
0000
0000
,
1000
0000
0001
0000
,
0010
0000
0000
0001
,
0001
0000
1000
0000
,
0010
0000
0000
0000
,
0100
0000
0001
0000
,
1000
0000
0000
0000
;

//---------------dance-single - ----------------
#NOTES:
     dance-single:
     :
     Beginner:
     1:
     0.093447,0.127213,0.022819,0.000000,0.000000,83.000000,3.000000,0.000000,0.000000,0.000000,0.000000,0.093447,0.127213,0.022819,0.000000,0.000000,83.000000,3.000000,0.000000,0.000000,0.000000,0.000000:
0000
0000
0000
0000
,
0000
0000
0000
0000
,
0000
0000
0000
0000
,
0000
0000
0000
0000
,
0100
0000
0000
0000
,
0001
0000
0001
0000
,
0010
0000
0000
0000
,
0100
0000
0100
0000
,
1000
0000
0000
0000
,
0010
0000
1000
0000
,
0001
0000
0000
0000
,
0100
0000
0001
0000
,
1000
0000
0000
0000
,
0010
0000
0010
0000
,
1000
0000
0000
0000
,
0001
0000
0000
0000
,
1001
0000
0000
0100
,
0100
0000
0010
0000
,
1000
0000
0000
0000
,
0100
0000
0100
0000
,
0010
0000
0000
0000
,
0001
0000
1000
0000
,
0010
0000
0000
0000
,
0100
0000
0100
0000
,
0001
0000
0000
0000
,
1000
0000
0100
0000
,
0010
0000
0000
0000
,
0001
0000
1000
0000
,
0010
0000
0000
0100
,
0100
0000
0001
0000
,
1000
0000
0000
0000
,
0100
0000
0100
0000
,
1001
0000
0000
0000
,
1000
0000
0010
0010
,
0000
0000
0000
0000
,
0100
0000
0100
0000
,
0001
0000
0000
0000
,
1000
0000
0010
0010
,
0000
0000
0000
0000
,
1000
0000
0001
0000
,
0100
0000
0000
0000
,
0001
0000
1000
1000
,
0000
0000
0000
0000
,
0100
0000
0010
0000
,
0001
0000
1000
0000
,
0010
0000
0100
0100
,
0000
0000
0001
0000
,
1000
0000
0010
0000
,
1001
0000
0000
1000
,
1000
0000
0001
0000
,
0100
0000
0000
0000
,
0010
0000
1000
0000
,
0001
0000
0000
0000
,
0010
0000
0100
0000
,
1000
0000
0000
0000
,
0001
0000
1000
1000
;
