#TITLE:Sound of the Underground;
#SUBTITLE:;
#ARTIST:Girls Aloud;
#TITLETRANSLIT:;
#SUBTITLETRANSLIT:;
#ARTISTTRANSLIT:;
#GENRE:;
#CREDIT:;
#BANNER:Sound of the Underground-bn.png;
#BACKGROUND:Sound of the Underground-bg.png;
#LYRICSPATH:;
#CDTITLE:;
#MUSIC:Sound of the Underground.mp3;
#OFFSET:-0.190;
#SAMPLESTART:55.760;
#SAMPLELENGTH:16.360;
#SELECTABLE:YES;
#BPMS:0.000=164.000
;
#STOPS:151.000=0.010
;
#BGCHANGES:-1.100=Sound of the Underground.avi=1.000=1=0=0=StretchNoLoop==CrossFade==,
99999=-nosongbg-=1.000=0=0=0 // don't automatically add -songbackground-
;
#KEYSOUNDS:;
#ATTACKS:;

//---------------dance-single - ----------------
#NOTES:
     dance-single:
     :
     Beginner:
     1:
     0.111,0.196,0.053,0.000,0.000,68.000,5.000,0.000,0.000,0.000,0.000,0.111,0.196,0.053,0.000,0.000,68.000,5.000,0.000,0.000,0.000,0.000:
0000
0000
0000
0000
,
0000
0000
0000
0000
,
0010
0000
0000
0000
,
0010
0000
0000
0000
,
0100
0000
0000
0000
,
0100
0000
0000
0000
,
1000
0000
0000
0000
,
1000
0000
0000
0000
,
0001
0000
0000
0000
,
0001
0000
0000
0000
,
0010
0000
0000
0000
,
0010
0000
0000
0000
,
0100
0000
0000
0000
,
0100
0000
0000
0000
,
0010
0000
0000
0000
,
0010
0000
0000
0000
,
1000
0000
0000
0000
,
1000
0000
0000
0000
,
0001
0000
0000
0000
,
0100
0000
0000
0000
,
0010
0000
0000
0000
,
0100
0000
0000
0000
,
1001
0000
0000
0000
,
0100
0000
0000
0000
,
0010
0000
0000
0000
,
1000
0000
0000
0000
,
0110
0000
0000
0000
,
1000
0000
0000
0000
,
0001
0000
0000
0000
,
0100
0000
0000
0000
,
1001
0000
0000
0000
,
0010
0000
0000
0000
,
1000
0000
0000
0000
,
0100
0000
0000
0000
,
0110
0000
0000
0000
,
0010
0000
0000
0000
,
1000
0000
0000
0000
,
0000
0000
0000
0000
,
0010
0000
0010
0000
,
0010
0000
0000
0000
,
0100
0000
0000
0000
,
0001
0000
0000
0000
,
1000
0000
1000
0000
,
1000
0000
0000
0000
,
0100
0000
0000
0000
,
1000
0000
0000
0000
,
0010
0000
0010
0000
,
0010
0000
0000
0000
,
0100
0000
0000
0000
,
0001
0000
0000
0000
,
0010
0000
0010
0000
,
0010
0000
0000
0000
,
0001
0000
0000
0000
,
1000
0000
0000
0000
,
0100
0100
0100
0000
,
0100
0100
0100
0000
,
0000
0000
0000
0000
,
0000
0000
0000
0000
,
0010
0010
0010
0000
,
0010
0010
0010
0000
,
0000
0000
0000
0000
,
1001
0000
0000
0000
;

//---------------dance-single - ----------------
#NOTES:
     dance-single:
     :
     Medium:
     9:
     0.443,0.430,0.556,0.011,0.000,237.000,52.000,1.000,0.000,0.000,0.000,0.443,0.430,0.556,0.011,0.000,237.000,52.000,1.000,0.000,0.000,0.000:
0000
0000
0000
0000
,
0000
0000
0000
0000
,
0010
0000
0100
0001
0000
0101
0000
0000
,
0010
0000
1000
0001
0000
1001
0000
0000
,
0100
0000
1000
0100
0000
1100
0000
0000
,
0010
0000
0100
0010
0000
0110
0000
0000
,
0001
0000
1000
0100
0000
1000
0001
0000
,
0100
0010
1000
0100
,
1000
0000
0100
1000
0000
1100
0000
0000
,
0010
0000
0100
0010
0000
0110
0000
0000
,
0001
0000
0010
0001
0000
0100
0001
0000
,
1000
0010
0100
0010
,
1000
0000
0100
1000
0000
1100
0000
0000
,
0001
0000
1000
0001
0000
1001
0000
0000
,
0010
0000
0100
0001
0000
1000
0100
0000
,
1000
0010
0100
0001
,
0100
0000
0010
0100
0000
0110
0000
0000
,
0001
0000
0100
0001
0000
0101
0000
0000
,
0010
1000
0001
0100
,
0010
0100
0001
1000
,
0100
0010
0001
1000
,
0010
0000
0100
0000
0001
1000
0001
0000
,
1001
0000
0000
1001
0000
0000
0000
0000
,
0110
0000
0000
0110
0000
0000
0000
0000
,
0101
0000
0000
0101
0000
0000
0000
0000
,
1100
0000
0000
1100
0000
0000
0000
0000
,
1010
0000
0000
1010
0000
0000
0000
0000
,
1001
0000
0000
1001
0000
0000
0000
0000
,
0110
0000
0000
0110
0000
0000
0000
0000
,
0101
0000
0000
0101
0000
0000
0000
0000
,
1001
0100
1000
0010
,
0100
0010
0100
0000
0001
0000
1000
0000
,
1100
0000
1000
0000
0010
0000
0100
0010
,
0100
0001
1000
0100
,
1001
0010
0001
0100
,
0001
1000
0001
0000
0010
0000
0100
0000
,
1100
1000
0010
0100
,
0001
1000
0001
1000
0001
1000
0001
0000
,
0110
0000
0001
0100
0001
0000
0101
0000
,
1100
0000
0000
0000
0000
0000
1000
0100
,
0010
0000
0001
1000
0001
0000
0100
0000
,
0020
1000
0100
1030
,
1010
0000
1000
0001
0100
0000
0101
0000
,
1100
0000
0000
0000
0000
0000
0001
1000
,
0100
0000
0010
0000
0001
0000
1000
0001
,
0100
0010
0110
1001
,
0110
0000
0001
0100
,
0101
0000
0000
0000
0010
0000
1000
0100
,
1000
0000
0010
0000
0010
0000
1000
0001
,
1000
0010
0010
0000
,
1000
0001
0100
0010
,
1000
0100
1000
0010
,
0100
0000
0010
1000
0001
0000
0100
0000
,
0010
0000
0010
1000
0001
0000
0100
0000
,
0101
1001
1100
0100
,
1100
1001
0101
0000
,
0010
0100
0001
1000
,
0100
0010
0001
1000
,
1001
1100
0101
0010
,
0110
0101
1100
0000
,
0010
1000
0001
0100
,
0010
0000
1000
0000
0001
0010
0100
1000
;

//---------------dance-single - ----------------
#NOTES:
     dance-single:
     :
     Hard:
     12:
     0.556,0.529,0.406,0.064,0.000,320.000,38.000,6.000,0.000,0.000,0.000,0.556,0.529,0.406,0.064,0.000,320.000,38.000,6.000,0.000,0.000,0.000:
0000
0000
0000
0000
,
0000
0000
0000
0000
,
0010
1000
0100
0001
1000
0010
0000
0000
,
0100
0001
1000
0100
0001
0010
0000
0000
,
0001
1000
0010
0100
0001
1000
0000
0000
,
0010
1000
0100
0001
1000
0010
0000
0000
,
0100
0000
0001
1000
0000
0010
1000
0001
,
0100
0010
0110
0101
,
1000
0001
0100
1000
0010
0100
0000
0000
,
0010
1000
0100
0001
0010
0100
0000
0000
,
0001
0000
1000
0010
0000
1000
0001
0100
,
0010
0100
0101
1100
,
1000
0001
0100
0010
1000
0001
0000
0000
,
1000
0100
0001
1000
0010
0100
0000
0000
,
0010
0100
0001
0100
0000
0100
0010
1000
,
0001
0000
1000
0000
0100
1000
0001
0000
,
1000
0010
0001
0100
0010
1000
0000
0000
,
0001
0010
0100
1000
0010
0100
0000
0000
,
2001
0100
3100
0000
,
0210
0001
0301
0000
,
0012
1000
1003
0000
,
0210
0001
0301
0000
,
0001
1000
0010
0100
0000
0000
0000
0000
,
0010
1000
0001
0100
0000
0000
0000
0000
,
0001
0010
0100
1000
0000
0000
0000
0000
,
0010
1000
0001
0100
0000
0000
0000
0000
,
0010
0100
0010
1000
0000
0000
0000
0000
,
0100
1000
0001
0010
0000
0000
0000
0000
,
0001
1000
0010
0100
0000
0000
0000
0000
,
0010
1000
0001
0000
1100
0000
0101
0000
,
1001
0000
0010
0100
0001
0000
1000
0100
,
1000
0001
0100
0000
0010
0100
0001
0000
,
1000
0000
0001
0010
1000
0010
0001
1000
,
0100
0000
1000
0000
0010
0100
0010
0000
,
1000
0000
0001
0100
1000
0000
0010
1000
,
0100
1000
0001
0010
0001
0100
0010
0000
,
0000
0000
1000
0001
1001
0000
0110
0000
,
0002
0010
0100
1003
,
1010
0000
1000
0001
0100
0000
0101
0000
,
1100
0000
0010
0100
0000
0100
0010
1000
,
0100
1000
0001
0100
0010
0000
1000
0100
,
0001
0100
1000
0100
0001
0100
1000
0000
,
0010
1000
0001
0100
0010
0000
0110
0000
,
0101
0000
1000
0010
0000
0010
1000
0001
,
0100
0000
0010
0100
0001
0000
1000
0100
,
1100
0000
0010
0100
0110
0000
0101
0000
,
1100
0000
0010
1000
0001
1000
0100
0000
,
0020
0000
0001
0000
0130
0000
0010
0001
,
0100
0000
0101
0000
1100
0000
0010
1000
,
0100
0000
1100
0000
0101
0000
0000
0100
,
0001
0000
1000
0100
1000
0000
0001
0100
,
0001
0000
1000
0000
0010
0000
1000
0001
,
0100
0000
0010
1000
0100
0001
0100
0000
,
1000
0000
0001
0010
1000
0010
0001
0000
,
0101
0000
1100
0000
1001
0000
0010
0100
,
0110
0101
1100
0000
,
0001
1000
0100
0001
0100
1000
0010
0001
,
0010
1000
0100
0001
0100
1000
0010
0000
,
0110
0000
1010
0000
1001
0000
0100
0001
,
0101
1100
1001
0000
,
0001
0010
1000
0010
0001
0100
1000
0100
,
0001
0010
1000
0010
0001
0100
0010
1000
;

//---------------dance-single - ----------------
#NOTES:
     dance-single:
     :
     Easy:
     5:
     0.244,0.231,0.064,0.107,0.000,144.000,6.000,10.000,0.000,0.000,0.000,0.244,0.231,0.064,0.107,0.000,144.000,6.000,10.000,0.000,0.000,0.000: // measure 0
0000
0000
0000
0000
,  // measure 1
0000
0000
0000
0000
,  // measure 2
0000
0000
0010
0000
0000
0010
0000
0000
,  // measure 3
0000
0000
0100
0000
0000
0100
0000
0000
,  // measure 4
0000
0000
0001
0000
0000
0001
0000
0000
,  // measure 5
0000
0000
1000
0000
0000
1000
0000
0000
,  // measure 6
0000
0000
0100
0000
0000
0100
0000
0000
,  // measure 7
0000
0000
1000
0000
0000
1000
0000
0000
,  // measure 8
0000
0000
0010
0000
0000
0010
0000
0000
,  // measure 9
0000
0000
1000
0000
0000
1000
0000
0000
,  // measure 10
0000
0000
0001
0000
0000
0001
0000
0000
,  // measure 11
0000
0000
0100
0000
0000
0100
0000
0000
,  // measure 12
0000
0000
0010
0000
0000
0010
0000
0000
,  // measure 13
0000
0000
1000
0000
0000
1000
0000
0000
,  // measure 14
0000
0000
0001
0000
0000
1000
0000
0000
,  // measure 15
0000
0000
0100
0000
0000
0010
0000
0000
,  // measure 16
0000
0000
0001
0000
0000
1000
0000
0000
,  // measure 17
0000
0000
0010
0000
0000
1000
0000
0000
,  // measure 18
0100
0000
1000
0000
,  // measure 19
0010
0000
1000
0000
,  // measure 20
0001
0000
0010
0000
,  // measure 21
0001
0000
0100
0000
,  // measure 22
0002
0000
0000
0103
0000
0000
0000
0000
,  // measure 23
2000
0000
0000
3100
0000
0000
0000
0000
,  // measure 24
0020
0000
0000
0130
0000
0000
0000
0000
,  // measure 25
0200
0000
0000
0301
0000
0000
0000
0000
,  // measure 26
2000
0000
0000
3001
0000
0000
0000
0000
,  // measure 27
0020
0000
0000
0031
0000
0000
0000
0000
,  // measure 28
0200
0000
0000
0310
0000
0000
0000
0000
,  // measure 29
0002
0000
0000
0103
0000
0000
0000
0000
,  // measure 30
0010
1000
0001
0000
,  // measure 31
1000
0001
0100
0000
,  // measure 32
0010
1000
0100
0000
,  // measure 33
1000
0100
0010
0000
,  // measure 34
0001
0010
0100
0000
,  // measure 35
1000
0001
0100
0000
,  // measure 36
0010
0100
0001
0000
,  // measure 37
2002
0000
0000
3003
,  // measure 38
0010
0010
1000
0100
,  // measure 39
0100
0000
1000
0000
,  // measure 40
0001
1000
0100
0000
,  // measure 41
1000
0001
0100
0000
,  // measure 42
0001
0001
1000
0001
,  // measure 43
0001
0000
1000
0000
,  // measure 44
0010
1000
0001
0000
,  // measure 45
0110
0000
1001
0000
,  // measure 46
1001
0000
0100
1000
,  // measure 47
0100
0000
1000
0000
,  // measure 48
0010
0010
0010
1000
,  // measure 49
0100
0100
0100
0000
,  // measure 50
1000
0000
0001
0000
,  // measure 51
0010
0000
0001
0000
,  // measure 52
1001
0000
0100
0000
,  // measure 53
0110
0000
0010
0000
,  // measure 54
1000
0100
0010
0001
,  // measure 55
0100
0100
0100
0000
,  // measure 56
0010
0000
0100
0000
,  // measure 57
0001
0000
1000
0000
,  // measure 58
0001
0100
0010
1000
,  // measure 59
0010
0010
0010
0000
,  // measure 60
1000
0000
0001
0000
,  // measure 61
0100
0000
0010
0100
;
