#TITLE:Sound of the Underground;
#ARTIST:Girls Aloud;
#FILE:Sound of the Underground.mp3;
#BPM:164.000;
#GAP:190;
#SAMPLESTART:55.760;
#SAMPLELENGTH:16.360;
#FREEZE:604.000=10.000;
#SINGLE:BEGINNER:1:
00000000
00000000
80000000
80000000
20000000
20000000
40000000
40000000
60000000
60000000
80000000
80000000
20000000
20000000
80000000
80000000
40000000
40000000
60000000
20000000
80000000
20000000
B0000000
20000000
80000000
40000000
A0000000
40000000
60000000
20000000
B0000000
80000000
40000000
20000000
A0000000
80000000
40000000
00000000
80008000
80000000
20000000
60000000
40004000
40000000
20000000
40000000
80008000
80000000
20000000
60000000
80008000
80000000
60000000
40000000
20202000
20202000
00000000
00000000
80808000
80808000
00000000
B0000000
;
#SINGLE:ANOTHER:9:
00000000
00000000
80260300
80460B00
20420100
80280A00
60420460
20804020
40240100
80280A00
60860260
40802080
40240100
60460B00
80260420
40802060
20820A00
60260300
80406020
80206040
20806040
80206460
B00B0000
A00A0000
30030000
10010000
70070000
B00B0000
A00A0000
30030000
B0204080
28206040
10408028
20604020
B0806020
64608020
10408020
64646460
A0626030
10000042
80646020
8!80402070
70462030
10000064
20806046
2080A0B0
A0006020
30008042
40808046
40808000
40602080
40204080
20846020
80846020
30B01020
10B03000
80206040
20806040
B0103080
A0301000
80406020
80406824
;
#SINGLE:MANIAC:12:
00000000
00000000
84264800
26426800
64826400
84264800
20640846
2080A030
46248200
84268200
60480462
80203010
46284600
42648200
82620284
60402460
48628400
68248200
B!40201000
A!20603000
9!6040B000
A!20603000
64820000
84620000
68240000
84620000
82840000
24680000
64820000
84601030
B0826042
46208260
40684864
20408280
40624084
24686280
0046B0A0
6!608020B0
70462030
10820284
24628042
62426240
846280A0
30480846
20826042
1082A030
10846420
8!8060A086
20301084
20103002
60424062
60408046
20842620
40684860
3010B082
A0301000
64262486
84262480
A070B026
3010B000
68486242
68486284
;
#SINGLE:BASIC:5:
00000000
00000000
00800800
00200200
00600600
00400400
00200200
00400400
00800800
00400400
00600600
00200200
00800800
00400400
00600400
00200800
00600400
00800400
20004000
80004000
60008000
60002000
6!60030000
4!40010000
8!800A0000
2!20030000
4!400B0000
8!80090000
2!200A0000
6!60030000
80406000
40602000
80402000
40208000
60802000
40602000
80206000
B!B00000B0
80804020
20004000
60402000
40602000
60604060
60004000
80406000
A000B000
B0002040
20004000
80808040
20202000
40006000
80006000
B0002000
A0008000
40208060
20202000
80002000
60004000
60208040
80808000
40006000
20008020
;
