#VERSION:0.82;
#TITLE:24K Magic;
#SUBTITLE:;
#ARTIST:Bruno Mars;
#TITLETRANSLIT:;
#SUBTITLETRANSLIT:;
#ARTISTTRANSLIT:;
#GENRE:R'n'B;
#ORIGIN:;
#CREDIT:;
#BANNER:24K Magic.png;
#BACKGROUND:24K Magic-bg.png;
#PREVIEWVID:;
#JACKET:jacket.png;
#CDIMAGE:;
#DISCIMAGE:;
#LYRICSPATH:;
#CDTITLE:;
#MUSIC:24K Magic.ogg;
#OFFSET:-1.880000;
#SAMPLESTART:62.392914;
#SAMPLELENGTH:13.714000;
#SELECTABLE:YES;
#BPMS:0.000=107.000;
#STOPS:;
#DELAYS:;
#WARPS:;
#TIMESIGNATURES:0.000=4=4;
#TICKCOUNTS:0.000=4;
#COMBOS:0.000=1;
#SPEEDS:0.000=1.000=0.000=0;
#SCROLLS:0.000=1.000;
#FAKES:;
#LABELS:0.000=Song Start;
#BGCHANGES:5.250=24K Magic.avi=1.000=0=0=1=====,
99999=-nosongbg-=1.000=0=0=0 // don't automatically add -songbackground-
;
#KEYSOUNDS:;
#ATTACKS:
;

//---------------dance-single - ----------------
#NOTEDATA:;
#CHARTNAME:;
#STEPSTYPE:dance-single;
#DESCRIPTION:;
#CHARTSTYLE:;
#DIFFICULTY:Hard;
#METER:7;
#RADARVALUES:0.401014,0.409933,0.271181,0.285840,0.007329,307.000000,37.000000,39.000000,0.000000,0.000000,0.000000,0.000000,0.000000,0.401014,0.409933,0.271181,0.285840,0.007329,307.000000,37.000000,39.000000,0.000000,0.000000,0.000000,0.000000,0.000000;
#CREDIT:Ben Speirs;
#NOTES:
0000
0000
0000
0000
,
0000
0000
0000
0000
,
0000
0000
0000
0110
,
2001
0000
3100
1000
0010
0010
0100
0000
,
0002
0000
0000
0000
0103
0000
0000
0000
0001
0000
0100
0000
0010
0000
1000
0001
,
2000
0000
3100
0000
1000
0100
0010
0000
,
0001
0010
0001
0000
1000
0010
1000
0001
,
0201
0000
0010
0000
1000
0000
0310
0100
,
0002
0000
0103
0000
0001
0000
1000
0100
,
2100
0000
3001
0000
1000
0001
0100
0000
,
1001
0010
1100
0101
,
1000
0100
0000
0000
0001
0100
0000
0000
,
0001
0010
0100
1000
0001
0000
1000
0000
,
0010
0100
0010
0000
0100
0010
0100
0000
,
0001
0000
0100
0000
0010
0000
1000
0000
0001
0000
0000
0100
0001
0000
0000
0000
,
1010
1000
0100
0000
0011
0001
0100
0000
,
0001
1000
0010
0100
0001
1000
1000
0100
,
0010
0010
0001
0001
0010
0001
1000
0010
,
1010
0100
1100
0101
,
2001
0000
0000
3020
0000
0000
0130
0000
,
0010
0100
0001
1000
0100
0010
0001
1000
,
0002
0000
0000
0203
0000
0000
0310
0100
,
0001
1000
0100
1000
0001
0010
0001
1000
,
0200
0000
0000
0320
0000
0000
0031
0010
,
0001
1000
0010
0100
0100
0010
1000
0001
,
2000
0000
0000
3002
0000
0000
0103
0000
,
1010
1100
0011
1000
,
0102
0000
1003
0010
0100
0100
0001
0000
,
2000
0000
3100
0000
0010
0010
0001
1000
,
0020
0000
0130
0000
0010
1000
0001
0000
,
1000
0100
1000
0100
0010
0001
1000
0010
,
0102
0000
1000
0013
,
1100
0000
0001
0000
1000
0001
0100
0000
,
1001
0000
1010
0000
0100
0010
0100
0000
,
0001
0100
0010
0000
0101
0000
1100
0000
,
0001
0000
0000
0000
0100
0010
1000
0000
,
0010
1000
0100
0010
0002
0000
2003
0000
,
3100
0000
0000
0000
1000
0001
0010
0000
,
0001
1000
0010
0100
0100
0001
1000
0000
,
2010
0000
3001
0000
1000
0001
0100
0000
,
0001
0010
0100
1000
0001
1000
0100
0000
,
0012
0100
0010
1003
,
2100
3002
0203
0310
,
2002
0000
3003
0000
0010
0010
0200
0000
,
1000
0000
0310
0100
0001
1000
0100
0010
,
0001
1100
0002
0203
,
0000
0000
0010
0010
0310
0000
0100
0010
,
1000
0001
1100
0102
,
0000
0000
1003
0001
0010
0010
0001
0000
,
1000
1100
0001
0101
,
1000
0100
0010
0001
1000
0010
0101
0000
,
2100
0000
3001
0010
0001
1000
0010
0100
,
0002
0000
0103
0000
0010
0100
1000
0100
,
0002
0000
1003
0000
1000
0100
0010
0000
,
0100
0100
1000
1000
0010
1000
0100
0010
,
2100
0001
3020
0001
,
0230
0000
0301
0000
0100
0001
1000
0001
,
2000
0000
3100
0000
1000
0001
0010
0000
,
1001
0000
0120
0000
1030
0001
1000
0001
;

//---------------dance-single - ----------------
#NOTEDATA:;
#CHARTNAME:;
#STEPSTYPE:dance-single;
#DESCRIPTION:;
#CHARTSTYLE:;
#DIFFICULTY:Challenge;
#METER:9;
#RADARVALUES:0.647066,0.647263,0.395778,0.109938,0.615655,549.000000,54.000000,15.000000,0.000000,0.000000,0.000000,0.000000,0.000000,0.647066,0.647263,0.395778,0.109938,0.615655,549.000000,54.000000,15.000000,0.000000,0.000000,0.000000,0.000000,0.000000;
#CREDIT:Ben Speirs;
#NOTES:
0000
0000
0000
0000
,
0000
0000
0000
0000
,
0000
0000
0000
0110
,
1001
0000
0000
0001
1000
0100
0010
0001
1000
0100
0010
0001
1000
0100
0010
0001
,
1000
0000
0000
1000
0100
0000
0000
0000
1100
0000
0001
0000
0101
0000
1000
0001
,
0100
0000
0000
0100
0001
0010
0100
1000
0001
0010
0100
1000
0001
0010
0100
1000
,
0010
0100
0010
0000
0100
0000
0001
0000
0100
0000
0100
0010
1000
0000
0100
0000
,
1001
0000
0000
0001
1000
0100
0010
0001
1000
0100
0010
0001
1000
0100
0010
0001
,
1000
0000
0000
1000
0010
0000
0000
0000
1010
0000
0100
0000
1001
0000
0001
0000
,
0101
0000
0000
0100
0010
0000
1000
0000
0001
0000
1000
0100
1000
0000
0001
0000
,
0101
0000
0010
0000
1010
0100
1100
1000
,
1001
1001
0010
0010
1001
1001
0100
0100
,
0001
0000
1000
0000
0001
0000
1000
0100
0010
0000
0001
0000
0100
0000
0010
1000
,
0010
0000
0100
0001
0100
0001
1000
0010
1000
0000
0001
0100
0001
0100
0010
1000
,
0010
0000
1000
0000
0100
1000
0100
1000
0001
0000
0100
0001
1000
0000
0010
0000
,
0100
0010
0100
0010
1000
0000
0001
0000
0100
0010
0100
0010
1000
0000
0001
0000
,
1000
0100
1000
0000
0001
0000
0010
0001
1000
0000
0001
0000
0100
0000
0010
0000
,
1000
0000
1010
0000
0001
0000
0011
0000
1000
0000
0001
0010
0001
0000
1000
0000
,
1010
0001
0100
0010
0110
0100
0110
0010
,
2001
0000
0000
0000
3001
0000
0100
0000
0100
0010
1000
0000
0001
0000
1000
0100
,
1000
0000
0001
0000
0100
0000
0010
0000
0010
0000
0100
0000
0001
0000
1000
0001
,
0200
0000
0000
0000
0310
0000
1000
0000
1000
0001
0100
0000
0010
0000
1000
0100
,
1000
0000
0001
0100
0001
0000
1000
0000
0010
0000
0100
0001
0100
0000
0010
1000
,
0200
0000
0000
0000
1300
0000
0010
0000
0010
0100
0000
0000
1001
0000
1000
0100
,
0010
0000
0001
1000
0010
0000
0100
0001
1000
0001
1000
0001
1000
0010
0100
0001
,
2000
0000
0000
0000
3100
0000
1000
0000
0001
0100
0000
0000
1001
0000
0000
0000
,
1000
0100
0001
0100
1000
0100
0001
0100
1000
0100
0001
0100
1010
0000
0000
0000
,
0101
0000
0000
0001
1000
0100
0010
0001
1000
0100
0010
0001
1000
0100
0010
0001
,
1000
0000
0000
1000
0010
0000
0100
0000
0001
0000
0101
0000
1001
0000
1000
0010
,
0100
0000
0000
0100
0001
0010
0100
1000
0001
0010
0100
1000
0001
0010
0100
1000
,
0010
0100
0010
0000
0100
0000
0001
0000
1000
0000
0010
0100
0001
0000
0100
0010
,
1000
0000
0000
1000
0010
0100
0001
1000
0010
0100
0001
1000
0010
0100
0001
1000
,
0001
0000
0000
0001
1000
0000
0000
0000
0010
0000
1000
0100
1000
0000
0001
0100
,
0001
0000
0000
0001
1000
0000
0000
0000
1000
0000
0010
0000
0101
0000
0000
0000
,
1100
0010
1100
0101
,
1001
0000
0000
0000
1000
0000
0001
0100
0001
0100
0000
0001
0000
1000
0100
1000
,
0000
0001
0010
0100
2100
0000
3002
0000
,
0203
0000
0000
0000
0310
0000
0100
0001
0100
0001
0000
1000
0000
0010
1000
0010
,
0000
0000
1000
0000
0100
0000
0010
0000
0002
0000
0000
1003
0020
0000
0000
0000
,
0230
0000
0000
0000
0301
0000
1000
0100
1000
0100
0000
1000
0000
0001
1000
0010
,
0000
1000
0001
0100
0010
1000
0001
0000
,
1000
1100
0000
0101
0000
0011
0000
1010
,
0001
0100
0000
0000
1000
0100
0000
0000
1100
0000
0000
0000
0011
0000
0000
0000
,
0200
0000
0000
0000
0310
0100
0010
0000
0100
0000
0010
0000
0102
0000
0000
0000
,
0103
0010
0100
0000
0010
0000
0100
0000
0010
0000
0010
0000
1000
0000
1100
0000
,
1100
0000
0000
0000
0001
1000
0001
0000
0100
0000
0100
0000
0110
0000
0000
0000
,
0010
1000
0010
0000
1000
0100
0010
0001
1000
0000
1000
0000
0001
0100
0010
0000
,
2000
0000
0000
0000
3001
0100
0001
0000
1000
0000
1000
0000
1010
0000
0000
0000
,
0001
1000
0001
0000
0100
0010
0100
0000
1001
0000
0100
0010
1000
0000
0001
0010
,
0001
0000
1000
0010
0000
1000
0001
0000
0010
0000
0001
1000
0000
0010
1000
0000
,
0001
0100
1000
0100
0001
0100
1000
0100
0001
0100
1000
0100
1010
0000
0000
0000
,
0101
0000
0000
0100
0010
1000
0001
0010
0100
1000
0001
0100
0010
1000
0100
0010
,
0001
0000
1000
0100
1000
0000
0001
0000
0100
0000
0110
0000
0010
0000
0100
0010
,
1000
0000
0000
1000
0001
0010
0100
1000
0010
0100
0001
1000
0100
0010
0001
1000
,
0010
0100
0010
0000
0100
0000
0001
0000
1000
0000
0010
0100
0001
0000
1000
0100
,
2000
0000
0000
0000
3001
0010
0100
1000
0001
0100
0010
1000
0100
0010
0001
1000
,
0010
0000
0010
0100
0001
0000
0100
0000
0110
0000
0010
0000
1010
0000
1000
0000
,
1200
0000
0000
0000
1300
0001
0010
0100
1000
0000
0001
0000
1000
0000
1010
0000
,
0001
1000
0010
0000
1000
0000
0100
0000
1100
0000
0001
0000
0101
0000
0010
0000
;

//---------------dance-double - ----------------
#NOTEDATA:;
#CHARTNAME:;
#STEPSTYPE:dance-double;
#DESCRIPTION:;
#CHARTSTYLE:;
#DIFFICULTY:Challenge;
#METER:9;
#RADARVALUES:0.582150,0.624359,0.469071,0.175901,0.384785,468.000000,64.000000,24.000000,0.000000,0.000000,0.000000,0.000000,0.000000,0.582150,0.624359,0.469071,0.175901,0.384785,468.000000,64.000000,24.000000,0.000000,0.000000,0.000000,0.000000,0.000000;
#CREDIT:Ben Speirs;
#NOTES:
// measure 0
00000000
00000000
00000000
00000000
,  // measure 1
00000000
00000000
00000000
00000000
,  // measure 2
00000000
00000000
00000000
00011000
,  // measure 3
10010000
00000000
00000000
10000000
00010000
00100000
01000000
10000000
00010000
00100000
01000000
10000000
00010000
00100000
01000000
10000000
,  // measure 4
00100000
00000000
00000000
00100000
01000000
00000000
00000000
00000000
01010000
00000000
01000000
00000000
00011000
00000000
00001000
00000000
,  // measure 5
00001100
00000000
00000000
00000000
00001000
00000100
00000010
00000001
00001000
00000100
00000010
00000001
00001000
00000100
00000010
00000001
,  // measure 6
00000100
00000010
00000100
00000000
00000010
00000000
00001000
00000000
00000100
00000000
00000100
00000010
00000001
00000000
00001000
00000000
,  // measure 7
00002100
00000000
00000010
00000000
00010000
00000000
00003100
00010000
,  // measure 8
00002000
00000000
00013000
00000000
00011000
00100000
00110000
10000000
,  // measure 9
10020000
00000000
00000000
00000000
01030000
00000000
00100000
00000000
10000000
01000000
10000000
00000000
00010000
00000000
00000000
00000000
,  // measure 10
11000000
00100000
01010000
00011000
,  // measure 11
01000000
01000000
01010000
01001000
00001000
00001000
00011000
00010100
,  // measure 12
00000100
00000000
00001000
00000000
00000010
00000000
00000100
00000010
00001000
00000000
00000001
00000000
00001000
00000000
00000010
00000100
,  // measure 13
00000010
00000000
00000100
00000001
00000100
00000001
00000100
00000010
00000100
00000000
00000001
00000100
00000001
00000100
00000010
00000100
,  // measure 14
00000010
00000000
00001000
00000000
00000100
00000000
00010000
00000000
00000100
00000000
00000000
00010000
00001000
00000000
00000000
00000000
,  // measure 15
00101000
00100000
00010000
00000000
10100000
10000000
00010000
00000000
,  // measure 16
10000000
01000000
10000000
00000000
00100000
00000000
01000000
00000000
00010000
00000000
00100000
00000000
00100000
00000000
00010000
00000000
,  // measure 17
00110000
00000000
00001000
00000000
00011000
00000000
00000100
00000000
00001100
00000000
00000100
00000010
00000001
00000000
00001000
00000000
,  // measure 18
00000010
00001000
00000010
00001000
00000001
00000000
00000100
00000001
00001000
00000000
00000010
00001000
00000100
00000000
00000010
00000000
,  // measure 19
00000110
00000000
00001000
00000100
00001100
00000000
00000001
00000100
,  // measure 20
00000010
00000000
00001000
00000000
00000100
00000000
00010000
00000000
00001000
00000000
01000000
00000000
00001000
00000000
00010000
00100000
,  // measure 21
20000000
00000000
00000000
00000000
31000000
00000000
10000000
00000000
00100000
01000000
00000000
00000000
01100000
00000000
10000000
00000000
,  // measure 22
00100000
00000000
01000000
00000000
00010000
00000000
00100000
00000000
00001000
00000000
00010000
00000000
00000100
00000000
00000010
00000002
,  // measure 23
00000000
00000000
00000000
00000000
00000103
00000000
00000010
00000000
00001000
00000100
00001000
00000000
00000001
00000000
00000100
00001000
,  // measure 24
00000100
00000000
00001000
00010000
00001000
00000000
00010000
00100000
00010000
00000000
00100000
10000000
00100000
00000000
10000000
01000000
,  // measure 25
20000000
00000000
30010000
00100000
00001000
00010000
00011000
00000000
,  // measure 26
00101000
00100000
00000000
00000000
00110000
00010000
00000000
00000000
10010000
10000000
00000000
00000000
00011000
00000000
00000000
00000000
,  // measure 27
00001001
00000000
00000000
00000001
00001000
00000100
00000010
00000001
00001000
00000100
00000010
00000001
00001000
00000100
00000010
00000001
,  // measure 28
00000100
00000000
00000000
00000100
00000010
00000000
00000000
00000000
00001010
00000000
00000010
00000000
00011000
00000000
00010000
00000000
,  // measure 29
00110000
00000000
00000000
00000000
00010000
00100000
01000000
10000000
00010000
00100000
01000000
10000000
00010000
00100000
01000000
10000000
,  // measure 30
00100000
01000000
00100000
00000000
01000000
00000000
00010000
00000000
00100000
00000000
00100000
01000000
10000000
00000000
00010000
00000000
,  // measure 31
00120000
00000000
01000000
00000000
00001000
00000000
00130000
00001000
,  // measure 32
00020000
00000000
00031000
00000000
00011000
00000100
00001100
00000001
,  // measure 33
00002001
00000000
00000000
00000000
00003010
00000000
00000100
00000000
00000001
00000010
00000001
00000000
00001000
00000000
00000000
00000000
,  // measure 34
00000011
00000100
00001010
00001010
,  // measure 35
00001002
00000000
00000000
00000000
00000103
00000000
00000010
00000000
00001000
00000100
00000000
00000000
00001100
00000000
00000000
00000000
,  // measure 36
00001000
00000100
00010000
00001000
00200000
00000000
00310000
00000000
,  // measure 37
20010000
00000000
00000000
00000000
30100000
00000000
10000000
00000000
01000000
10000000
00000000
00000000
00100000
00000000
00000000
00000000
,  // measure 38
10000000
00010000
00100000
00001000
00020000
00000000
00030100
00000000
,  // measure 39
00000102
00000000
00000103
00000010
00001000
00000100
00010000
00000000
,  // measure 40
00010100
00011000
00110000
10010000
,  // measure 41
00200000
01000000
00000000
01000000
00000000
01000000
00000000
01300000
,  // measure 42
00100000
10000000
00000000
00000000
00010000
01000000
00000000
00000000
01001000
00000000
00000000
00000000
00011000
00000000
00000000
00000000
,  // measure 43
00001200
00000000
00000000
00000000
00000310
00000100
00000010
00000000
00000001
00000000
00001000
00000000
00000020
00000000
00000000
00000000
,  // measure 44
00000130
00000010
00000100
00000000
00000010
00000000
00001000
00000000
00000100
00000000
00000010
00000000
00000001
00000000
00001000
00000000
,  // measure 45
00000100
00001100
00011000
00120000
,  // measure 46
10030000
00100000
10000000
00000000
01000000
00000000
01000000
00000000
00100000
00000000
00100000
00000000
00010000
00000000
10000000
00000000
,  // measure 47
00200000
00000000
00000000
00000000
01300000
00100000
01000000
00000000
00100000
00000000
01000000
00000000
10020000
00000000
00000000
00030000
,  // measure 48
10000000
01000000
10000000
00000000
00100000
00000000
01000000
00000000
00010000
00000000
10000000
00000000
00100000
00000000
01000000
00000000
,  // measure 49
00010000
00000000
01000000
00100000
00000000
01000000
00100000
00000000
10000000
00000000
01000000
00100000
00000000
01000000
00100000
00000000
,  // measure 50
00010000
00100000
01000000
00100000
00010000
00100000
01000000
00100000
00010000
00100000
01000000
00100000
00002000
00000000
00000000
00000000
,  // measure 51
00013000
00000000
00000000
00010000
00000100
00000010
00000001
00000010
00000100
00000010
00000001
00000010
00000100
00000010
00000001
00001000
,  // measure 52
00000010
00000000
00000100
00000001
00000100
00000000
00000010
00000000
00001000
00000000
00001100
00000000
00000100
00000000
00010100
00000000
,  // measure 53
00012000
00000000
00000000
00000000
00103000
00010000
01000000
00010000
00100000
00010000
01000000
00010000
00100000
00010000
01000000
00010000
,  // measure 54
10000000
01000000
10000000
00000000
00010000
00000000
01000000
00000000
00100000
00000000
00100000
10000000
01000000
00000000
00100000
00000000
,  // measure 55
10020000
00000000
00000000
00000000
10030000
01000000
00100000
00010000
10000000
01000000
00100000
00010000
10000000
01000000
00100000
00010000
,  // measure 56
01000000
00000000
01000000
00100000
10000000
00000000
00010000
00000000
01000000
00000000
01010000
00000000
00001000
00000000
00011000
00000000
,  // measure 57
00010200
00000000
00000000
00000000
00001300
00000010
00001000
00000000
00000100
00000000
00000010
00000000
00000001
00000000
00000001
00000000
,  // measure 58
00000100
00000010
00000100
00000000
00000001
00000000
00001000
00000000
00000101
00000000
00000000
00000000
00010100
00000000
00000000
00000000
;

//---------------dance-single - ----------------
#NOTEDATA:;
#CHARTNAME:;
#STEPSTYPE:dance-single;
#DESCRIPTION:;
#CHARTSTYLE:;
#DIFFICULTY:Medium;
#METER:5;
#RADARVALUES:0.314110,0.366782,0.183231,0.300498,0.000000,234.000000,25.000000,41.000000,0.000000,0.000000,0.000000,0.000000,0.000000,0.314110,0.366782,0.183231,0.300498,0.000000,234.000000,25.000000,41.000000,0.000000,0.000000,0.000000,0.000000,0.000000;
#CREDIT:Ben Speirs;
#NOTES:
0000
0000
0000
0000
,
0000
0000
0000
0000
,
0000
0000
0000
0010
,
2001
3100
1000
0010
,
0200
0000
0300
0000
0010
1000
0010
1000
,
0002
0013
0001
1000
,
0001
0100
0001
0000
1000
0100
1000
0000
,
2002
3000
0100
0100
,
2003
0000
3010
0000
1000
0010
0100
0000
,
0010
0000
0010
0000
0100
0010
1000
0000
,
1010
0000
1100
0101
,
1000
1000
0000
0000
0001
0001
0000
0000
,
0100
0000
0001
1000
0010
0000
0000
0000
,
1000
0100
1000
0000
0001
0100
0001
0000
,
1000
0010
0010
1001
,
0001
0010
0001
1000
,
0010
0000
0100
0100
0100
0000
0010
0000
,
1000
0100
1000
0100
0010
0001
0010
0000
,
1001
0000
0010
0010
,
0102
0003
2000
3000
,
0010
0000
1000
0000
0010
1000
0100
0000
,
2000
3000
0002
0003
,
0010
0000
0001
0000
0100
0001
0010
0100
,
2000
3000
0020
0030
,
0100
0000
0001
0000
0100
0010
1000
0001
,
2000
3000
0001
1000
,
1010
1010
0101
0101
,
2002
0000
3003
0000
0001
1000
0010
0000
,
2000
0000
3001
0000
1000
1000
0001
0001
,
0020
0030
0001
0000
,
1000
0001
0100
0100
,
2002
0003
0100
0010
,
3002
0000
0103
0000
0001
1000
0010
0000
,
2200
0000
3300
0000
0001
1000
0010
0000
,
0200
0300
0001
1000
,
2002
3003
0010
0010
,
1000
0000
0100
0010
0002
0000
2003
0000
,
3200
0300
1000
0001
,
1000
0000
0010
0100
0002
0000
2003
0000
,
3020
0030
1000
0100
,
0010
0000
0001
0010
0200
0000
2300
0000
,
3002
0003
0100
0100
,
0010
0000
0110
1001
,
0000
0000
1000
0100
1000
0100
0000
0000
,
0001
0100
0001
0100
0001
0100
0000
0000
,
0000
0000
0001
1000
0001
1000
0000
0000
,
1000
0010
1000
0010
1000
0010
0000
0000
,
0000
0000
0100
0001
0100
0001
0000
0000
,
1000
0100
1000
0100
1000
0100
1000
0000
,
0002
0003
2000
3000
,
0101
0101
1010
1010
,
1002
0003
1000
0001
,
0100
0000
0100
0000
0010
0100
0010
0100
,
0002
0003
0100
0100
,
0001
0000
1000
0000
0010
1000
0100
0000
,
2200
0300
0010
0001
,
3002
0000
0003
0000
0100
0001
1000
0000
,
0010
0010
1000
0001
,
1100
0000
0000
0000
0001
1000
0001
1000
;

//---------------dance-single - ----------------
#NOTEDATA:;
#CHARTNAME:;
#STEPSTYPE:dance-single;
#DESCRIPTION:;
#CHARTSTYLE:;
#DIFFICULTY:Easy;
#METER:3;
#RADARVALUES:0.198936,0.301415,0.146585,0.205218,0.000000,142.000000,20.000000,28.000000,0.000000,0.000000,0.000000,0.000000,0.000000,0.198936,0.301415,0.146585,0.205218,0.000000,142.000000,20.000000,28.000000,0.000000,0.000000,0.000000,0.000000,0.000000;
#CREDIT:Ben Speirs;
#NOTES:
0000
0000
0000
0000
,
0000
0000
0000
0000
,
0000
0000
0000
0000
,
2002
3003
0001
0000
,
0100
0000
0010
0010
,
1000
0000
0001
0000
,
1000
0100
0010
0001
,
2000
3000
0000
0010
,
0020
0030
0100
0100
,
0001
0000
1000
0000
,
1001
0000
0010
0010
,
1001
0000
1001
0000
,
1000
0100
1000
0000
,
0001
0000
0010
0000
,
0001
0100
0001
0000
,
1000
0000
0001
0000
,
0100
0100
0100
0000
,
0001
0000
1000
0000
,
0010
0000
0110
0110
,
2002
3003
1000
0000
,
0100
1000
0010
0000
,
0100
0000
0001
0000
,
0100
0001
1000
0000
,
0010
0010
1000
0001
,
0100
0001
1000
0000
,
0010
0010
1000
0100
,
0010
0010
0010
1001
,
2002
3003
0001
0000
,
0100
0100
0010
1000
,
0001
0000
1000
0000
,
0100
0100
1000
0001
,
0200
0000
0300
0010
,
0020
0030
1000
0000
,
1001
0000
0001
0000
,
0100
0000
0010
0010
,
2002
3003
1000
0000
,
0000
0010
0100
0001
,
2000
3000
0001
0000
,
0000
1000
0001
0010
,
0200
0300
1000
0000
,
0000
0100
1000
0010
,
0200
0000
0000
0300
,
0001
0000
1000
0001
,
0000
0000
0000
2002
,
0000
0000
3003
0010
,
0010
0000
0100
2002
,
0000
0000
3003
0010
,
1000
0000
0100
2002
,
0000
0000
3003
0001
,
2000
3000
0020
0030
,
0100
0100
0110
0110
,
2002
3003
0001
0000
,
1000
0000
0010
0010
,
0100
0000
0001
0000
,
1000
0100
0010
0001
,
2000
0000
3000
0000
,
0002
0003
0100
0100
,
0020
0030
0100
0000
,
1001
0000
0110
1001
;

//---------------dance-single - ----------------
#NOTEDATA:;
#CHARTNAME:;
#STEPSTYPE:dance-single;
#DESCRIPTION:;
#CHARTSTYLE:;
#DIFFICULTY:Beginner;
#METER:1;
#RADARVALUES:0.108891,0.150707,0.065963,0.000000,0.000000,95.000000,9.000000,0.000000,0.000000,0.000000,0.000000,0.000000,0.000000,0.108891,0.150707,0.065963,0.000000,0.000000,95.000000,9.000000,0.000000,0.000000,0.000000,0.000000,0.000000,0.000000;
#CREDIT:Ben Speirs;
#NOTES:
0000
0000
0000
0000
,
0000
0000
0000
0000
,
0000
0000
0000
0000
,
1001
0000
0000
0000
,
1000
0000
0010
0010
,
0010
0000
0000
0000
,
1000
0000
0001
0000
,
0100
0000
0000
0100
,
0100
0000
0001
0000
,
1000
0000
0000
0000
,
0010
0000
0010
0000
,
1001
0000
1001
0000
,
1000
0000
0000
0000
,
0001
0001
0000
0000
,
1000
1000
0000
0000
,
0010
0000
0010
0000
,
0010
0000
0000
0000
,
0100
0000
0100
0000
,
0100
0000
0000
0000
,
1001
0000
0000
0000
,
0001
0001
0001
0000
,
0001
0000
0000
0000
,
0100
0100
0100
0000
,
0100
0000
0000
0000
,
0001
0001
0001
0000
,
0001
0000
0000
0000
,
1000
0000
1000
0000
,
1001
0000
0000
0000
,
0001
0000
1000
0000
,
0010
0000
0000
0000
,
0010
0010
0000
0010
,
0010
0000
0000
0000
,
1000
0000
0001
0000
,
0100
0000
0000
0000
,
0010
0000
0010
0010
,
0000
0000
0000
0000
,
0000
1000
1000
1000
,
0000
0000
0000
0000
,
0000
0001
0001
0001
,
0000
0000
0000
0000
,
0000
0100
0100
0100
,
0100
0000
0000
0000
,
0010
0000
0010
0010
,
0000
0000
0000
1001
,
0000
0000
0000
1000
,
1000
0000
0000
1001
,
0000
0000
0000
0001
,
0001
0000
0000
1001
,
0000
0000
0000
0000
,
0100
0000
0100
0000
,
0010
0010
0010
0000
,
1001
0000
0000
0000
,
1000
0000
0001
0001
,
0001
0000
0000
0000
,
0100
0000
0100
0000
,
0010
0000
0000
1000
,
1000
0000
0000
0000
,
0001
0000
0000
0000
,
0100
0000
0100
0100
;
