#VERSION:0.83;
#TITLE:If We Ever Meet Again;
#SUBTITLE:;
#ARTIST:Timbaland with Katy Perry;
#TITLETRANSLIT:;
#SUBTITLETRANSLIT:;
#ARTISTTRANSLIT:;
#GENRE:;
#ORIGIN:;
#CREDIT:;
#BANNER:If We Ever Meet Again.png;
#BACKGROUND:If We Ever Meet Again-bg.png;
#PREVIEWVID:;
#JACKET:jacket.png;
#CDIMAGE:;
#DISCIMAGE:;
#LYRICSPATH:;
#CDTITLE:;
#MUSIC:If We Ever Meet Again.ogg;
#OFFSET:-0.156000;
#SAMPLESTART:85.856735;
#SAMPLELENGTH:14.694003;
#SELECTABLE:YES;
#BPMS:0.000=126.000;
#STOPS:;
#DELAYS:;
#WARPS:;
#TIMESIGNATURES:0.000=4=4;
#TICKCOUNTS:0.000=4;
#COMBOS:0.000=1;
#SPEEDS:0.000=1.000=0.000=0;
#SCROLLS:0.000=1.000;
#FAKES:;
#LABELS:0.000=Song Start;
#BGCHANGES:4.000=If We Ever Meet Again.avi=1.000=0=0=1=====,
99999=-nosongbg-=1.000=0=0=0 // don't automatically add -songbackground-
;
#KEYSOUNDS:;
#ATTACKS:
;

//---------------dance-single - ----------------
#NOTEDATA:;
#CHARTNAME:;
#STEPSTYPE:dance-single;
#DESCRIPTION:;
#CHARTSTYLE:;
#DIFFICULTY:Hard;
#METER:7;
#RADARVALUES:0.358854,0.415153,0.278273,0.436212,0.022563,334.000000,297.000000,37.000000,58.000000,0.000000,0.000000,0.000000,0.000000,0.000000,0.358854,0.415153,0.278273,0.436212,0.022563,334.000000,297.000000,37.000000,58.000000,0.000000,0.000000,0.000000,0.000000,0.000000;
#CREDIT:Ben Speirs;
#NOTES:
0000
0000
0000
0000
,
0000
0000
0000
0000
,
0000
0000
0000
0000
,
0000
0000
0000
0000
,
0000
0000
0000
0000
,
0101
0000
1000
0000
0010
1000
0200
0000
,
0320
0000
0031
0000
0010
0001
0100
0000
,
0020
2030
3200
0010
,
1300
0000
0001
0000
1000
0010
0100
0000
,
1010
0000
0001
0000
0100
0001
0020
0000
,
0230
0000
1300
0000
0100
1000
0010
0000
,
0200
0302
0023
0100
,
0031
0000
1000
0000
0001
0100
0010
0000
,
1000
0010
2000
0000
3001
0010
0002
0000
,
1003
0100
2000
0000
3001
0100
0002
0000
,
1003
0000
0001
0000
0100
0010
1000
0000
,
0010
1000
0100
0000
0010
0010
0010
0000
,
0001
0000
0010
0100
0020
0000
0032
0000
,
2003
0000
3010
0000
1000
0010
0100
0000
,
0002
2003
3200
0010
,
2300
0001
3010
1001
,
0201
0010
1000
0320
,
1030
0000
1100
0000
0001
0000
0101
1000
,
0020
0000
0130
0001
2000
0000
3100
0000
,
1000
0001
1000
0100
0010
0001
0100
0000
,
1010
0101
0011
1100
,
0002
0000
2003
0000
3020
0000
0130
0001
,
2000
0000
3100
1000
0002
0000
0103
0000
,
0001
1000
0001
1000
0010
0100
0001
0000
,
0000
0101
0110
1010
,
0000
1100
0110
0011
,
0000
0011
0110
1001
,
0001
0100
1000
0100
0010
1000
0001
0000
,
2000
0100
3001
1001
,
1000
0010
0100
0000
0001
0010
0100
0000
,
0020
0000
0130
1000
0020
0000
0130
0000
,
2002
0000
0000
3003
,
0002
0000
0000
0103
0020
0000
0000
1030
,
0200
0320
0031
0000
,
1000
0100
1000
0001
1000
0100
1000
0000
,
0020
0000
0000
0030
,
2000
0000
0000
3010
0200
0000
0000
0301
,
0020
0230
2300
3001
,
0001
0010
0001
1000
0001
0010
0001
0000
,
0200
0000
0000
0300
,
2001
0100
3001
1001
,
1000
0100
0001
0000
0001
0100
1000
0000
,
0020
0000
0000
0130
0002
0000
1003
0000
,
0001
0010
0100
0010
0001
1000
0010
0000
,
1002
0100
0010
1003
,
1100
0000
0101
0000
1000
0000
0010
1000
,
0200
0000
0000
0010
0310
0000
0110
0000
,
0010
0001
1000
0001
1000
0010
0100
0000
,
0001
0101
0110
1010
,
0000
1001
1100
0101
,
0000
1010
0011
0110
,
0001
0010
1000
0010
0001
1000
0010
0000
,
2100
0010
0001
3100
,
0010
1000
0100
0000
0010
1000
0100
0010
,
0002
0000
0013
0100
0020
0000
0031
0000
,
0100
0001
1000
0001
1000
0001
0100
0000
,
0010
0000
0000
1000
0000
0000
0001
0000
0000
0000
0000
0000
0100
0000
0000
0000
,
0001
0000
0000
0010
0000
0000
0100
0000
0000
0000
0000
0000
1000
0000
0000
0000
,
0010
0000
0000
1000
0000
0000
0100
0000
0000
0000
0000
0000
1000
0000
0001
0000
,
0200
0010
0320
1000
,
1030
0000
0000
0001
0000
0000
0100
0000
0000
0000
0000
0000
0001
0000
0000
0000
,
1000
0000
0000
0100
0000
0000
0010
0000
0000
0000
0000
0000
0001
0000
0000
0000
,
1000
0000
0000
0001
0000
0000
0100
0000
0000
0000
0000
0000
0010
0000
1000
0000
,
0200
0000
0020
0000
,
0330
0000
0000
0000
;

//---------------dance-single - ----------------
#NOTEDATA:;
#CHARTNAME:;
#STEPSTYPE:dance-single;
#DESCRIPTION:;
#CHARTSTYLE:;
#DIFFICULTY:Challenge;
#METER:8;
#RADARVALUES:0.485635,0.544888,0.293315,0.293315,0.157939,452.000000,413.000000,39.000000,39.000000,0.000000,0.000000,0.000000,0.000000,0.000000,0.485635,0.544888,0.293315,0.293315,0.157939,452.000000,413.000000,39.000000,39.000000,0.000000,0.000000,0.000000,0.000000,0.000000;
#CREDIT:Ben Speirs;
#NOTES:
0000
0000
0000
0000
,
0000
0000
0000
0000
,
0000
0000
0000
0000
,
0000
0000
0000
0000
,
0000
0000
0000
0000
,
1000
0000
0010
1000
0100
0010
0011
0000
,
2010
0000
3001
0000
1000
0100
0010
0001
,
0200
0320
2030
3100
,
1000
0000
0001
0000
1000
0000
0010
0100
0010
0100
0010
0000
0100
0000
0001
0000
,
2000
0000
3010
1000
1100
0000
0101
0000
,
2001
0000
3001
1000
0010
0100
0001
0010
,
0200
0320
0032
1003
,
0001
0000
1000
0000
0010
0000
0100
0001
0100
0001
0100
0000
0010
0000
0100
0000
,
0001
0001
1000
0010
1000
1000
0100
1000
,
0010
0010
0100
0100
0001
0010
0100
1000
,
0002
0000
1003
0100
0001
0100
2000
0000
,
3001
0100
1000
0100
0010
1000
0200
0000
,
0310
0000
0001
0010
0100
1000
1010
0000
,
0012
0000
1003
0000
0001
1000
0010
0100
,
0002
2003
3200
0310
,
0011
0000
0000
0000
1100
0000
0000
0000
0010
0000
0000
0000
1000
0001
0000
0000
,
1100
0000
0000
0100
0010
0000
0001
0000
1000
0000
0000
0000
1001
0000
0000
0000
,
0001
0000
0000
0001
0100
0000
0010
0000
1000
0000
0000
0000
1010
0000
0000
0000
,
0002
0000
0013
0001
2000
0000
3010
0000
,
1000
0100
0001
0100
1000
0010
0010
0000
,
1010
0000
0000
1000
0100
0000
0010
0000
0001
0000
0000
0000
0011
0000
0000
0000
,
1001
0000
0000
0001
0100
0000
0010
0000
1000
0000
0000
0000
1100
0000
0000
0000
,
1002
0000
0103
0001
2000
0000
3100
0000
,
1000
0100
0001
0100
1000
0001
0100
0010
,
1000
0000
0000
0000
0001
0010
0001
0010
0001
0000
1000
0000
0001
0000
0100
0000
,
1010
0000
0000
0000
1000
0010
1000
0010
1000
0000
0100
0000
1000
0000
0010
0000
,
0101
0000
0000
0000
0001
0100
0001
0100
0001
0000
0100
0000
0010
0000
1000
0000
,
0100
0100
0010
0010
0001
1000
1001
0000
,
1010
0000
0000
0010
0100
0000
0001
0000
1000
0000
0000
0000
1001
0000
0000
0000
,
1000
0100
0000
0000
0100
0010
0000
0000
0010
0001
0000
0000
0001
1000
0000
0000
,
1002
0000
0103
0001
2000
0000
3010
0000
,
0202
0000
0000
0303
,
2000
0000
0000
3100
0200
0000
0000
0310
,
0010
0001
1000
0000
0001
1000
0010
0000
,
1000
0010
0001
0010
0100
0001
0010
0100
,
2000
0000
0000
3000
,
0002
0000
0000
0010
0023
0000
0000
0130
,
0200
0000
0000
1300
1000
0000
0001
0000
,
0100
0001
0010
0100
1000
0010
0100
0010
,
2002
0000
0000
3003
,
0001
0000
1000
0100
0010
0000
0001
0000
1000
0000
0000
0000
1001
0000
0000
0000
,
0001
0000
0010
0100
1000
0000
0001
0000
1000
0000
0000
0000
1001
0000
0000
0000
,
2100
0000
3010
1000
0002
0000
0103
0000
,
0001
1000
0010
0100
0001
0010
0100
0000
,
1100
0000
0100
0010
0001
0000
1000
0000
0001
0000
0000
0000
1100
0000
0000
0000
,
0101
0000
0001
0100
0010
0000
1000
0000
0100
0000
0000
0000
1100
0000
0000
0000
,
1020
0000
0130
0001
2000
0000
3010
0000
,
1000
0001
1000
0100
0010
0001
1000
0001
,
0100
0000
0000
0000
0010
1000
0010
1000
0010
0000
1000
0000
0100
0000
1000
0000
,
0101
0000
0000
0000
0001
0010
0001
0010
0001
0000
0010
0000
0100
0000
0010
0000
,
1100
0000
0000
0000
0001
1000
0001
1000
0001
0000
1000
0000
0010
0000
0100
0000
,
0010
0010
1000
1000
0010
1000
0100
0000
,
1100
0000
1000
0100
0010
0000
0001
0000
1000
0000
0001
0000
0100
0000
0010
0000
,
1000
0100
0000
0000
0100
0010
0000
0000
0010
0001
0000
0000
0001
0000
1000
0000
,
0200
0000
0000
0010
0310
0000
0110
0000
,
0010
0001
1000
0001
0100
0010
1000
0000
,
1010
0000
0000
0010
0100
0000
0010
0000
1000
0000
0000
0000
0001
0000
1000
0100
,
1000
0000
0010
0000
0100
0000
0001
0000
1000
0000
0000
0000
0001
0000
1000
0100
,
1000
0000
0010
0000
0100
0000
0001
0000
1000
0000
0000
0000
0001
0000
0010
0100
,
0010
0001
1000
0010
0100
0100
0001
0000
,
0101
0000
0000
0001
0100
0000
0010
0000
1000
0000
0000
0000
0001
0000
1000
0100
,
1000
0000
0010
0000
0100
0000
0001
0000
1000
0000
0000
0000
0001
0000
0010
0100
,
0010
0000
0001
0000
1000
0000
0100
0000
0010
0000
0000
0000
0100
0000
1000
0001
,
2000
0000
0020
0000
,
3030
0000
0000
0000
;

//---------------dance-double - ----------------
#NOTEDATA:;
#CHARTNAME:;
#STEPSTYPE:dance-double;
#DESCRIPTION:;
#CHARTSTYLE:;
#DIFFICULTY:Challenge;
#METER:7;
#RADARVALUES:0.428691,0.467047,0.263231,0.300836,0.112813,399.000000,364.000000,35.000000,40.000000,0.000000,0.000000,0.000000,0.000000,0.000000,0.428691,0.467047,0.263231,0.300836,0.112813,399.000000,364.000000,35.000000,40.000000,0.000000,0.000000,0.000000,0.000000,0.000000;
#CREDIT:Ben Speirs;
#NOTES:
00000000
00000000
00000000
00000000
,
00000000
00000000
00000000
00000000
,
00000000
00000000
00000000
00000000
,
00000000
00000000
00000000
00000000
,
00000000
00000000
00000000
00000000
,
11000000
00000000
01000000
00100000
01000000
00100000
00020000
00000000
,
00032000
00000000
00003100
00000000
00001000
00000010
00001000
00000010
,
00000110
00001010
00001002
00000103
,
00000001
00001000
00000001
00001000
00000010
00000100
00000001
00000000
,
00000011
00000000
00000010
00000100
00000010
00000100
00002000
00000000
,
00023000
00000000
00130000
00000000
00010000
01000000
00010000
01000000
,
01100000
01010000
20010000
30100000
,
10000000
00010000
10000000
00010000
01000000
00100000
10000000
00000000
,
00100000
10000000
02000000
00000000
03100000
00001000
00100000
00001000
,
00010000
00010000
00000100
00000100
00001000
00000010
00001000
00000010
,
00000100
00000000
00000001
00001000
00000001
00001000
00000020
00000000
,
00000130
00000001
00001000
00000001
00000100
00001000
00020000
00000000
,
00230000
00000000
10300000
00100000
01000000
00010000
10010000
00000000
,
12000000
00000000
03100000
00000000
10000000
01000000
00010000
00001000
,
00020000
00032000
00003020
00000031
,
00001000
00000000
00000000
00000000
00000010
00000000
00000000
00000000
00000100
00000000
00000000
00000000
00000001
00001000
00000000
00000000
,
00010100
00011000
00101000
00110000
,
00100000
00010000
01000000
00000000
00100000
10000000
01000000
00000000
,
20010000
00000000
31000000
00100000
00020000
00000000
10030000
00000000
,
00010000
01000000
10000000
01000000
00100000
10000000
01000000
00000000
,
11000000
01100000
00110000
00011000
,
00000100
00001000
00000010
00000000
00000100
00000001
00001000
00000001
,
00000200
00000000
00000310
00001000
00000200
00000000
00000310
00000000
,
00000001
00000010
00000100
00000010
00000001
00001000
00000010
00000000
,
00000100
00000000
00000000
00000000
00000001
00000100
00000000
00000000
00000100
00001000
00000000
00000000
00001000
00010000
00000000
00000000
,
00100000
00000000
00000000
00000000
10000000
01000000
00000000
00000000
01000000
00010000
00000000
00000000
00010000
00001000
00000000
00000000
,
00000010
00000000
00000000
00000000
00000001
00000100
00000000
00000000
00000100
00001000
00000000
00000000
00001000
00010000
00000000
00000000
,
00010000
00100000
10000000
01000000
00100000
00010000
10000000
00000000
,
10010000
11000000
01010000
00101000
,
00100000
00010000
02000000
00000000
03100000
10000000
01000000
00100000
,
00002000
00000000
00000000
00010000
00020000
00000000
00033000
00000000
,
00010100
00000000
00000000
00000000
,
00000200
00000000
00000000
00000310
00000020
00000000
00000000
00000031
,
00000001
00001000
00000001
00000000
00001000
00000000
00000010
00000000
,
00000100
00001000
00000100
00000010
00001000
00000100
00010000
00001000
,
00100000
00000000
00000000
00000000
,
00020000
00000000
00000000
00130000
00200000
00000000
00000000
01300000
,
02000000
00000000
00000000
13000000
20000000
00000000
30100000
00000000
,
10000000
00100000
01000000
00010000
00100000
00001000
00010000
00000000
,
00022000
00000000
00000000
00033000
,
00010100
00000000
00000000
00000100
00001000
00000000
00000010
00000000
00000100
00000000
00000000
00000000
00000110
00000000
00000000
00000000
,
00001010
00000000
00000000
00001000
00000010
00000000
00010000
00000000
00000100
00000000
00000000
00000000
00010100
00000000
00000000
00000000
,
00102000
00000000
00103000
00010000
02000000
00000000
03100000
00000000
,
10000000
00100000
00010000
00100000
10000000
01000000
00100000
00000000
,
00110000
00000000
00000000
00100000
00001000
00000000
00010000
00000000
00000100
00000000
00000000
00000000
00000010
00000000
00000000
00000000
,
00000110
00000000
00000000
00000010
00000001
00000000
00000100
00000000
00000010
00000000
00000000
00000000
00000110
00000000
00000000
00000000
,
00001002
00000000
00000103
00000001
00002000
00000000
00003100
00000000
,
00001000
00000001
00001000
00000100
00010000
00001000
00100000
00000000
,
00010000
00000000
00000000
00000000
10000000
01000000
00000000
00000000
01000000
00010000
00000000
00000000
00010000
00001000
00000000
00000000
,
00000010
00000000
00000000
00000000
00000001
00000100
00000000
00000000
00000100
00001000
00000000
00000000
00001000
00010000
00000000
00000000
,
00100000
00000000
00000000
00000000
10000000
01000000
00000000
00000000
01000000
00010000
00000000
00000000
00010000
00001000
00000000
00000000
,
00000010
00000001
00000010
00000100
00001000
00000010
00000100
00000000
,
00002001
00000000
00000000
00000010
00003010
00001000
00000100
00000000
,
00001000
00000001
00000200
00000000
00000310
00001000
00000100
00010000
,
00200000
00000000
00000000
00000000
00000000
00000000
10000000
00300000
20000000
00000000
00000000
00000000
31000000
00000000
00000000
00000000
,
10000000
01000000
00100000
00010000
10000000
00010000
01000000
00000000
,
00100000
00000000
00000000
10000000
00000000
00000000
00010000
00000000
00000000
00000000
00000000
00000000
01000000
00000000
00001000
00010000
,
00001000
00000000
00010000
00000000
00000100
00000000
00000000
00000000
00001000
00000000
00000000
00000000
00000010
00000000
00000100
00000010
,
00000100
00000000
00000010
00000000
00001000
00000000
00000000
00000000
00000001
00000000
00000000
00000000
00000010
00000000
00000001
00000100
,
00000001
00001000
00000001
00000000
00000200
00000000
00000000
00000000
,
00000310
00000000
00000000
00001000
00000000
00000000
00000100
00000000
00000100
00000000
00000000
00000000
00001000
00000000
00000100
00010000
,
00000100
00000000
00010000
00000000
00001000
00000000
00100000
00000000
00010000
00000000
00000000
00000000
01000000
00000000
00100000
10000000
,
00100000
01000000
00100000
10000000
00010000
00000000
10000000
01000000
,
00020000
00000000
00002000
00000000
,
00033000
00000000
00000000
00000000
;

//---------------dance-single - ----------------
#NOTEDATA:;
#CHARTNAME:;
#STEPSTYPE:dance-single;
#DESCRIPTION:;
#CHARTSTYLE:;
#DIFFICULTY:Medium;
#METER:4;
#RADARVALUES:0.256785,0.337312,0.090251,0.195543,0.000000,239.000000,227.000000,12.000000,26.000000,0.000000,0.000000,0.000000,0.000000,0.000000,0.256785,0.337312,0.090251,0.195543,0.000000,239.000000,227.000000,12.000000,26.000000,0.000000,0.000000,0.000000,0.000000,0.000000;
#CREDIT:Ben Speirs;
#NOTES:
0000
0000
0000
0000
,
0000
0000
0000
0000
,
0000
0000
0000
0000
,
0000
0000
0000
0000
,
0000
0000
0000
0000
,
1000
0010
0100
0100
,
0001
1000
0100
0010
,
0002
2003
3200
0000
,
0310
0000
0010
0000
0001
1000
0001
0000
,
1000
0010
0100
0001
,
0100
0100
0010
1000
,
0200
0320
0032
0000
,
0103
0000
0001
0000
1000
0100
1000
0000
,
0001
0000
0001
0000
0010
0001
0010
0000
,
0001
0000
0001
0000
0100
0001
0100
0000
,
0010
1000
0100
0100
,
1000
0001
0100
0000
,
0001
1000
0010
0100
,
0010
0010
1000
0100
,
0020
0032
2003
3000
,
2002
0000
0000
3003
,
2100
0000
3100
1100
,
0001
0000
1000
0000
0010
0000
0100
0020
,
0000
0000
0000
1030
0200
0000
0000
0000
,
0310
0000
0001
0000
0010
0001
0010
0000
,
0101
0100
0010
0101
,
1000
0000
1000
0000
0001
0000
0001
0100
,
0020
0000
1030
0100
,
1000
0100
1000
0000
0001
0100
0001
0000
,
0000
1000
0001
0110
,
0000
0001
1000
0110
,
0000
1000
0001
1001
,
0001
1000
0001
1000
0001
1000
0001
0000
,
0200
0000
0000
0300
,
0010
0010
1000
0100
,
0020
0030
0002
0003
,
1000
0000
0000
0000
,
0001
0000
1000
0000
,
0010
0010
0000
0000
,
1000
0100
1000
0000
0001
0100
0001
0000
,
1000
0000
0000
0000
,
0010
0000
1000
0000
,
0100
0000
0010
0000
,
0001
0010
0001
0000
1000
0010
1000
0000
,
0001
0000
0000
0000
,
1100
0100
0010
0001
,
0100
0100
0010
0010
,
1000
0000
0001
0100
0001
0000
0000
0000
,
1000
0000
0001
0000
0010
0100
0010
0000
,
0002
0003
2000
3000
,
0010
0000
0100
0000
0001
0000
1000
0200
,
0000
0000
0000
0310
0002
0000
0000
0000
,
1003
0000
0001
0000
0100
0001
1000
0000
,
0000
1010
0010
0100
,
0000
0110
0100
0001
,
0000
0101
0001
1000
,
0001
1000
0001
1000
0100
1000
0100
0000
,
0000
1000
0000
0001
,
0100
0000
0100
0000
0010
0000
0010
2000
,
0000
0000
0000
3001
0020
0000
0000
0030
,
0100
0000
1000
0000
0001
1000
0001
0000
,
0100
0100
0000
0010
,
1000
1000
0000
0001
,
0010
0010
0000
0001
,
0100
0000
0100
0000
0010
1000
0010
0000
,
0100
0100
0000
0001
,
1000
0100
0000
1000
,
0010
0000
0010
0000
0000
0000
0100
0001
,
2000
0000
0002
0000
,
3003
0000
0000
0000
;

//---------------dance-single - ----------------
#NOTEDATA:;
#CHARTNAME:;
#STEPSTYPE:dance-single;
#DESCRIPTION:;
#CHARTSTYLE:;
#DIFFICULTY:Easy;
#METER:2;
#RADARVALUES:0.148269,0.181629,0.052646,0.142897,0.000000,138.000000,131.000000,7.000000,19.000000,0.000000,0.000000,0.000000,0.000000,0.000000,0.148269,0.181629,0.052646,0.142897,0.000000,138.000000,131.000000,7.000000,19.000000,0.000000,0.000000,0.000000,0.000000,0.000000;
#CREDIT:Ben Speirs;
#NOTES:
// measure 0
0000
0000
0000
0000
,  // measure 1
0000
0000
0000
0000
,  // measure 2
0000
0000
0000
0000
,  // measure 3
0000
0000
0000
0000
,  // measure 4
0000
0000
0000
0000
,  // measure 5
0001
0000
1000
0000
,  // measure 6
0010
0000
0100
0000
,  // measure 7
0001
0010
0100
0000
,  // measure 8
1000
0000
0000
0000
,  // measure 9
0001
0000
1000
0000
,  // measure 10
0010
0000
1000
0000
,  // measure 11
1000
0100
0010
0000
,  // measure 12
0001
0000
0000
0000
,  // measure 13
1000
1000
0000
0000
,  // measure 14
0001
0100
0000
0000
,  // measure 15
1000
1000
0000
0000
,  // measure 16
0001
0100
0000
0000
,  // measure 17
0001
0000
1000
0000
,  // measure 18
0010
0000
0100
0000
,  // measure 19
0001
0010
0100
0000
,  // measure 20
1000
0000
0000
0000
,  // measure 21
2002
0000
0000
3003
,  // measure 22
0001
0001
1000
1000
,  // measure 23
0010
0000
0010
0000
,  // measure 24
0100
0000
0000
0000
,  // measure 25
2002
0000
0000
3003
,  // measure 26
1000
1000
0100
0100
,  // measure 27
0010
0000
0010
0000
,  // measure 28
0001
0000
0000
0000
,  // measure 29
0000
1000
0100
1000
,  // measure 30
0000
0001
0100
0001
,  // measure 31
0000
1000
0010
1000
,  // measure 32
0001
0000
1000
0000
,  // measure 33
2002
0000
0000
3003
,  // measure 34
0001
0001
1000
1000
,  // measure 35
0100
0000
0100
0000
,  // measure 36
0010
0000
0000
0000
,  // measure 37
0002
0003
0000
0000
,  // measure 38
2000
3000
0000
0000
,  // measure 39
0010
0010
0010
0000
,  // measure 40
0010
0000
0000
0000
,  // measure 41
0200
0300
0000
0000
,  // measure 42
0002
0003
0000
0000
,  // measure 43
1000
0000
1000
0000
,  // measure 44
2002
0000
3003
0000
,  // measure 45
2002
0000
0000
3003
,  // measure 46
1000
1000
0001
0001
,  // measure 47
0010
0000
0000
0000
,  // measure 48
0001
0000
1000
0000
,  // measure 49
2002
0000
0000
3003
,  // measure 50
0001
0001
0100
0100
,  // measure 51
0001
0000
0000
0000
,  // measure 52
1000
0000
1000
0000
,  // measure 53
0000
0010
1000
0010
,  // measure 54
0000
1000
0100
1000
,  // measure 55
0000
0001
0010
0001
,  // measure 56
0100
0000
0100
0000
,  // measure 57
2002
0000
0000
3003
,  // measure 58
0010
0100
0010
0100
,  // measure 59
0001
0000
1000
0000
,  // measure 60
0100
0100
0100
0000
,  // measure 61
1000
1000
0000
0000
,  // measure 62
0001
0001
0000
0000
,  // measure 63
0100
0100
0000
0000
,  // measure 64
0010
0000
0010
0000
,  // measure 65
1000
1000
0000
0000
,  // measure 66
0001
0001
0000
0000
,  // measure 67
1000
0000
0100
0000
,  // measure 68
0010
0000
0020
0000
,  // measure 69
0030
0000
0000
0000
;

//---------------dance-single - ----------------
#NOTEDATA:;
#CHARTNAME:;
#STEPSTYPE:dance-single;
#DESCRIPTION:;
#CHARTSTYLE:;
#DIFFICULTY:Beginner;
#METER:1;
#RADARVALUES:0.103144,0.180313,0.030084,0.000000,0.000000,96.000000,92.000000,4.000000,0.000000,0.000000,0.000000,0.000000,0.000000,0.000000,0.103144,0.180313,0.030084,0.000000,0.000000,96.000000,92.000000,4.000000,0.000000,0.000000,0.000000,0.000000,0.000000,0.000000;
#CREDIT:Ben Speirs;
#NOTES:
// measure 0
0000
0000
0000
0000
,  // measure 1
0000
0000
0000
0000
,  // measure 2
0000
0000
0000
0000
,  // measure 3
0000
0000
0000
0000
,  // measure 4
0000
0000
0000
0000
,  // measure 5
1000
0000
0000
0000
,  // measure 6
0001
0000
0000
0000
,  // measure 7
0100
0000
0100
0000
,  // measure 8
0100
0000
0000
0000
,  // measure 9
0010
0000
0000
0000
,  // measure 10
1000
0000
0000
0000
,  // measure 11
0100
0000
0100
0000
,  // measure 12
0100
0000
0000
0000
,  // measure 13
1000
0000
0000
0000
,  // measure 14
0001
0000
0000
0000
,  // measure 15
0100
0000
0000
0000
,  // measure 16
0010
0000
0000
0000
,  // measure 17
1000
0000
0000
0000
,  // measure 18
0001
0000
0000
0000
,  // measure 19
0100
0000
0100
0000
,  // measure 20
0100
0000
0000
0000
,  // measure 21
1001
0000
0000
0000
,  // measure 22
0001
0000
0001
0000
,  // measure 23
0001
0000
0000
0000
,  // measure 24
0100
0100
0000
0000
,  // measure 25
0100
0000
0000
0000
,  // measure 26
0010
0000
0010
0000
,  // measure 27
0010
0000
0000
0000
,  // measure 28
1000
1000
0000
0000
,  // measure 29
0000
0100
0100
0100
,  // measure 30
0000
0100
0100
0100
,  // measure 31
0000
0100
0100
0100
,  // measure 32
0000
0000
0000
0000
,  // measure 33
1001
0000
0000
0000
,  // measure 34
1000
0000
1000
0000
,  // measure 35
1000
0000
0000
0000
,  // measure 36
0010
0000
0000
0000
,  // measure 37
0010
0000
0000
0000
,  // measure 38
0100
0000
0000
0000
,  // measure 39
0001
0000
0001
0000
,  // measure 40
0001
0000
0000
0000
,  // measure 41
1000
0000
0000
0000
,  // measure 42
0010
0000
0000
0000
,  // measure 43
1000
0000
1000
0000
,  // measure 44
1000
0000
0000
0000
,  // measure 45
1001
0000
0000
0000
,  // measure 46
0010
0000
0010
0000
,  // measure 47
0010
0000
0000
0000
,  // measure 48
1000
0000
0000
0000
,  // measure 49
0001
0000
0000
0000
,  // measure 50
0100
0000
0100
0000
,  // measure 51
0100
0000
0000
0000
,  // measure 52
0001
0000
0000
0000
,  // measure 53
0000
1000
1000
1000
,  // measure 54
0000
0001
0001
0001
,  // measure 55
0000
1000
1000
1000
,  // measure 56
0000
0000
0000
0000
,  // measure 57
1001
0000
0000
0000
,  // measure 58
1000
0000
1000
0000
,  // measure 59
1000
0000
0000
0000
,  // measure 60
0010
0000
0000
0000
,  // measure 61
0100
0000
0000
0000
,  // measure 62
0001
0001
0000
0000
,  // measure 63
1000
1000
0000
0000
,  // measure 64
0010
0000
0000
0000
,  // measure 65
1000
0000
0000
0000
,  // measure 66
0001
0001
0000
0000
,  // measure 67
0100
0100
0000
0000
,  // measure 68
0010
0000
0010
0000
;
