#TITLE:No More Secrets;
#SUBTITLE:;
#ARTIST:Han Solo & Marshmello;
#TITLETRANSLIT:;
#SUBTITLETRANSLIT:;
#ARTISTTRANSLIT:;
#GENRE:;
#CREDIT:;
#BANNER:No More Secrets.png;
#BACKGROUND:No More Secrets-bg.png;
#LYRICSPATH:;
#CDTITLE:;
#MUSIC:No More Secrets.ogg;
#OFFSET:-0.020000;
#SAMPLESTART:112.452797;
#SAMPLELENGTH:14.694003;
#SELECTABLE:YES;
#BPMS:0.000000=153.649994
;
#STOPS:
;
#BGCHANGES:;
#KEYSOUNDS:;
#ATTACKS:;

//---------------dance-single - ----------------
#NOTES:
     dance-single:
     :
     Hard:
     8:
     0.510083,0.602174,0.158692,0.389518,0.104593,495.000000,473.000000,22.000000,54.000000,0.000000,0.000000,0.510083,0.602174,0.158692,0.389518,0.104593,495.000000,473.000000,22.000000,54.000000,0.000000,0.000000:
// measure 0
0000
0000
0000
0000
,  // measure 1
0000
0000
0000
0000
,  // measure 2
0000
0000
0000
0000
,  // measure 3
0000
0000
0000
0000
,  // measure 4
0001
0000
0010
0000
0100
0000
1000
0010
,  // measure 5
0200
0002
0000
0303
,  // measure 6
0100
0000
0001
0000
1000
0000
0001
0010
,  // measure 7
0200
2000
0000
3300
,  // measure 8
0002
0003
2000
3000
,  // measure 9
0010
0000
0010
0000
1000
0100
1000
0100
,  // measure 10
0010
0000
0010
0000
0001
0100
0001
0100
,  // measure 11
0000
0001
1000
0000
0001
0010
0000
0100
,  // measure 12
2000
3000
0002
0003
,  // measure 13
0100
0000
0100
0000
0001
0010
0001
0010
,  // measure 14
0100
0000
0100
0000
1000
0010
1000
0010
,  // measure 15
0000
1000
0001
0000
1000
0100
0010
0001
,  // measure 16
2000
3200
0302
0203
,  // measure 17
2300
0000
3020
0000
0230
0000
0310
1000
,  // measure 18
0200
0320
0032
0203
,  // measure 19
0320
0000
2030
0000
3001
1000
0010
0100
,  // measure 20
0001
0000
0000
0001
0100
0000
0001
0000
1000
0000
0000
1000
0100
0000
1000
0000
,  // measure 21
0001
0000
0000
0001
0010
0000
0001
0000
1000
0000
0000
1000
0010
0000
1000
0000
,  // measure 22
0001
0000
0010
0000
0100
0000
1000
0000
0010
0000
0100
0000
0001
1000
0001
1000
,  // measure 23
0000
0000
0000
0000
,  // measure 24
1002
0000
0103
0000
0001
0000
0100
0010
,  // measure 25
0100
0010
1000
0000
0001
0000
1000
0100
,  // measure 26
1000
0000
0000
0000
0001
0000
0000
0000
0100
0000
0000
0100
0001
0000
0000
0000
,  // measure 27
1000
0000
0000
0000
0100
0000
0000
0000
1000
0000
0100
0000
0010
0000
0001
1000
,  // measure 28
0002
0000
0013
0000
2000
0000
3010
0100
,  // measure 29
0010
0100
0001
1000
0100
0010
0001
1000
,  // measure 30
0010
0000
0000
0000
0100
0000
0100
0000
0001
0000
0000
0001
1000
0000
0000
0000
,  // measure 31
1000
0100
0010
0000
0001
1000
0010
0100
,  // measure 32
0002
0000
0000
0000
0103
0010
0100
0001
,  // measure 33
1000
0010
0100
0001
1000
1000
0100
0010
,  // measure 34
0001
1000
0010
1000
0100
0010
0001
0100
,  // measure 35
0010
0000
0100
0000
0001
0000
0000
0000
1000
0000
0001
0000
1000
0000
0010
0100
,  // measure 36
0010
0000
1000
0100
1000
0010
0100
0001
,  // measure 37
1000
0100
0010
0001
0100
0010
0100
0100
,  // measure 38
0001
0000
0100
0001
0100
0010
1000
0100
,  // measure 39
0010
0001
0010
0000
0001
1000
0010
0100
,  // measure 40
0101
0000
0101
0000
1010
0000
0001
0100
,  // measure 41
0001
0100
0010
0000
0100
0001
1000
0001
,  // measure 42
2000
3100
0002
0013
,  // measure 43
2000
0000
3010
0000
1000
0100
0010
0001
,  // measure 44
1100
0000
1100
0000
0011
0000
1000
0100
,  // measure 45
1000
0100
0010
0000
0100
1000
0010
0100
,  // measure 46
0002
0000
0000
0000
0103
0000
0000
0000
0001
0000
1000
0100
1000
0000
0000
0000
,  // measure 47
0000
0010
0100
1001
,  // measure 48
0001
0000
0000
0100
0000
0000
0010
0000
0010
0000
0000
1000
0000
0000
0100
0000
,  // measure 49
0020
0002
0000
0033
,  // measure 50
0001
0000
0000
0010
0000
0000
0100
0000
0100
0000
0000
1000
0000
0000
0010
0000
,  // measure 51
0200
0002
0000
0303
,  // measure 52
0001
0000
0000
0100
0000
0000
0010
0000
0010
0000
0000
1000
0000
0000
0100
0000
,  // measure 53
0200
2000
3300
0000
,  // measure 54
1000
0000
0000
0010
0000
0000
1000
0000
1000
0000
0000
0100
0000
0000
0010
0000
,  // measure 55
0020
0002
0000
0033
,  // measure 56
0001
0010
0100
0000
0010
0100
1000
0000
,  // measure 57
0100
1000
0001
0000
1000
0000
0001
0000
,  // measure 58
1000
0010
0100
0000
0010
0100
0001
0000
,  // measure 59
0100
0001
1000
0000
0001
0010
0100
1000
,  // measure 60
0010
0010
1010
0011
,  // measure 61
0100
0100
0101
1100
,  // measure 62
0001
1000
0001
0000
1000
0100
0010
0001
,  // measure 63
1000
0000
1001
0000
0001
0010
0100
1000
,  // measure 64
0020
0230
0302
2003
,  // measure 65
3200
0320
0032
0203
,  // measure 66
0320
2030
3002
0023
,  // measure 67
0230
0000
2300
0000
3001
1000
0010
0100
,  // measure 68
0001
0000
0000
0100
0010
0000
1000
0000
0001
0000
0000
1000
0100
0000
0010
0000
,  // measure 69
0001
0000
0000
0100
0010
0000
0100
0000
0001
0000
0000
0010
0100
0000
0010
0000
,  // measure 70
0001
0000
1000
0000
0010
0000
0100
0000
0001
0000
1000
0000
0001
0100
0001
0100
,  // measure 71
0000
0000
0000
0000
,  // measure 72
2001
0000
3010
0000
1000
0001
0010
0000
,  // measure 73
0001
0010
1000
0010
0002
0000
0103
0000
,  // measure 74
0101
0000
0000
0000
1100
0000
0000
0000
0001
0000
0000
0001
0010
0000
0000
0000
,  // measure 75
0001
0000
1000
0000
0100
0000
0000
0000
1000
0000
0100
0000
0010
0000
0001
0100
,  // measure 76
0002
0103
0101
1100
,  // measure 77
0001
1000
0010
0000
1000
0100
1000
0100
,  // measure 78
0010
0000
0001
1000
0010
0100
0010
0100
,  // measure 79
0000
0001
0100
0000
0001
0010
0100
1000
,  // measure 80
0000
0000
0000
0000
0110
0000
1001
0100
,  // measure 81
1000
0001
1000
0001
0100
0000
1001
0000
,  // measure 82
0101
0100
0010
0100
0001
1000
0100
0010
,  // measure 83
0001
0000
1000
0000
0010
0000
0100
0000
0001
0000
1000
0000
0001
0000
0100
0010
,  // measure 84
0100
0000
0001
0100
0010
1000
0100
1000
,  // measure 85
0010
0100
0001
1000
0100
0010
0001
0010
,  // measure 86
0100
1000
0010
0100
0001
1000
0100
0010
,  // measure 87
0000
0000
0001
0000
1000
0000
0000
0000
0010
0000
0100
0000
0001
1000
0001
0000
;

//---------------dance-double - ----------------
#NOTES:
     dance-double:
     :
     Challenge:
     9:
     0.538936,0.697255,0.173119,0.360664,0.090166,523.000000,499.000000,24.000000,50.000000,0.000000,0.000000,0.538936,0.697255,0.173119,0.360664,0.090166,523.000000,499.000000,24.000000,50.000000,0.000000,0.000000:
00000000
00000000
00000000
00000000
,
00000000
00000000
00000000
00000000
,
00000000
00000000
00000000
00000000
,
00000000
00000000
00000000
00000000
,
00001000
00000000
00000010
00000000
00000100
00000000
00000001
00000010
,
00000200
00002000
00000000
00003300
,
00000100
00000000
00010000
00000000
00001000
00000000
00100000
00010000
,
02000000
00020000
00000000
03030000
,
20000000
30000000
00020000
00030000
,
01000000
00000000
01000000
00000000
00100000
10000000
00100000
10000000
,
01000000
00000000
01000000
00000000
00100000
00010000
00100000
00010000
,
00000000
10000000
01000000
00000000
00100000
00010000
00000000
01000000
,
00002000
00003000
00020000
00030000
,
00000100
00000000
00000100
00000000
00001000
00000010
00001000
00000010
,
00000100
00000000
00000100
00000000
00000001
00000010
00000001
00000010
,
00000000
00000001
00000100
00000000
00000001
00000010
00000100
00001000
,
00000020
00000000
00000000
00000000
00000200
00000030
00000000
00000000
00002300
00000000
00000000
00000000
00023000
00000000
00000000
00000000
,
00230000
20300000
32000000
03200000
,
00320000
02030000
03002000
00023000
,
00030200
00000000
00002300
00000000
00003010
00000100
00000001
00001000
,
00000010
00000000
00000000
00000010
00000100
00000000
00000001
00000000
00000010
00000000
00000000
00000010
00000100
00000000
00001000
00000000
,
00000010
00000000
00000000
00000010
00000100
00000000
00000001
00000000
00000010
00000000
00000000
00000010
00000100
00000000
00001000
00000000
,
00000010
00000000
00000100
00000000
00001000
00000000
00010000
00000000
00100000
00000000
10000000
00000000
01000000
10000000
01000000
10000000
,
00000000
00000000
00000000
00000000
,
10010000
00000000
10000000
01000000
00100000
00010000
01000000
00100000
,
00010000
00100000
10000000
01000000
00100000
00010000
01000000
00001000
,
00020000
00000000
00031000
00010000
00000100
00001000
00000010
00000100
,
00000001
00000000
00000010
00000000
00000200
00000000
00000000
00000000
00001300
00000000
00000100
00000000
00000010
00000000
00000001
00000100
,
00000002
00000000
00000103
00000010
00000100
00000001
00000010
00000100
,
00001000
00000010
00000100
00001000
00010000
00100000
10000000
01000000
,
00200000
00000000
00310000
00100000
01000000
10000000
00100000
02000000
,
00000000
03010000
10000000
00000000
00100000
01000000
00010000
10000000
,
00020000
00000000
01030000
10010000
,
10000000
01000000
00100000
00000000
00010000
10000000
00100000
01000000
,
00020000
00000000
01030000
00100000
10000000
01000000
00100000
00010000
,
01000000
00000000
00100000
00000000
00010000
00000000
00100000
00000000
10000000
00000000
01000000
00000000
00100000
00000000
00010000
01000000
,
00020000
00000000
01030000
00100000
01000000
00010000
00100000
00001000
,
00010000
00000100
00001000
00000010
00000100
00000001
00001000
00000100
,
00000010
00000001
00000100
00001000
00000100
00000010
00001000
00000100
,
00010000
00000010
00000100
00000000
00000001
00000010
00000100
00001000
,
00002010
00000000
00003001
00001100
,
00000101
00000000
00000010
00000000
00001001
00000000
00001000
00000100
,
00020000
00000000
00031000
00100000
00020000
00000000
01030000
00000000
,
00100000
00000000
01000000
00000000
00010000
00000000
00000000
00000000
01000000
00000000
00100000
00000000
10000000
00000000
01000000
10000000
,
02000000
10000000
00100000
00010000
,
00100000
00000000
13000000
00000000
01000000
10000000
00100000
01000000
,
00020000
00000000
00000000
00000000
01030000
00000000
00010000
00000000
00100000
00000000
00001000
00010000
00001000
00000000
00000000
00000000
,
00000000
00000100
01000000
00100010
,
00011000
00110000
00011000
00001010
,
00011000
00011000
00000000
00000000
,
00011000
01010000
00011000
00001100
,
00011000
00011000
00000000
00000000
,
00011000
00100000
00010000
10000000
,
10100000
10000000
01000000
00100000
,
01010000
01000000
00001000
00010000
,
00001100
00001000
00000001
00000100
,
00000020
00000130
00000020
00000130
,
00000001
00000010
00000100
00000000
00000100
00000010
00001000
00000000
,
00000100
00010000
00001000
00000000
00100000
00001000
00010000
00000000
,
00001000
01000000
00010000
00000000
01000000
00010000
10000000
00000000
,
00200000
01300000
02000000
03100000
,
00100000
00000000
10000000
00000000
01000000
10000000
00010000
00000000
,
00100000
00010000
01000000
00000000
00100000
01000000
00010000
00000000
,
10000000
01000000
00100000
00000000
00010000
01000000
00001000
00010000
,
00000200
00000010
00002300
00000010
,
00003002
00000010
00002003
00000010
,
00003200
00000000
00000000
00000000
00020000
00000300
00000000
00000000
00032000
00000000
00000000
00000000
00200000
00003000
00000000
00000000
,
00320000
00000000
00000000
00000000
02000000
00030000
00000000
03000000
00100000
00000000
10000000
00000000
01000000
00000000
00100000
00000000
,
00010000
00000000
00000000
00010000
00100000
00000000
01000000
00000000
10000000
00000000
00000000
10000000
00100000
00000000
01000000
00000000
,
00010000
00000000
00000000
01000000
00100000
00000000
01000000
00000000
00010000
00000000
00000000
00100000
01000000
00000000
00100000
00000000
,
00010000
00000000
10000000
00000000
01000000
00000000
00100000
00000000
00010000
00000000
00100000
00000000
00001000
00010000
00001000
00010000
,
00000000
00000000
00000000
00000000
,
00010100
00000100
00001000
00000010
00000100
00000001
00000010
00000100
,
00000010
00000001
00000100
00000010
00001000
00000100
00000010
00000001
,
00000100
00001000
00010000
00100000
10000000
01000000
00100000
00010000
,
01000000
00000000
00100000
00000000
10000000
00000000
01000000
00000000
00100000
00000000
00010000
00000000
01000000
00000000
00001000
00010000
,
00001000
00010000
00000100
00001000
00000010
00000100
00000001
00000010
,
00001000
00010000
00001000
00000100
00001000
00010000
00100000
10000000
,
01000000
00100000
00010000
01000000
00100000
10000000
01000000
00100000
,
00010000
01000000
00100000
00000000
10000000
00010000
10000000
00010000
,
02000000
00000000
00000000
00000000
03100000
00000000
01000000
00100000
,
10000000
00000000
01000000
00000000
00100000
00000000
00010000
00000000
01000000
00000000
00001000
00000000
00010000
00000000
00000010
00001000
,
00000010
00001000
00000100
00000010
00000001
00000100
00000010
00001000
,
00000001
00000000
00000010
00000000
00000100
00000000
00000010
00000000
00000001
00000000
00000100
00000000
00000010
00000000
00001000
00000100
,
00001000
00000001
00000100
00000010
00001000
00000100
00010000
00001000
,
00100000
00010000
00100000
00010000
00100000
00000000
00010000
00000000
01000000
00000000
00100000
00000000
10000000
00000000
01000000
10000000
,
01000000
00000000
00100000
00000000
00010000
00000000
01000000
00000000
00100000
10000000
00100000
10000000
00100000
00000000
01000000
00000000
,
00010000
00000000
10000000
00000000
01000000
00000000
00000000
00000000
00100000
00000000
00100000
00000000
00010000
10000000
00010000
00000000
;

//---------------dance-single - ----------------
#NOTES:
     dance-single:
     :
     Beginner:
     2:
     0.107169,0.157791,0.014427,0.000000,0.000000,104.000000,102.000000,2.000000,0.000000,0.000000,0.000000,0.107169,0.157791,0.014427,0.000000,0.000000,104.000000,102.000000,2.000000,0.000000,0.000000,0.000000:
0000
0000
0000
0000
,
0000
0000
0000
0000
,
0000
0000
0000
0000
,
0000
0000
0000
0000
,
0001
0000
0001
0000
,
0001
0000
0000
0000
,
0100
0000
0100
0000
,
0100
0000
0000
0000
,
0001
0000
0001
0000
,
0000
0000
0000
0000
,
1000
0000
0000
0000
,
1000
0000
0000
0000
,
1000
0000
1000
0000
,
0000
0000
0000
0000
,
0010
0000
0000
0000
,
0010
0000
0000
0000
,
1000
0000
0000
0000
,
0100
0000
0000
0000
,
0010
0000
0000
0000
,
0001
0000
0000
0000
,
0100
0100
0000
0000
,
0001
0001
0000
0000
,
1000
0000
1000
0000
,
1000
0000
0000
0000
,
1001
0000
0000
0000
,
1000
0000
1000
0000
,
1000
0000
0000
0000
,
0010
0000
0000
0000
,
0100
0000
0100
0000
,
0100
0000
0000
0000
,
0001
0000
0000
0000
,
1000
0000
0000
0000
,
0010
0000
0010
0000
,
0010
0000
0000
0000
,
0010
0000
0000
0000
,
1000
0000
0000
0000
,
0001
0000
0001
0000
,
0001
0000
0000
0000
,
0100
0000
0000
0000
,
0100
0000
0000
0000
,
0001
0000
0000
0000
,
0001
0000
0000
0000
,
1000
0000
0000
0000
,
1000
0000
0000
0000
,
0010
0000
0000
0000
,
0010
0000
0000
0000
,
0100
0000
0000
0000
,
0100
0000
0000
0000
,
0001
0000
0001
0000
,
0001
0000
0000
0000
,
0001
0000
0000
0000
,
0000
0000
0000
0000
,
1000
0000
1000
0000
,
1000
0000
0000
0000
,
1000
0000
0000
0000
,
0000
0000
0000
0000
,
0010
0000
0010
0000
,
0000
0000
0000
0000
,
0010
0000
0000
0000
,
0000
0000
0000
0000
,
0100
0000
0100
0000
,
0000
0000
0000
0000
,
0100
0000
0000
0000
,
0000
0000
0000
0000
,
0001
0000
0001
0000
,
0001
0000
0000
0000
,
0100
0000
0100
0000
,
0100
0000
0000
0000
,
0010
0000
0010
0000
,
0010
0000
0000
0000
,
1000
0000
1000
0000
,
0000
0000
0000
0000
,
1001
0000
0000
0000
,
0001
0000
0001
0000
,
0001
0000
0000
0000
,
0100
0000
0000
0000
,
0100
0000
0000
0000
,
0100
0000
0100
0000
,
0100
0000
0000
0000
,
0100
0000
0000
0000
,
0010
0000
0010
0000
,
0010
0000
0000
0000
,
1000
1000
0000
0000
,
1000
1000
0000
0000
,
0001
0000
0001
0000
,
0001
0000
0000
0000
,
0100
0100
0000
0000
,
0100
0000
0100
0000
;

//---------------dance-single - ----------------
#NOTES:
     dance-single:
     :
     Easy:
     3:
     0.158692,0.221538,0.007213,0.057706,0.000000,154.000000,153.000000,1.000000,8.000000,0.000000,0.000000,0.158692,0.221538,0.007213,0.057706,0.000000,154.000000,153.000000,1.000000,8.000000,0.000000,0.000000:
0000
0000
0000
0000
,
0000
0000
0000
0000
,
0000
0000
0000
0000
,
0000
0000
0000
0000
,
1000
0000
0010
0000
,
0100
0000
0000
0000
,
0001
0000
1000
0000
,
0100
0000
0000
0000
,
2000
3000
0002
0003
,
0000
0000
0100
0100
,
0000
0000
0100
0100
,
0000
0000
0100
0000
,
0002
0003
0002
0003
,
0000
0000
1000
1000
,
0000
0000
1000
1000
,
0000
0000
1000
0000
,
0010
0000
0010
0000
,
0100
0000
0100
0000
,
0001
0000
0001
0000
,
1000
0000
1000
0000
,
0010
0010
0000
0000
,
0100
0100
0000
0000
,
0001
0001
1000
1000
,
0000
0000
0000
0000
,
1001
0000
0001
0000
,
0010
0000
0010
0000
,
0001
0000
1000
0000
,
0010
0000
0010
0000
,
1000
0000
1000
0000
,
0100
0000
0100
0000
,
1000
0000
0001
0000
,
0100
0000
0000
0000
,
0001
0000
1000
0000
,
1000
0000
0010
0000
,
0100
0100
0000
0000
,
0100
0100
0000
0000
,
0001
0000
0001
0000
,
1000
0000
1000
0000
,
0010
0000
0010
0000
,
0100
0000
0000
0000
,
0001
0000
0001
0000
,
0010
0000
0000
0000
,
0001
0000
0001
0000
,
0100
0000
0000
0000
,
0001
0000
0001
0000
,
1000
0000
0000
0000
,
1000
0000
1000
0000
,
0010
0000
0000
0000
,
1000
0000
1000
0000
,
1000
0000
0000
0000
,
0100
0000
0100
0000
,
0100
0000
0000
0000
,
0010
0000
0010
0000
,
0010
0000
0000
0000
,
0001
0000
0001
0000
,
0001
0000
0000
0000
,
0200
0300
0200
0300
,
0000
0000
0001
0001
,
0000
0000
1000
1000
,
0000
0000
1000
0000
,
0020
0030
0020
0030
,
0000
0000
0010
0010
,
0000
0000
1000
1000
,
0000
0000
0000
0000
,
0001
0000
1000
0000
,
0010
0000
0100
0000
,
0001
0000
0010
0000
,
0100
0000
1000
0000
,
0001
0001
1000
0000
,
1000
1000
0001
0000
,
0001
1000
0001
1000
,
0000
0000
0000
0000
,
0001
0000
0100
0000
,
0010
0010
1000
0000
,
1000
0000
0100
0000
,
0010
0000
0000
0000
,
0010
0000
0010
0000
,
0001
0000
0001
0000
,
1000
0000
1000
0000
,
0010
0000
0000
0000
,
1000
0000
0001
0000
,
0100
0100
0000
0000
,
0001
0000
0001
0000
,
1000
0000
1000
0000
,
0010
0000
0010
0000
,
1000
0000
0100
0100
,
0000
0000
0100
0100
,
0000
0000
0100
0100
;

//---------------dance-single - ----------------
#NOTES:
     dance-single:
     :
     Medium:
     6:
     0.331811,0.443708,0.115413,0.086559,0.000000,322.000000,306.000000,16.000000,12.000000,0.000000,0.000000,0.331811,0.443708,0.115413,0.086559,0.000000,322.000000,306.000000,16.000000,12.000000,0.000000,0.000000:
// measure 0
0000
0000
0000
0000
,  // measure 1
0000
0000
0000
0000
,  // measure 2
0000
0000
0000
0000
,  // measure 3
0000
0000
0000
0000
,  // measure 4
1000
0000
0100
0000
0010
0000
0001
0100
,  // measure 5
0001
0000
0000
0000
,  // measure 6
0001
0000
0010
0000
0100
0000
1000
0100
,  // measure 7
1000
0000
0000
0000
,  // measure 8
0002
0003
2000
3000
,  // measure 9
0000
0000
0000
0000
0001
0100
0001
0000
,  // measure 10
0000
0000
0000
0000
1000
0100
1000
0000
,  // measure 11
0000
0000
0001
0000
,  // measure 12
2000
3000
0002
0003
,  // measure 13
0000
0000
0000
0000
1000
0010
1000
0000
,  // measure 14
0000
0000
0000
0000
0001
0010
0001
0000
,  // measure 15
0000
0000
1000
0000
,  // measure 16
0010
0010
0100
0100
,  // measure 17
0001
0010
0100
0000
,  // measure 18
1000
1000
0100
0100
,  // measure 19
1000
0001
0100
0000
,  // measure 20
0001
0100
0010
0010
,  // measure 21
1000
0100
0010
0010
,  // measure 22
0001
1000
0001
1000
0001
1000
0001
1000
,  // measure 23
0000
0000
0000
0000
,  // measure 24
0101
0100
0010
0010
,  // measure 25
1000
0000
0001
0000
1000
0000
0100
1000
,  // measure 26
0100
1000
0001
0100
,  // measure 27
0010
0000
0010
0000
0100
0001
0100
0001
,  // measure 28
1000
1000
0100
1000
,  // measure 29
0001
0000
0010
0000
0001
0000
0100
0001
,  // measure 30
0100
0001
0100
0010
,  // measure 31
1000
0000
0001
0000
,  // measure 32
2002
0000
3003
0101
,  // measure 33
1000
0101
1000
0000
,  // measure 34
0001
1000
0001
0010
,  // measure 35
0010
0000
0001
0000
1000
0100
1000
0100
,  // measure 36
0010
0010
0001
1000
,  // measure 37
0010
1000
0001
0001
,  // measure 38
0100
0100
0010
1000
,  // measure 39
0001
0000
0100
0000
,  // measure 40
0001
1000
0010
0100
,  // measure 41
0001
0010
0010
0000
,  // measure 42
0001
0010
0100
1000
,  // measure 43
0001
0000
0100
0000
0010
1000
0010
1000
,  // measure 44
0100
0000
1000
0001
,  // measure 45
1000
0001
0100
0100
,  // measure 46
0010
0000
1000
0001
,  // measure 47
0000
0000
0110
1001
,  // measure 48
0001
0100
0010
1000
,  // measure 49
0100
1000
0100
0000
0000
0000
0000
0000
,  // measure 50
1000
0100
0010
0001
,  // measure 51
0100
0001
0100
0000
0000
0000
0000
0000
,  // measure 52
0001
1000
0010
0100
,  // measure 53
0010
0100
0010
0000
0000
0000
0000
0000
,  // measure 54
0100
0010
1000
0001
,  // measure 55
1000
0100
1000
0000
0000
0000
0000
0000
,  // measure 56
0002
0003
2000
3000
,  // measure 57
0000
0000
0000
0000
0001
0010
0001
0000
,  // measure 58
0000
0000
0000
0000
1000
0010
1000
0000
,  // measure 59
0000
0000
0001
0000
,  // measure 60
2000
3000
0002
0003
,  // measure 61
0000
0000
0000
0000
1000
0100
1000
0000
,  // measure 62
0000
0000
0000
0000
0001
0100
0001
0000
,  // measure 63
0000
0000
1000
0000
,  // measure 64
1001
0001
1001
1000
,  // measure 65
0001
0010
0100
1000
,  // measure 66
1001
0001
1001
1000
,  // measure 67
0001
0010
0100
1000
,  // measure 68
0001
0100
0001
0100
0001
0000
0001
0000
,  // measure 69
1000
0100
1000
0100
1000
0000
1000
0000
,  // measure 70
0001
1000
0001
1000
0001
1000
0001
1000
,  // measure 71
0000
0000
0000
0000
,  // measure 72
1010
0010
0100
0001
,  // measure 73
1000
0100
0010
0001
1000
0000
0001
0000
,  // measure 74
0100
0100
0010
0100
,  // measure 75
0001
0000
0010
0000
0100
1000
0100
1000
,  // measure 76
0001
1000
0010
0100
,  // measure 77
0010
0000
0010
0000
1000
0000
0001
0010
,  // measure 78
0001
0010
0001
0100
,  // measure 79
0010
1000
0001
0000
,  // measure 80
2002
0000
3003
0101
,  // measure 81
1010
0101
0011
1000
,  // measure 82
0001
1000
0100
0010
,  // measure 83
0010
0000
0001
0000
1000
0001
1000
0001
,  // measure 84
0100
0100
0001
1000
,  // measure 85
0010
0000
0010
0000
1000
0100
1000
0100
,  // measure 86
0000
0000
1000
0000
0001
0100
0001
0100
,  // measure 87
0000
0000
0010
0000
1000
0001
1000
0001
;
