#TITLE:Saria's Song (Techno Remix);
#ARTIST:Nintendo;
#FILE:Saria's Song (Techno Remix).mp3;
#BPM:140.000;
#GAP:5167;
#SAMPLESTART:32.540;
#SAMPLELENGTH:12.000;
#CDTITLE:./CDTITLES/DANCE DANCE REVOLUTION EXTREME.PNG;
#SINGLE:MANIAC:8:
00000000
00000000
42106230
4264A024
826!602038
462!2080A0
42906210
68248264
82702830
48642846
28B082B0
62468264
68682424
(8020802060406406)
4!40008!8070
628460A0
48A062A0
48262084
626!602034
826!602030
68904870
6846A086
284!408072
648!8020A0
68104890
42862846
28308270
62468264
82B028B0
48642846
42428686
(2080208040604604)
6!60002!2030
482640A0
24B086B0
24686042
868!806092
468!806090
84702410
8428B048
642!204016
824!4060B0
84302470
26486428
64904610
86284682
46A064A0
24826428
26264848
(6040604020802802)
8!80006!6090
246820B0
;
#SINGLE:ANOTHER:5:
00000000
00000000
42406260
42424062
626!600062
828!800080
46408280
462!200020
84802620
846!600060
28206460
482!200020
60208040
6020604!40
2!20000010
428680A0
42408280
26262084
848!800082
626!600060
68604840
68686048
484!400048
282!200020
64602820
648!800080
26208480
264!400040
82804640
628!800080
40802060
4080406!60
8!80000090
682420A0
68602820
84848026
262!200028
484!400040
42406260
42424062
626!600062
828!800080
46408280
462!200020
84802620
846!600060
28206460
482!200020
60208040
6020604!40
2!20000010
428680A0
;
#SINGLE:BASIC:3:
00000000
00000000
40402020
80806060
202!200020
808!800080
40206020
40806080
40206020
40806080
40206080
40206080
40006000
20008000
40006000
4060A0A0
40406060
40406060
202!200020
808!800080
60608080
20204040
808!800080
202!200020
60804080
60204020
60804080
60204020
60804020
60804020
60004000
80002000
60004000
6040A0A0
80802020
80802020
404!400040
606!600060
20206060
40408080
606!600060
404!400040
20608060
20408040
20608060
20408040
20608040
20608040
20008000
60004000
20008000
2080B0B0
;
