#TITLE:JUMP TO THE RHYTHM;
#ARTIST:JUMP IN;
#FILE:JUMP TO THE RHYTHM.mp3;
#BPM:108.000;
#GAP:153;
#SAMPLESTART:8.168;
#SAMPLELENGTH:15.000;
#CDTITLE:./CDTITLES/Dance Dance Revolution Disney Channel Edition.png;
#SINGLE:BEGINNER:1:
00000000
00000000
00000000
00000000
40008000
20002000
60008000
20002000
40006000
20000000
80004000
60000000
20004000
80000000
20006000
80000000
B0002000
80000000
60008000
20000000
40006000
20000000
80004000
60000000
00800020
00800020
00400060
00400060
00200080
00200080
00400020
00600080
00200080
00200080
00600040
00600040
00800020
00800020
00400080
;
#SINGLE:BASIC:3:
00000000
00000000
00000000
00000000
40006000
20802000
60004000
20802000
B0006020
40004080
6!60604!4040
80208020
60604040
00208020
4!40406!6060
20802080
40402080
6!60006040
60602080
4!40004020
60802040
8!80008020
60004000
20A00000
60908020
40604060
20302080
4!40406!6060
40B060B0
40208060
20402060
4!4000B0B0
00200020
00208060
20800080
00804060
40B060B0
40802060
40604020
8!80008000
;
#SINGLE:ANOTHER:5:
00000000
00000000
00000000
00000000
20408040
62608620
80402040
84802680
2!2040A060
20208460
2!208060A0
4!40206010
8!80602070
80802640
2!208040A0
6!60204030
B000A002
08020820
10003006
02060260
90007008
04080408
20604084
28600000
40706032
06608!80A0
40108096!6
02040904
60A040A8
02206!6090
24206268!8
00A01090
20304078
04402!20A0
60902014!4
08060106
40A060A2
08804!4010
86804842!2
00002000
;
#SINGLE:MANIAC:7:
00000000
00000000
00000000
00000004
(0060004020802004)
(0040600600604000)
(B000806020804002)
(0080200400602060)
(8000700030004002)
(0020800600602000)
(8000900010006002)
(0020800400402000)
(A000B00020806004)
(0040200600602000)
(4000700030004008)
(0080200600608060)
4!40B!603826
08480686
4!40B!603826
04840686
(2!2000A04080206!6004)
(00B04!400600B08020)
(4000602080206004)
06!64!4000B0
90A010A0
68204826
80304090
20706010
86428246
2070A030
86264248
2080B0A0
40A060A0
46802464
80706090
20106030
28462642
8090A010
24846862!2
00002000
;
#DOUBLE:BASIC:3:
00000000
00000000
00000000
00000000
40002000
80608000
00006000
00000000
00000000
00000000
6!60600000
80608020
40802020
00608000
6!60600000
00000000
00000000
00000060
20208060
4!40004080
20006000
00000000
00000000
00000000
00000000
00600080
60B04080
2!20206!6060
80A020A0
80006000
00000000
00000000
00000000
00600080
00600020
00406040
80A020A0
80600000
00000000
00000000
:
00000000
00000000
00000000
00000000
00000000
00000000
40000000
80408000
B0006020
80004020
00004!4040
00000000
00000000
00000040
00004!4040
20802080
40406020
4!40004000
00000000
00000000
00400020
4!40004060
80006000
40B00000
20A02040
80004000
00000000
00000000
00000000
00400080
20402060
4!4000B0B0
00200040
00004000
40000000
00000000
00000000
00004020
60406040
2!20002000
;
#DOUBLE:ANOTHER:5:
00000000
00000000
00000000
00000000
00000000
60800600
60002060
28406280
4!40601080
60200600
00000000
00000000
6!60009040
20806800
00000000
00000000
00000006
00060240
70009000
06000000
00006008
04020602
40806006
00000000
00000006
06002!2030
80907060
02080600
00000000
00006!6090
4280628!80
90008060
00000006
06008!8090
20301060
08020600
00000000
00006!6030
48206824!4
00004000
:
00000000
00000000
00000000
00000000
80604020
04004020
00400000
00000000
00000000
00004040
2!20608010
8!80602070
00400000
00000040
2!20408030
8!80402090
30001000
04000000
00000004
00040860
B0004000
00000000
00000040
24600000
20301020
00400000
00000004!4
00000404
20A0B062
02400000
00000000
00404020
40907080
00400000
00000004!4
00000404
80A0B068
08400000
00000000
00000000
;
#DOUBLE:MANIAC:6:
00000000
00000000
00000000
00000000
(6000006000600000)
00000060
(6000600080002008)
04086060
(6!6000600000000000)
00000000
60608090
20106032
(0000600000000000)
00000000
00060002
06080242
90806060
00000000
00600608!8
00902428
70308600
00000000
00602084
60824286
B0302066
00000000
00006060
80628!8070
26806000
00000000
00006028!8
006070B0
20300066
00000000
00006060
20682!2010
86206000
00000000
00006082!2
00002000
:
00000000
00000000
00000000
00000000
(4000400020008002)
06024000
(4000004000400000)
00000400
(4000002040802004)
02082624
00400000
00000000
(4000000040208004)
08028684
02000400
00000000
00400402!2
00108262
70804040
00000000
00000042!2
00604034
20040000
00000000
00004040
20462!20A0
B0708044
00000000
00040248!8
00A8A0B0
08420400
00000000
00004040
80468!80A0
40100044
00000000
00040842!2
00A2A0B0
02480400
00000000
;
