#VERSION:0.82;
#TITLE:Somebody Told Me;
#SUBTITLE:;
#ARTIST:The Killers;
#TITLETRANSLIT:;
#SUBTITLETRANSLIT:;
#ARTISTTRANSLIT:;
#GENRE:NOT Confidential;
#ORIGIN:;
#CREDIT:;
#BANNER:Somebody Told Me.png;
#BACKGROUND:Somebody Told Me-bg.png;
#PREVIEWVID:;
#JACKET:jacket.png;
#CDIMAGE:;
#DISCIMAGE:;
#LYRICSPATH:;
#CDTITLE:;
#MUSIC:Somebody Told Me.ogg;
#OFFSET:-0.022000;
#SAMPLESTART:110.391998;
#SAMPLELENGTH:13.714000;
#SELECTABLE:YES;
#DISPLAYBPM:138;
#BPMS:0.000=137.980,
180.000=69.400,
182.000=138.360,
190.000=138.000,
235.500=137.500,
238.000=138.000,
249.000=136.500,
251.000=137.980,
307.000=139.700,
310.000=138.000,
315.000=138.900,
316.000=137.600,
317.000=135.680;
#STOPS:;
#DELAYS:;
#WARPS:;
#TIMESIGNATURES:0.000=4=4;
#TICKCOUNTS:0.000=4;
#COMBOS:0.000=1;
#SPEEDS:0.000=1.000=0.000=0;
#SCROLLS:0.000=1.000;
#FAKES:;
#LABELS:0.000=Song Start;
#BGCHANGES:8.000=Somebody Told Me.avi=1.000=0=0=1=====,
99999=-nosongbg-=1.000=0=0=0 // don't automatically add -songbackground-
;
#KEYSOUNDS:;
#ATTACKS:
;

//---------------dance-single - ----------------
#NOTEDATA:;
#CHARTNAME:;
#STEPSTYPE:dance-single;
#DESCRIPTION:;
#CHARTSTYLE:;
#DIFFICULTY:Challenge;
#METER:9;
#RADARVALUES:0.620456,0.810094,0.315741,0.147346,0.119280,553.000000,45.000000,21.000000,0.000000,0.000000,0.000000,0.000000,0.000000,0.620456,0.810094,0.315741,0.147346,0.119280,553.000000,45.000000,21.000000,0.000000,0.000000,0.000000,0.000000,0.000000;
#CREDIT:Ben Speirs;
#NOTES:
0000
0000
0000
0000
,
0000
0000
0000
0000
,
0000
0000
0000
0000
,
0000
0000
0000
0000
,
0100
0100
0010
0100
0001
0001
1000
0100
,
0000
1000
0010
0010
1000
0100
0010
0010
,
0001
0000
1000
0020
0000
0000
0130
0002
,
0000
0000
1003
0200
0000
0000
0310
0001
,
1000
1000
0010
1000
0001
0001
0100
0010
,
0000
0010
0100
0100
0001
0010
0100
0100
,
1000
0001
0200
0000
0000
0000
0310
2000
,
0000
0000
3001
0010
0100
1000
0001
0000
,
0101
0100
0010
0000
1000
0000
0010
1000
,
0100
0010
0001
1000
0001
0000
0100
0000
,
1001
1000
0100
0000
1000
0000
0001
0010
,
0100
1000
0010
1000
0100
0010
0001
1000
,
0010
0010
0100
0001
1000
1000
0100
1000
,
0001
0001
0010
0001
1000
0010
0010
0000
,
1010
0010
0100
0000
0001
0000
0100
0001
,
0010
0100
1000
0001
1000
0000
0010
0110
,
1001
0001
0010
0000
0001
0000
1000
0100
,
0010
0001
1000
0010
1000
0000
0001
0000
,
1001
1000
0010
0000
1001
0000
0001
1000
,
0010
0100
0001
0010
0100
1000
0010
0100
,
0001
0001
0010
0001
1000
1000
0100
1000
,
0010
0010
0100
0001
0010
0100
0100
0000
,
1001
1000
0100
0000
1000
0000
0010
0110
,
0100
0000
0001
0000
1000
0000
0000
0000
0001
0010
0001
0000
1000
0100
1000
0100
,
0010
0010
0001
0000
1000
0000
0010
0110
,
0100
0001
1000
0000
0001
1000
1000
0010
,
0100
0000
0101
0100
0010
1000
1100
0000
,
0101
0100
0010
1000
1100
0000
1001
1000
,
0010
0100
0001
0010
0100
1000
0020
0000
,
0230
0000
0301
2000
0100
0000
3001
0000
,
1100
0001
0101
0000
1010
0000
0001
0010
,
0100
1000
0010
1000
0100
0010
0001
1000
,
0010
0100
0010
0100
0001
1000
0010
0000
,
1001
1001
0000
0000
,
1000
0010
0100
0001
0010
0100
0010
0001
,
1000
0000
0010
0000
0100
0000
0001
0000
1000
0100
1000
0000
0001
0100
0001
0000
,
1000
0010
0100
0001
0010
0100
0010
0001
,
1000
0010
0100
0001
1000
1100
0101
1000
,
1001
0001
0010
0100
1000
0010
0100
0001
,
1000
0000
0100
0000
0010
0000
0001
0000
1000
0010
1000
0000
0001
0010
0001
0000
,
1000
0010
0100
0001
0010
0100
0010
0001
,
2000
3020
0230
0302
0023
0230
2300
0000
3001
0000
0100
0000
0110
0000
0000
0000
,
1001
0000
1000
0010
0100
0001
0010
0000
,
0001
0100
0001
0000
1000
0100
1000
0100
0010
0000
0010
0000
0001
0000
1000
0000
,
0010
0000
1000
0001
1000
0010
0100
0001
,
0010
0100
1000
0000
0001
0100
1000
0100
,
0001
0010
1000
0010
0001
1000
0001
1000
,
0010
0100
0010
0100
0001
1000
0010
0000
,
0101
0000
1100
1000
0001
0010
0100
1000
,
0001
1001
1001
1001
1000
0010
0100
0000
,
0101
0000
0100
0010
1000
0100
0010
0001
,
1000
0000
0010
0100
0010
0100
0001
0000
0001
0000
0000
0000
1010
0000
0010
0000
,
0100
0001
0011
0000
1010
0010
0100
0001
,
0011
0000
1001
0001
0100
0010
1000
0100
,
0010
0001
0200
0000
0320
0000
1030
0002
,
0010
0000
1003
0000
0011
1000
1010
0000
,
0101
0000
1000
0100
0010
0001
0100
0001
,
0010
0100
1000
0001
0100
0010
0100
0010
,
1000
0000
0001
0100
0001
0100
0001
0000
1001
0000
0000
0000
1001
0000
0000
0000
,
0000
0000
0000
0000
1000
0100
0001
0100
,
1000
0010
0100
0001
1000
0010
0100
0001
,
0010
0100
0010
0000
0001
1000
0001
0000
0100
0000
0010
0000
1000
0000
0100
0000
,
0010
0001
0100
0020
0000
2030
0000
3002
,
0000
0013
0100
0010
0001
1000
0010
0100
,
0001
0010
1000
0010
0001
0100
0010
1000
,
0001
0100
0001
0000
1000
0100
1000
0000
0010
0000
1000
0000
0100
0000
0010
0000
,
0001
1000
0010
0100
0001
0010
0100
0000
,
1001
1000
1001
1000
0001
0010
0100
0000
,
1000
0100
1000
0000
0001
0000
0100
0000
0010
0000
1000
0000
0001
0000
0000
0000
,
0010
0100
0010
0000
0001
0000
1000
0000
0010
0000
0100
0000
0001
0000
0000
0000
,
1000
0100
1000
0000
0010
0000
0100
0000
0001
0000
0100
0000
1000
0000
0100
0000
,
0010
1000
0100
0010
0001
1000
0010
1000
,
0001
0000
0001
0010
0000
0010
0100
0000
1000
0000
0001
0000
0100
0000
0010
0000
,
1000
0000
1000
0100
0000
0100
0010
0000
0001
0000
1000
0000
0010
0000
0100
0000
,
0001
0010
0001
0010
0100
0000
1000
0010
1000
0010
0100
0000
0001
1000
0001
0000
,
0100
0000
0010
1000
0010
0000
0100
0000
0101
0000
1100
0000
0000
0000
0000
0000
;

//---------------dance-single - ----------------
#NOTEDATA:;
#CHARTNAME:;
#STEPSTYPE:dance-single;
#DESCRIPTION:;
#CHARTSTYLE:;
#DIFFICULTY:Hard;
#METER:7;
#RADARVALUES:0.511199,0.530751,0.175412,0.708663,0.000000,384.000000,25.000000,101.000000,0.000000,0.000000,0.000000,0.000000,0.000000,0.511199,0.530751,0.175412,0.708663,0.000000,384.000000,25.000000,101.000000,0.000000,0.000000,0.000000,0.000000,0.000000;
#CREDIT:Ben Speirs;
#NOTES:
0000
0000
0000
0000
,
0000
0000
0000
0000
,
0000
0000
0000
0000
,
0000
0000
0000
0000
,
0100
0001
1000
0100
,
0000
0000
1000
0000
0010
0100
0010
0000
,
1000
0000
0100
0100
0000
0000
0010
0010
,
0000
0000
0001
0001
0000
0000
1000
1000
,
0010
0100
0001
1000
,
0000
0000
0001
0000
0010
0100
0010
0000
,
0001
0000
1000
1000
0000
0000
0001
0001
,
0000
0000
0100
0010
0100
0000
0000
0000
,
0001
0100
0020
0000
2030
0000
3001
1000
,
0001
2000
0000
0200
0000
0000
3300
0000
,
1000
0010
0200
0000
0302
0000
1003
0001
,
1000
0002
0000
0023
0000
0230
0000
1300
,
2000
0000
3001
0000
0100
0010
0100
0000
,
0002
0000
1003
0000
0100
0010
0100
0000
,
1000
0010
0200
0000
0302
0000
1003
0001
,
1000
0002
0000
0020
0000
0000
0033
0000
,
0001
0100
0020
0000
2030
0000
3001
1000
,
0001
2000
0000
0200
0000
0000
3300
0000
,
1000
0100
0020
0000
0032
0000
1003
0010
,
0100
0001
0010
0100
1000
0010
0100
0000
,
0001
1000
0002
0000
0203
0000
0320
0000
,
1030
0001
2000
0000
3200
0000
0320
0000
,
0031
1000
0020
0000
2030
0000
3001
0010
,
0100
1000
0002
0000
0103
0000
0101
0000
,
1000
0100
0020
0000
0032
0000
1003
0010
,
0100
0001
2000
0000
3100
0000
1100
0000
,
0001
0000
0100
0010
0100
0000
1001
0000
,
0100
0010
0100
0000
1001
0000
0100
0100
,
0020
1030
0001
2000
,
3002
0000
0000
0020
0000
0000
0033
0000
,
0001
0010
0200
0000
2300
0000
3010
1000
,
0100
1000
0020
0000
0230
0000
0302
0000
,
1003
0100
1000
0000
0001
0000
0100
0000
,
1001
0110
0000
0000
,
1010
0000
0101
0000
1000
0100
1000
0002
,
0000
0023
0000
0031
1000
0001
1000
0020
,
0000
0230
0000
0301
1000
0100
1000
0002
,
0000
0023
0000
0230
0000
1300
0010
0200
,
0000
0302
0000
1003
0010
1000
0010
0200
,
0000
0302
0000
1003
0100
0010
0100
0020
,
0000
0032
0000
1003
1000
0000
0010
0000
,
2002
0000
0000
3003
1000
0100
0020
0000
,
0032
0000
2003
0000
3010
0100
0010
0100
,
0010
0100
0010
0000
0100
0001
0020
0000
,
0032
0000
1003
0100
2000
0000
3001
0100
,
0001
0100
0001
0000
1100
0000
0101
0000
,
0011
1010
2002
3003
,
0010
0001
1000
0000
0001
0010
0200
0000
,
2300
0000
3002
0000
0103
0010
0100
0010
,
0100
0010
0100
0000
0010
1000
0200
0000
,
2300
0000
3001
0010
0002
0000
1003
0010
,
1000
0010
1000
0000
0101
0000
1000
0001
,
0100
0000
1001
0000
1000
0001
0100
0000
,
1001
0000
1000
1000
0100
0000
0010
0000
,
0001
1000
0020
0000
0230
0000
0000
0002
,
0000
0000
0303
0000
0001
0100
0020
0000
,
2030
0000
3100
1000
0100
1000
0001
0000
,
1000
0000
0010
0000
0100
0010
0100
0000
,
0001
1000
1001
0110
,
0000
0000
0101
1010
,
0001
0010
0001
2000
0000
3200
0000
1300
,
0001
1000
0001
0200
0000
0320
0000
1030
,
0001
0010
0001
2000
0000
3200
0000
0320
,
0000
0031
0100
0020
0000
2030
0000
3001
,
0100
0001
0100
0020
0000
2030
0000
3001
,
0010
0100
0010
0200
0000
2300
0000
3001
,
0001
0000
0100
0100
0000
0010
0010
0000
,
0100
0001
1000
0010
0200
0000
0302
0000
,
1003
0100
0010
0001
2000
0000
3020
0000
,
0130
0001
0100
0001
2000
0000
3200
0000
,
0310
0001
0010
0002
0000
2003
0000
3020
,
0000
0100
0130
0000
0110
0000
1001
0000
,
1000
0100
0010
0000
0110
0000
1001
0000
,
0001
0100
0010
0000
1000
0000
0001
0000
,
0100
0010
1000
0100
0010
0001
2000
0000
,
3020
0000
0230
0000
0001
0301
0000
0000
;

//---------------dance-single - ----------------
#NOTEDATA:;
#CHARTNAME:;
#STEPSTYPE:dance-single;
#DESCRIPTION:;
#CHARTSTYLE:;
#DIFFICULTY:Medium;
#METER:5;
#RADARVALUES:0.263618,0.335211,0.077181,0.133313,0.000000,233.000000,11.000000,19.000000,0.000000,0.000000,0.000000,0.000000,0.000000,0.263618,0.335211,0.077181,0.133313,0.000000,233.000000,11.000000,19.000000,0.000000,0.000000,0.000000,0.000000,0.000000;
#CREDIT:Ben Speirs;
#NOTES:
0000
0000
0000
0000
,
0000
0000
0000
0000
,
0000
0000
0000
0000
,
0000
0000
0000
0000
,
1000
1000
0001
0001
,
0000
0100
0010
1000
,
0001
0000
1000
0000
,
0200
0000
0000
0300
,
1000
1000
0001
0001
,
0000
0100
0010
0100
,
0001
0000
1000
0000
,
2002
0000
0000
3003
,
1000
0100
0010
0001
,
0100
0100
0100
0000
,
0001
0010
0100
1000
,
0010
0010
0010
0000
,
2000
3000
0002
0003
,
0200
0300
0020
0030
,
1000
0010
0100
0001
,
0010
0010
0010
0000
,
0001
0010
0100
1000
,
0010
0010
0010
0000
,
1000
0001
1000
0000
,
0010
0000
0100
0000
,
0002
0003
2000
3000
,
0200
0300
0020
0030
,
0001
1000
0001
0000
,
0100
0100
0100
0000
,
0001
1000
0001
0000
,
0010
0010
0010
0000
,
0001
1000
0100
0100
,
1000
0100
0100
0000
,
1000
0000
0001
0000
,
0200
0300
0020
0030
,
1000
1000
1000
0000
,
0001
0001
0001
0000
,
0010
0001
1000
0000
,
1001
1001
0000
0000
,
0010
0000
0000
0000
1000
0000
0000
0100
,
0000
0100
0000
0000
0010
0000
0000
0001
,
0000
0001
0000
0000
0100
0000
0000
0010
,
0000
1000
0000
0001
0000
0100
0000
0000
,
0001
0000
0000
1000
0000
0100
0000
0000
,
0010
0000
0000
0001
0000
1000
0000
0000
,
0010
0100
0001
1000
,
1001
0000
1000
0100
,
0010
0000
0000
0000
0001
1000
0001
0000
,
1000
0000
0001
1000
,
0010
0000
0000
0000
1000
0001
1000
0000
,
0001
0000
2000
3000
,
0002
0003
0020
0030
,
0200
0300
1000
0100
,
0010
0000
0000
0000
0001
1000
0001
0000
,
1000
0000
0001
0100
,
0010
0000
0000
0000
1000
0001
1000
0000
,
0001
0000
0010
1100
,
0101
0000
1100
0101
,
1100
0000
0001
0000
,
1000
0000
0020
0030
,
0200
0300
0001
0100
,
0010
1000
0100
0010
,
0001
0000
1000
0001
,
1000
0000
0110
1001
,
0000
0000
1000
0001
,
0010
0000
0000
0100
0000
0100
0000
0000
,
1000
0000
0000
0010
0000
0010
0000
0000
,
0100
0000
0000
0001
0000
0010
0000
0100
,
0000
1000
0000
0000
0010
0000
0000
1000
,
0000
0001
0000
0000
0100
0000
0000
0001
,
0000
1000
0000
0000
0010
0000
0100
0000
,
0001
0010
0100
1000
,
0001
0100
0001
0100
0000
0001
0000
0000
,
1000
0100
1000
0100
0000
1000
0000
0000
,
0010
1000
0010
1000
0000
0010
0000
0000
,
1000
0001
1000
0001
0000
1000
0000
0001
,
0000
0100
0010
0000
,
1000
0010
0100
0000
,
0001
0010
0100
0000
,
1000
0001
1000
0010
,
0100
0000
0000
0000
0001
0001
0000
0000
;

//---------------dance-single - ----------------
#NOTEDATA:;
#CHARTNAME:;
#STEPSTYPE:dance-single;
#DESCRIPTION:;
#CHARTSTYLE:;
#DIFFICULTY:Easy;
#METER:4;
#RADARVALUES:0.197463,0.223474,0.049115,0.007016,0.000000,189.000000,7.000000,1.000000,0.000000,0.000000,0.000000,0.000000,0.000000,0.197463,0.223474,0.049115,0.007016,0.000000,189.000000,7.000000,1.000000,0.000000,0.000000,0.000000,0.000000,0.000000;
#CREDIT:Ben Speirs;
#NOTES:
0000
0000
0000
0000
,
0000
0000
0000
0000
,
0000
0000
0000
0000
,
0000
0000
0000
0000
,
1000
0000
0001
0000
,
0010
0000
0100
0000
,
1000
0000
0010
0000
,
0100
0000
0100
0000
,
0001
0000
1000
0000
,
0100
0000
1000
0000
,
0001
0000
0100
0000
,
0010
0000
0010
0000
,
1000
0100
1000
0000
,
0001
0000
0001
0000
,
1000
0100
1000
0000
,
0001
0000
0001
0000
,
0100
0000
0010
0000
,
1000
0000
0001
0000
,
0010
0100
0010
0000
,
0100
0000
0100
0000
,
0010
0100
0010
0000
,
0100
0000
0100
0000
,
1000
0000
0001
0000
,
0100
0100
0100
0000
,
0001
0000
1000
0000
,
0010
0000
0100
0000
,
0001
1000
0001
0000
,
0100
0000
0100
0000
,
0001
1000
0001
0000
,
0100
0100
0100
0000
,
0010
0000
1000
0000
,
0100
0100
0100
0100
,
0100
0000
0000
1000
,
1000
0000
0001
0000
,
0100
0100
0010
0000
,
0010
0010
1000
0000
,
1000
1000
0100
0000
,
1000
1001
0000
0000
,
1001
0000
0100
0010
,
1000
0000
0100
0010
,
0001
0000
1000
0001
,
1000
0000
0010
1000
,
0001
0000
0100
0001
,
1000
0000
0100
0010
,
0001
0000
1000
0000
,
0020
0030
0100
0000
,
0000
0000
0010
0010
,
0000
0000
1000
0100
,
0010
0000
0001
0001
,
0000
0000
0100
0000
,
0010
0000
1000
0000
,
0001
0000
1000
0100
,
1000
0000
0001
0000
,
0001
0000
1000
0100
,
1000
0000
0001
0000
,
0001
0000
0000
0100
,
0100
0000
0010
0010
,
0010
0000
1000
0000
,
0100
0010
0001
0000
,
1000
0000
1001
0000
,
0010
0000
0100
0000
,
0001
0000
1000
0100
,
0010
0000
0001
1001
,
0000
0000
1001
0000
,
1000
0100
0010
0000
,
0001
1000
0010
0000
,
0100
0010
1000
0000
,
0100
0000
1001
0000
,
1000
0001
0010
0000
,
0001
1000
0010
0000
,
0100
0100
0100
0000
,
0001
1000
0001
0000
,
1000
0100
0010
0000
,
0001
1000
0010
0000
,
0100
0001
1000
0000
,
0100
0000
1001
0000
,
1000
0010
0100
0000
,
0001
1000
0100
0000
,
1000
0000
0010
0000
,
1000
0000
0000
0000
0001
0001
0000
0000
;

//---------------dance-single - ----------------
#NOTEDATA:;
#CHARTNAME:;
#STEPSTYPE:dance-single;
#DESCRIPTION:;
#CHARTSTYLE:;
#DIFFICULTY:Beginner;
#METER:2;
#RADARVALUES:0.120282,0.167343,0.028066,0.000000,0.000000,116.000000,4.000000,0.000000,0.000000,0.000000,0.000000,0.000000,0.000000,0.120282,0.167343,0.028066,0.000000,0.000000,116.000000,4.000000,0.000000,0.000000,0.000000,0.000000,0.000000,0.000000;
#CREDIT:Ben Speirs;
#NOTES:
0000
0000
0000
0000
,
0000
0000
0000
0000
,
0000
0000
0000
0000
,
0000
0000
0000
0000
,
0100
0000
0000
0000
,
0001
0000
0000
0000
,
1000
0000
0000
0000
,
0100
0000
0000
0000
,
0010
0000
0000
0000
,
0001
0000
0000
0000
,
1000
0000
0000
0000
,
0010
0000
0000
0000
,
1000
0000
1000
0000
,
1000
0000
0000
0000
,
0001
0000
0001
0000
,
0001
0000
0000
0000
,
0010
0000
0000
0000
,
0100
0000
0000
0000
,
1000
0000
1000
0000
,
1000
0000
0000
0000
,
0010
0000
0010
0000
,
0010
0000
0000
0000
,
0100
0000
0100
0000
,
0100
0000
0000
0000
,
0001
0000
0000
0000
,
1000
0000
0000
0000
,
0100
0000
0100
0000
,
0100
0000
0000
0000
,
0010
0000
0010
0000
,
0010
0000
0000
0000
,
0000
0001
0001
0000
,
0001
0001
0000
0001
,
0001
0000
0000
0000
,
1000
0000
0000
0000
,
0010
0000
0010
0000
,
0010
0000
0000
0000
,
1000
0000
1000
0000
,
1000
0000
0000
0000
,
1001
0000
0000
0000
,
0100
0100
0000
0000
,
1000
1000
0000
0000
,
0010
0000
1000
0000
,
0001
0000
0000
0000
,
0010
0010
0000
0000
,
0100
0100
0000
0000
,
1001
0000
0000
0000
,
0000
0000
1000
0000
,
0000
0000
0001
0000
,
0000
0000
0100
0000
,
0100
0000
0100
0000
,
0000
0000
0010
0000
,
0000
0000
1000
0000
,
0000
0000
0100
0100
,
0000
0000
0010
0000
,
0000
0000
0001
0001
,
0000
0000
0000
0100
,
0100
0000
0100
0100
,
0000
0100
0100
0000
,
0000
0000
0010
0000
,
0000
0000
1000
0000
,
1000
0000
0001
0000
,
0001
0000
0100
0000
,
0100
0000
0000
1001
,
0000
0000
0000
0000
,
0000
0000
0010
0010
,
0000
0000
1000
1000
,
0000
0000
0100
0000
,
0100
0000
1000
1000
,
0000
0000
0001
0001
,
0000
0000
0100
0100
,
0000
0000
0010
0000
,
0010
0000
1000
1000
,
0000
0000
0001
0001
,
0000
0000
0010
0010
,
0000
0000
0100
0000
,
0100
0000
1000
1000
,
0000
0000
0001
0001
,
0000
0000
0100
0000
,
0100
0000
0100
0000
,
0100
0000
1001
0000
;

//---------------dance-double - ----------------
#NOTEDATA:;
#CHARTNAME:;
#STEPSTYPE:dance-double;
#DESCRIPTION:;
#CHARTSTYLE:;
#DIFFICULTY:Challenge;
#METER:9;
#RADARVALUES:0.627472,0.810094,0.210494,0.294691,0.091214,554.000000,30.000000,42.000000,0.000000,0.000000,0.000000,0.000000,0.000000,0.627472,0.810094,0.210494,0.294691,0.091214,554.000000,30.000000,42.000000,0.000000,0.000000,0.000000,0.000000,0.000000;
#CREDIT:Ben Speirs;
#NOTES:
// measure 0
00000000
00000000
00000000
00000000
,  // measure 1
00000000
00000000
00000000
00000000
,  // measure 2
00000000
00000000
00000000
00000000
,  // measure 3
00000000
00000000
00000000
00000000
,  // measure 4
00010000
00010000
00100000
00010000
01000000
01000000
00100000
10000000
,  // measure 5
00000000
10000000
00010000
10000000
01000000
01000000
00100000
00010000
,  // measure 6
01000000
00000000
00001000
00002000
00000000
00000000
00013000
00020000
,  // measure 7
00000000
00000000
00030010
00000020
00000000
00000000
00001030
00001000
,  // measure 8
00000001
00000001
00000010
00000001
00000100
00000100
00000010
00001000
,  // measure 9
00000000
00001000
00000100
00000010
00000001
00000100
00000010
00001000
,  // measure 10
00000001
00000000
00000010
00000020
00000000
00000000
00000130
00000200
,  // measure 11
00000000
00000000
00010300
00000000
00001000
00010000
00011000
00000000
,  // measure 12
00001000
00010000
02000000
00000000
23000000
00000000
30100000
01000000
,  // measure 13
00010000
00100000
00010000
00100000
00020000
00000000
10030000
00000000
,  // measure 14
10000000
00100000
02000000
00000000
03020000
00000000
10030000
01000000
,  // measure 15
00010000
00001000
00000100
00000001
00000010
00001000
00010000
00100000
,  // measure 16
10000000
01000000
10000000
01000000
00100000
00010000
00100000
00010000
,  // measure 17
00100000
00001000
00100000
00001000
00010000
00001000
00010000
00001000
,  // measure 18
00010000
00001000
00000020
00000000
00000032
00000000
00000103
00000010
,  // measure 19
00001000
00000100
00001000
00000100
00002000
00000000
00003001
00000000
,  // measure 20
00000001
00000100
00000020
00000000
00002030
00000000
00003001
00000010
,  // measure 21
00001000
00000010
00000001
00001000
00000020
00000000
00000130
00000000
,  // measure 22
00000001
00001000
00000200
00000000
00000320
00000000
00000031
00000100
,  // measure 23
00001000
00010000
01000000
10000000
00100000
00010000
00001000
00000010
,  // measure 24
00000001
00000010
00000001
00000010
00000100
00001000
00000100
00001000
,  // measure 25
00000100
00010000
00000100
00010000
00001000
00010000
00001000
00010000
,  // measure 26
00001000
00010000
02000000
00000000
23000000
00000000
30100000
01000000
,  // measure 27
00010000
00100000
00010000
00100000
00020000
00000000
10030000
00000000
,  // measure 28
10000000
00100000
02000000
00000000
03020000
00000000
10030000
01000000
,  // measure 29
00010000
01000000
10000000
00010000
02000000
00000000
03100000
00000000
,  // measure 30
10010000
00000000
10000000
01000000
00100000
00010000
10010000
00000000
,  // measure 31
00010000
01000000
00100000
10000000
10010000
00000000
01000000
01000000
,  // measure 32
00100000
10000000
01000000
00100000
00010000
00100000
00002000
00000000
,  // measure 33
00023000
00000000
00030010
00002000
00000001
00000000
00003100
00000000
,  // measure 34
00001000
00000100
00000010
00000001
00000100
00000010
00001000
00000001
,  // measure 35
00000010
00000001
00001000
00000100
00010000
00001000
00000100
00000001
,  // measure 36
00000010
00000100
00001000
00000100
00010000
00001000
00100000
00001000
,  // measure 37
00101000
00100010
00000000
00000000
,  // measure 38
00011000
00010000
00001000
00100000
00010000
01000000
00100000
10000000
,  // measure 39
00010000
00000000
00100000
00000000
01000000
00000000
10000000
00000000
00100000
01000000
00100000
00000000
10000000
01000000
10000000
00000000
,  // measure 40
00010000
01000000
00100000
10000000
01000000
00100000
00010000
10000000
,  // measure 41
00100000
00010000
00001000
00000010
00000001
00000011
00001010
00000001
,  // measure 42
00001001
00001000
00000100
00000100
00001000
00000010
00000100
00000001
,  // measure 43
00001000
00000000
00000100
00000000
00000010
00000000
00000001
00000000
00000100
00000010
00000100
00000000
00000001
00000010
00000001
00000000
,  // measure 44
00001000
00000010
00000100
00000001
00000010
00000100
00001000
00000001
,  // measure 45
00000020
00002030
00023000
00230000
20300000
32000000
03200000
00000000
00310000
00000000
10000000
00000000
00010000
00000000
10000000
00000000
,  // measure 46
01100000
00000000
00000000
00000000
10000000
00000000
00100000
00000000
01000000
00010000
01000000
00000000
00100000
00000000
10000000
00000000
,  // measure 47
01000000
10000000
01000000
00000000
10000000
00010000
10000000
00010000
01000000
00000000
00100000
00000000
01000000
00000000
00100000
00000000
,  // measure 48
10010000
00000000
10000000
01000000
00010000
00001000
00000100
00000001
,  // measure 49
00000010
00001000
00010000
00100000
10000000
01000000
10000000
01000000
,  // measure 50
00100000
00010000
00100000
00010000
00100000
00001000
00100000
00001000
,  // measure 51
00010000
00011000
00001000
00001010
00001000
00000001
00001000
00000001
,  // measure 52
00000110
00000000
00000000
00000000
00000001
00000000
00000100
00000000
00000010
00001000
00000010
00000000
00000100
00000000
00000001
00000000
,  // measure 53
00001000
00000110
00001001
00001010
00000010
00000100
00000010
00000100
,  // measure 54
00001001
00000000
00001000
00000100
00000001
00000100
00001000
00000010
,  // measure 55
00000100
00000000
00000001
00000010
00000001
00000010
00000100
00000000
00002000
00000000
00000000
00000000
00003001
00000000
00000100
00000000
,  // measure 56
00000010
00010000
00000010
00000100
00000001
00000100
00000010
00010000
,  // measure 57
00000010
00000100
00000001
00000001
00001000
00000100
00000010
00000001
,  // measure 58
00001000
00000010
00002000
00000000
00003200
00000000
00010300
00002000
,  // measure 59
00100000
00000000
01003000
00000000
01010000
00010000
10010000
00000000
,  // measure 60
11000000
00000000
10000000
01000000
00010000
01000000
10000000
00100000
,  // measure 61
01000000
00010000
10000000
01000000
00100000
00010000
10000000
00010000
,  // measure 62
10000000
00000000
00010000
01000000
00010000
01000000
00010000
00000000
01010000
00000000
00000000
00000000
01000100
00000000
00000000
00000000
,  // measure 63
00000000
00000000
00000000
00000000
00011000
00001000
00010000
00000100
,  // measure 64
00001000
00000010
00000100
00000001
00001000
00000100
00000010
00000001
,  // measure 65
00000100
00000010
00000100
00000000
00000001
00000010
00000001
00000000
00001000
00000000
00000010
00000000
00000100
00000000
00000001
00000000
,  // measure 66
00000010
00000100
00001000
00000001
00000100
00001000
00010000
01000000
,  // measure 67
10000000
11000000
01010000
10000000
10010000
00010000
00100000
00100000
,  // measure 68
00010000
01000000
00100000
10000000
00010000
00100000
01000000
10000000
,  // measure 69
00100000
01000000
00100000
00000000
10000000
01000000
10000000
00000000
00010000
00000000
01000000
00000000
00100000
00000000
10000000
00000000
,  // measure 70
01000000
00100000
00010000
10000000
00100000
01000000
00100000
01000000
,  // measure 71
00010000
00100000
00001000
00010000
00000100
00001000
00000010
00000100
,  // measure 72
00000001
00000010
00000100
00001000
00000010
00000100
00000001
00001000
,  // measure 73
00000100
00010000
00100000
10000000
00010000
01000000
00100000
01000000
,  // measure 74
00010000
10000000
01000000
20000000
00000000
32000000
00000000
03020000
,  // measure 75
00000000
01030000
00010000
00002000
00000000
00013000
00000100
00001000
,  // measure 76
00000010
00000000
00000000
00000100
00000000
00000000
00000001
00000000
00000010
00000000
00000100
00000000
00001000
00000000
00000010
00000000
,  // measure 77
00000100
00000000
00000000
00000001
00000000
00000000
00001000
00000000
00000100
00000000
00010000
00000000
00001000
00000000
00010000
00000000
,  // measure 78
00001000
01000000
00001000
01000000
00010000
00000000
10000000
01000000
10000000
01000000
00100000
00000000
00010000
00000000
10000000
00000000
,  // measure 79
00100000
01000000
00010000
00100000
00101000
00010100
00000000
00000000
;
