#TITLE:Zaleilah;
#SUBTITLE:-Romania 2012-;
#ARTIST:Mandinga;
#TITLETRANSLIT:;
#SUBTITLETRANSLIT:;
#ARTISTTRANSLIT:;
#CREDIT:;
#BANNER:Zaleilah-bn.png;
#BACKGROUND:Zaleilah-bg.png;
#LYRICSPATH:;
#CDTITLE:;
#MUSIC:Zaleilah.mp3;
#OFFSET:-0.080;
#SAMPLESTART:60.530;
#SAMPLELENGTH:16.320;
#SELECTABLE:YES;
#DISPLAYBPM:127.000;
#BPMS:0.000=127.000,223.000=137.880,224.500=127.000;
#STOPS:;
#BGCHANGES:0.000=Zaleilah.avi=1.000=1=0=0,
99999=-nosongbg-=1.000=0=0=0 // don't automatically add -songbackground-
;

//---------------dance-single - ----------------
#NOTES:
     dance-single:
     :
     Beginner:
     2:
     0.104,0.182,0.054,0.000,0.000:
0000
0000
0000
0000
,
0000
0000
0000
0000
,
0000
0000
0000
0000
,
0000
0000
0000
0000
,
0010
0000
0000
0000
,
0100
0000
0000
0000
,
0001
0000
0000
0000
,
1001
0000
0000
0000
,
0100
0000
0100
0000
,
0100
0000
0000
0000
,
1000
0000
1000
0000
,
1000
0000
0000
0000
,
0001
0000
0001
0000
,
0001
0000
0000
0000
,
0010
0000
0010
0000
,
0010
0000
0000
0000
,
0001
0000
0000
0000
,
1000
0000
0000
0000
,
0010
0000
0000
0000
,
1000
0000
1000
0000
,
1000
0000
0000
0000
,
0001
0000
0000
0000
,
0010
0000
0000
0000
,
0100
0000
0000
0000
,
0110
0000
0000
0000
,
0100
0000
0000
0000
,
1000
0000
0000
0000
,
0010
0000
0010
0000
,
0010
0000
0000
0000
,
1000
0000
0000
0000
,
0001
0001
0001
0001
,
0001
0000
0000
0000
,
1001
0000
0000
0000
,
0100
0100
0100
0000
,
0100
0000
0000
0000
,
0010
0000
0000
0000
,
1001
0000
0000
0000
,
0100
0100
0100
0000
,
0100
0000
0000
0000
,
0010
0000
0000
0000
,
1001
0000
0000
0000
,
0010
0010
0010
0000
,
0010
0000
0000
0000
,
0100
0000
0000
0000
,
1001
0000
0000
0000
,
0010
0010
0010
0000
,
0010
0000
0000
0000
,
0100
0000
0000
0000
,
1000
0000
1000
0000
,
1000
0000
0000
0000
,
0001
0000
0001
0000
,
0001
0000
0000
0000
,
0100
0000
0100
0000
,
0100
0000
0000
0000
,
0010
0000
0010
0000
,
0010
0000
0000
0000
,
0000
0000
0000
0000
,
0000
0000
0001
1000
;

//---------------dance-single - ----------------
#NOTES:
     dance-single:
     :
     Medium:
     8:
     0.379,0.416,0.198,0.135,0.000:
0000
0000
0000
0000
,
0000
0000
0000
0000
,
0000
0000
0000
0000
,
0000
0000
0000
0000
,
0010
1000
0001
0100
,
0010
0000
1000
0000
0001
0000
1000
0100
,
1000
0010
0100
0010
,
1001
0000
0000
0000
1000
0001
1000
0000
,
0010
0000
1000
0000
0100
0010
0001
0000
,
0200
0310
0200
0310
,
0100
0000
0001
0000
1000
0010
0100
0000
,
0002
1003
0002
1003
,
0001
0000
1000
0000
0010
1000
0100
0000
,
2000
3010
2000
3010
,
1000
0000
0001
0000
0100
0010
1000
0100
,
0010
0001
1001
1001
,
0000
0100
0000
1000
,
0000
0010
0000
0100
,
0000
0001
0000
0010
,
0000
0001
0000
1000
,
0000
0000
0010
0100
0000
0000
0001
0100
,
0000
0000
0010
1000
0000
0000
0100
0010
,
0000
0000
1000
0100
0000
0000
1000
0001
,
0000
0000
0000
0000
,
0001
0000
0100
0000
1000
0100
0001
0000
,
0010
0000
0001
0000
1000
0010
0001
0000
,
0100
0000
0010
0000
1000
0001
0100
0000
,
0010
0000
1000
0000
0001
0010
0100
0000
,
2000
0000
3100
0000
1000
0010
0001
0010
,
1000
0100
1000
0001
,
0200
0000
0301
0000
1000
0100
0001
0100
,
2000
0100
0010
3100
,
1010
0000
1001
0000
0100
0100
0100
0000
,
0001
0100
0001
0000
1000
0100
1000
0000
,
0000
0000
0010
0000
1000
0100
1000
0000
,
0010
1000
0001
0100
,
0101
0000
1100
0000
0010
0010
0010
0000
,
1000
0100
1000
0000
0001
1000
0001
0000
,
1000
0100
0100
0100
0100
0100
1000
0000
,
0001
0100
0100
0100
0100
0100
0001
0000
,
1001
0101
1000
0001
,
1100
0000
0001
0000
1000
0100
0001
0100
,
1000
0010
1010
0101
,
1000
0001
1001
0110
,
1000
0001
1000
0001
1000
0001
1000
0000
,
0010
0000
0100
0000
0010
0010
0010
0000
,
1000
0001
0001
0001
0001
0001
1000
0000
,
0010
0100
0100
0100
0100
0100
0010
0000
,
2000
3100
2000
3100
,
1001
0101
1100
1001
,
0020
0130
0020
0130
,
0001
0010
0100
1000
0001
0010
0100
1000
,
0020
0130
0020
1030
,
1100
1001
0110
1001
,
0001
0100
0010
1000
0001
0100
0010
1000
,
0001
1000
0001
1000
0100
1000
0100
1000
,
0000
0010
1000
0100
0010
0001
1000
0000
,
0000
0001
0100
1000
0100
0001
1000
0000
;

//---------------dance-single - ----------------
#NOTES:
     dance-single:
     :
     Hard:
     12:
     0.524,0.545,0.396,0.108,0.148: // measure 1
0000
0000
0000
0000
,  // measure 2
0000
0000
0000
0000
,  // measure 3
0000
0000
0000
0000
,  // measure 4
0000
0000
0000
0000
,  // measure 5
0010
2000
3002
0203
,  // measure 6
0310
0000
0000
0000
0100
0000
0001
0000
0100
0000
0000
0010
0100
0000
0001
0000
,  // measure 7
1000
0001
1000
0001
1000
0001
1000
0001
,  // measure 8
0100
0000
0101
1100
,  // measure 9
0010
1000
0000
1000
0010
0000
0100
0000
0001
1000
0000
1000
0001
0000
0100
0000
,  // measure 10
0020
0000
1000
0000
0130
0001
1000
0100
,  // measure 11
0010
0001
0000
0001
1000
0000
0010
0000
0100
0010
0000
0010
1000
0000
0001
0000
,  // measure 12
2000
0000
0100
0000
3010
1000
0100
0010
,  // measure 13
0001
0100
0000
0100
0001
0000
1000
0000
0010
0100
0000
0100
0010
0000
1000
0000
,  // measure 14
0002
0000
0100
0000
1003
0001
0100
0010
,  // measure 15
2000
0000
3100
1000
0010
1000
0001
0100
,  // measure 16
0010
0010
1100
0101
,  // measure 17
0000
0001
0100
0010
0000
1000
0001
0100
,  // measure 18
0000
0010
0100
0001
0000
0010
0100
1000
,  // measure 19
0000
1000
0100
0001
0000
1000
0001
0100
,  // measure 20
0000
0010
1000
0001
0000
0010
0001
0100
,  // measure 21
0010
0000
0101
0000
1000
0100
0001
1000
,  // measure 22
0100
0000
1000
0000
0001
0100
1000
0100
,  // measure 23
0001
0000
1000
0000
0010
0100
0010
1000
,  // measure 24
0001
1000
0100
0010
0001
0000
0000
0000
,  // measure 25
0100
0000
0001
0000
0000
1000
0000
0000
0100
0000
0000
1000
0000
0000
0010
0000
,  // measure 26
0100
0000
0000
0010
0000
0000
1000
0000
0100
0000
0000
0010
0000
0000
0001
0000
,  // measure 27
2000
0100
0100
3100
,  // measure 28
1000
0100
1000
0100
1000
0000
0100
0000
,  // measure 29
1000
0000
0010
0000
0000
0100
0000
0000
0010
0000
0000
1000
0000
0000
0100
0000
,  // measure 30
0010
0000
0000
0001
0000
0000
1000
0000
0001
0000
0000
0100
0000
0000
0001
0000
,  // measure 31
0010
0100
0010
0100
0010
0100
0010
0100
,  // measure 32
0010
0000
0110
1001
,  // measure 33
0100
0110
0001
1001
0010
1010
0001
0000
,  // measure 34
0100
0010
1001
0000
0100
0010
1001
0000
,  // measure 35
1000
1001
0100
0110
0001
0101
1000
0000
,  // measure 36
0100
1000
0010
0100
0001
1000
0010
0000
,  // measure 37
0100
0110
1000
1010
0100
0110
1000
0000
,  // measure 38
0010
1000
1001
0000
0100
0001
1001
0000
,  // measure 39
0100
1000
0010
0100
0001
1000
0001
0000
,  // measure 40
0010
0001
0100
1000
0100
0001
0010
0000
,  // measure 41
0010
0101
1000
0110
0001
1010
0100
0000
,  // measure 42
0010
0100
1001
0000
0010
0100
1001
0000
,  // measure 43
0001
1100
0010
0101
1000
0110
0001
0000
,  // measure 44
0010
0001
0100
0010
1000
0001
0100
0000
,  // measure 45
0010
1100
0010
1001
0100
0011
1000
0000
,  // measure 46
0100
0001
1001
0000
0010
1000
1001
0000
,  // measure 47
0010
0001
0100
0010
1000
0001
1000
0000
,  // measure 48
0100
1000
0010
0001
0010
1000
0100
0000
,  // measure 49
1000
0010
0000
0010
1000
0000
0001
0000
0100
0010
0000
0010
0100
0000
0001
0000
,  // measure 50
0200
0000
0010
0000
0301
0100
0010
1000
,  // measure 51
0001
1000
0000
1000
0001
0000
0100
0000
0010
1000
0000
1000
0010
0000
0100
0000
,  // measure 52
0020
0000
1000
0000
0130
0010
1000
0100
,  // measure 53
0010
0001
0000
0001
0010
0000
0100
0000
1000
0001
0000
0001
1000
0000
0010
0000
,  // measure 54
0200
0000
0010
0000
0301
1000
0100
0010
,  // measure 55
0002
0000
0103
0001
1000
0100
1000
0010
,  // measure 56
0100
0010
1010
1001
,  // measure 57
0000
0110
0010
1001
0001
1010
0100
0000
,  // measure 58
0000
0110
1010
1001
0101
1100
1010
0000
;

//---------------dance-single - ----------------
#NOTES:
     dance-single:
     :
     Easy:
     4:
     0.231,0.312,0.036,0.108,0.000:
0000
0000
0000
0000
,
0000
0000
0000
0000
,
0000
0000
0000
0000
,
0000
0000
0000
0000
,
0010
1000
0001
0000
,
1000
0001
0100
0000
,
0010
0100
0010
0100
,
0110
0000
0000
0000
,
0001
0100
0010
1000
,
0200
0300
1000
0001
,
1000
0010
0100
0010
,
2000
3000
0100
1000
,
0010
0100
0001
1000
,
0002
0003
0010
0001
,
0200
0300
0010
1000
,
0002
2003
3020
0230
,
0300
0010
0000
1000
,
0000
0100
0000
0010
,
0000
0001
0000
1000
,
0000
0001
0100
0010
,
0100
0001
0000
0010
,
0000
0001
0000
1000
,
0000
0010
0000
1000
,
0100
0000
0000
0000
,
1000
0100
1000
0010
,
1000
0100
1000
0010
,
1000
0100
1000
0010
,
1000
0100
1000
0000
,
0001
0100
0001
0010
,
0001
0100
0001
0010
,
0001
0100
0001
0010
,
0001
0000
1000
0000
,
0010
1000
0100
0000
,
1000
1000
1000
0000
,
0010
1000
0001
0000
,
0010
0010
0010
0000
,
0001
1000
0001
0000
,
0100
0100
0100
0000
,
0000
0000
0010
0000
0100
0100
0100
0000
,
0000
0000
0010
0000
0100
0100
0100
0000
,
0000
0001
1000
0100
,
1000
1000
0001
0001
,
0000
1000
0001
0010
,
0100
0100
0010
0010
,
0000
0001
1000
0010
,
0100
0100
0010
0010
,
0000
0000
1000
0000
0001
0001
0001
0000
,
0000
0000
1000
0000
0001
0001
0001
0000
,
1001
0000
0100
0000
,
0010
0000
1000
0100
,
0010
0000
0001
0000
,
0100
0000
0110
0110
,
0100
0000
0010
0000
,
1000
0000
0001
1000
,
0100
0000
1000
0000
,
0020
2030
3002
0203
,
0300
0000
0000
0000
,
0000
0000
0000
0000
1000
0001
1000
0000
;
