#TITLE:Zaleilah -Romania 2012-;
#ARTIST:Mandinga;
#FILE:Zaleilah.mp3;
#BPM:127.000;
#GAP:80;
#SAMPLESTART:60.530;
#SAMPLELENGTH:16.320;
#DISPLAYBPM:127;
#CHANGEBPM:892.000=137.880,898.000=127.000;
#SINGLE:BEGINNER:2:
00000000
00000000
00000000
00000000
80000000
20000000
60000000
B0000000
20002000
20000000
40004000
40000000
60006000
60000000
80008000
80000000
60000000
40000000
80000000
40004000
40000000
60000000
80000000
20000000
A0000000
20000000
40000000
80008000
80000000
40000000
60606060
60000000
B0000000
20202000
20000000
80000000
B0000000
20202000
20000000
80000000
B0000000
80808000
80000000
20000000
B0000000
80808000
80000000
20000000
40004000
40000000
60006000
60000000
20002000
20000000
80008000
80000000
00000000
00006040
;
#SINGLE:ANOTHER:8:
00000000
00000000
00000000
00000000
80406020
80406042
40802080
B0004640
80402860
2!20A02!20A0
20604820
6!60B06!60B0
60408420
4!40704!4070
40602842
8060B0B0
00200040
00800020
00600080
00600040
00820062
00840028
00420046
00000000
60204260
80604860
20804620
80406820
4!40104868
40204060
2!20304262
4!40208010
70B02220
62604240
00804240
80406020
30108880
42406460
42222240
62222260
B0304060
10604262
40807030
4060B0A0
46464640
80208880
46666640
82222280
4!40104!4010
B03010B0
8!80A08!80A0
68246824
8!80A08!8070
10B0A0B0
62846284
64642424
08428640
06242640
;
#SINGLE:MANIAC:12:
00000000
00000000
00000000
00000000
804!40B!603!20
(A000206020082060)
46464646
20003010
(8404802064046020)
8!8040A642
(8606408028084060)
4!40207428
(6202604082028040)
6!6020B628
4!40148462
80801030
06280462
08260824
04260462
08460862
80304264
20406242
60408284
64286000
(2060040020040080)
(2008004020080060)
4!40202010
42424020
(4080020080040020)
(8006004060020060)
82828282
8000A0B0
2A6B8760
28B028B0
4B2A6340
24826480
2A472A40
84B026B0
24826460
86242680
834A6720
82B082B0
61834A60
86284620
818B2940
26B084B0
86284640
24868420
(4808406028082060)
2!20803284
(6404602084048020)
8!8040A842
(8606802046064080)
2!20803428
6!60364248
208070B0
0A8B6720
0A7B3170
;
#SINGLE:BASIC:4:
00000000
00000000
00000000
00000000
80406000
40602000
80208020
A0000000
60208040
2!20204060
40802080
4!40402040
80206040
6!60608060
2!20208040
6!60B!407!80A!20
20800040
00200080
00600040
00602080
20600080
00600040
00800040
20000000
40204080
40204080
40204080
40204000
60206080
60206080
60206080
60004000
80402000
40404000
80406000
80808000
60406000
20202000
00802220
00802220
00604020
40406060
00406080
20208080
00604080
20208080
00406660
00406660
B0002000
80004020
80006000
2000A0A0
20008000
40006040
20004000
8!807!40B!603!20
20000000
00004640
;
