#TITLE:SUITE LIFE THEME SONG;
#ARTIST:SUITE LIFE;
#FILE:SUITE LIFE THEME SONG.mp3;
#BPM:204.820;
#GAP:79;
#SAMPLESTART:0.020;
#SAMPLELENGTH:15.000;
#CDTITLE:./CDTITLES/Dance Dance Revolution Disney Channel Edition.png;
#DISPLAYBPM:203..211;
#SINGLE:BEGINNER:1:
00000000
00000000
00000000
00008000
00000000
00006000
00000000
00004000
00008000
00002000
20002000
00006000
60006000
00004000
40004000
00002000
20002000
00008000
00006000
00002000
00004000
00008000
80008000
00002000
20002000
0000B000
00000000
0000B000
00000000
0000A000
00000000
0000A000
00000000
00008000
00000000
00002000
00000000
00006000
00000000
00004000
00002000
00008000
80008000
00006000
60006000
00004000
40004000
00008000
80008000
00002000
00006000
00008000
00004000
00002000
20002000
00008000
80008000
0000B000
00000000
0000B000
00000000
0000A000
00000000
0000A000
00000000
0000B000
;
#SINGLE:BASIC:3:
00000000
00000000
00000000
00006000
40006000
40002000
80002000
80006000
20004000
80006060
60004000
20008000
20004000
80002020
20006000
80002000
80006000
20008!8000
00804!4000
00406!6000
00602!2000
00208080
80004000
20006000
20004000
60004!4000
00007000
20006!6000
00006000
80002!2000
00001000
60002!2000
00003000
80002000
40002000
80006000
40008000
40006000
20008000
20006000
80004000
20006060
60004000
80002000
80004000
20008080
80006000
20008000
20006000
80002!2000
00204!4000
00406!6000
00608!8000
00802020
20004000
80006000
80004000
60004!4000
00001000
80006!6000
00006000
20008!8000
00007000
60008!8000
0000A000
2000B000
;
#SINGLE:ANOTHER:6:
00000000
00000000
00000000
00006080
60806002
00804060
40604002
00806060
4040B!B000
00B06060
60402006
00204040
40602!2020
8!80804040
40608004
00806060
60408!8080
2!2020A007
0000900A
00204060
40602020
80804040
40208006
00208080
80402008
00600020
40206!6009!8
00A04080
40208060
20608020
60204!4007!8
00A06080
60408020
60406080
60806002
00804020
40204008
00206040
60406008
00204040
6060B!B000
00B04040
40608004
00806060
60408!8080
2!20206060
60402006
00204040
40602!2020
8!8080A003
0000100A
00806040
60408080
20206060
60802004
00802020
20608002
00400080
60804!4001!2
00A06020
60802040
80402080
40806!6003!2
00A04020
40602080
40604000
;
#SINGLE:MANIAC:8:
00000000
00000000
00000000
00804060
80604068
08204020
80204062
02804060
2084!40060
60B030B0
30462068
024010B0
10246026
408070B0
70624042
608090B0
90242062
604!408060
80B!608040
80B!402060
20B!602040
20B0B0A0
B0268024
8020A0B0
A0482068
20462!2060
60808060
30804080
26068040
80604!4020
20606020
10806028
20646420
40602040
80406048
08206040
20406042
02806080
20806048
08206040
8026!60040
40B070B0
70648042
086090B0
90864084
602030B0
30486068
402010B0
10868048
406!602040
20B!402060
20B!608040
80B!408060
80B0B0A0
B0842086
2080A0B0
A0628042
80648!8040
40202040
70206020
84042060
20406!6080
80404080
90204082
80464680
2040B000
;
#DOUBLE:BASIC:3:
00000000
00000000
00000000
00006000
00006000
00000000
00000000
00000000
00006000
00006060
60002000
40002000
60000000
00000000
00000000
00006000
00002000
60008!8000
00802!2000
00204!4000
00406!6000
00602020
20006000
80000000
60000000
00000000
00000000
00000000
00000000
00006!6000
00006000
20008!8000
00007000
80004000
80002000
80006000
00006000
00000000
00000000
00000000
00006000
00006060
60008000
40008000
60000000
00000000
00000000
00006000
00008000
60002!2000
00208!8000
00804!4000
00406!6000
00608080
80006000
20000000
60000000
00000000
00000000
00000000
00000000
00006!6000
00006000
80002!2000
00001000
2000B000
:
00000000
00000000
00000000
00000000
40000000
40002000
80002000
60008000
40000000
40000000
00000000
00000000
00004000
20006060
60004000
20000000
40000000
00000000
00000000
00000000
00000000
00000000
00000000
00004000
00002000
40006!6000
00003000
80004!4000
00004000
20000000
00004000
00000000
00000000
00000000
00000000
00000000
40000000
40008000
20008000
60002000
40000000
40000000
00000000
00000000
00004000
80006060
60004000
80000000
40000000
00000000
00000000
00000000
00000000
00000000
00000000
00004000
00008000
40006!6000
00009000
20004!4000
00004000
80000000
00004000
00000000
00000000
00000000
;
#DOUBLE:ANOTHER:6:
00000000
00000000
00000000
00806000
60006000
00000000
00000000
00006060
00006!6000
00600060
00806008
00204060
40802!2020
6!60608060
80006000
00000000
00000000
00000000
00000006
00006000
20608080
60604060
40208006
00200060
00000000
00000000
00600006!6
00602060
40002040
60004080
20006!6006
00600000
00000000
00000000
00000000
00000060
00600008
00604080
40804006
00800000
60606!6000
00606000
60000000
00000000
00000000
00000000
00600002
00804060
40208!8080
6!6060B!6009
00009!8008
00600060
00000000
00000000
00000000
00006000
60002006
00400020
80006!6006
00600000
00000000
00000000
00600006!6
00608060
80604020
4020A000
:
00000000
00000000
00000000
00000040
00400002
00406020
60206004
00200000
40404!4000
00404000
40000000
00000000
00000000
00000000
00400008
00206040
60802!2020
4!4040B!4001
00001!2002
00400040
00000000
00000000
00000000
00004000
40208004
00600080
20004!4004
00400000
00000000
00000000
00400004!4
00402040
20406020
60804020
40204008
00204000
40004000
00000000
00000000
00004040
00004!4000
00400040
00804002
00806040
60208!8080
4!40402040
20004000
00000000
00000000
00000000
00000004
00004000
80402020
40406040
60802004
00800040
00400000
00000000
00400004!4
00408040
60008060
40006020
80004!4004
00400000
00000000
00000000
;
#DOUBLE:MANIAC:8:
00000000
00000000
00000000
00608000
80608006
06000000
60000000
00000000
0006!60000
00606080
60806006
00203020
30628042
80609080
90806006
00000060
00000000
00000060
006!600000
00606020
602!208060
803010B0
10468006
00000000
00000000
00000060
60000060
60002060
28084020
80602!2000
00606000
20600000
00000000
00000000
00000000
00000060
00000060
00206020
00206042
02806040
60800060
60606060
60060080
06000060
00000000
00000060
00060060
20603020
30284028
608!806000
90006020
606!600000
60000000
00000000
00000060
206030B0
30284028
60268!8000
00606000
80600000
00000000
00000060
60000060
60008062
60424682!2
0010B000
:
00000000
00000000
00000000
00000040
00000040
00804080
00804068
08204060
40200040
40404040
40040020
04000040
00000000
00000040
00040040
80407080
70826082
402!204000
10004020
404!400000
40000000
00000000
00000040
804070B0
70826082
40842!2000
00404000
20400000
00000000
00000040
40000040
40002048
40686428!8
0090B020
80206028
08402000
20402004
04000000
40000000
00000000
0004!40000
00404020
40804004
00807080
70482068
20401020
10204004
00000040
00000000
00000040
004!400000
40004080
408!802040
207090B0
90642004
00000000
00000000
00000040
40000040
40008040
82026080
20408!8000
00404000
80400000
00000000
00000000
;
