#TITLE:Human;
#SUBTITLE:;
#ARTIST:The Killers;
#TITLETRANSLIT:;
#SUBTITLETRANSLIT:;
#ARTISTTRANSLIT:;
#GENRE:Pop-Rock;
#CREDIT:;
#BANNER:Human (The Killers).png;
#BACKGROUND:Human (The Killers)-bg.png;
#LYRICSPATH:;
#CDTITLE:;
#MUSIC:Human (The Killers).ogg;
#OFFSET:0.011000;
#SAMPLESTART:104.685135;
#SAMPLELENGTH:13.714000;
#SELECTABLE:YES;
#BPMS:0.000000=135.500000
;
#STOPS:
;
#BGCHANGES:4.000=Human (The Killers).avi=1.000=0=0=1=====,
99999=-nosongbg-=1.000=0=0=0 // don't automatically add -songbackground-
;
#KEYSOUNDS:;
#ATTACKS:;

//---------------dance-single - ----------------
#NOTES:
     dance-single:
     :
     Hard:
     8:
     0.537699,0.554148,0.237492,0.359836,0.050377,440.000000,33.000000,50.000000,0.000000,0.000000,0.000000,0.537699,0.554148,0.237492,0.359836,0.050377,440.000000,33.000000,50.000000,0.000000,0.000000,0.000000:
// measure 0
0000
0000
0000
0000
,  // measure 1
0000
0000
0000
0000
,  // measure 2
0000
0000
0000
0000
,  // measure 3
0000
0000
0000
0000
,  // measure 4
2000
0000
3001
0000
0100
0000
0010
1000
,  // measure 5
0010
1000
0002
0000
0013
0000
0001
1000
,  // measure 6
0200
0000
1300
0000
0001
0000
0100
0100
,  // measure 7
0020
0000
1030
0000
0001
1000
0100
1000
,  // measure 8
0002
0000
0103
0000
0010
0000
1000
1000
,  // measure 9
0200
0000
0310
0000
0001
0000
1000
0100
,  // measure 10
2000
0000
3001
0000
0200
0000
0301
1000
,  // measure 11
0002
0103
0010
1000
,  // measure 12
1100
0000
0001
0000
1000
0100
1000
0000
,  // measure 13
0001
0001
0100
0000
0010
0000
1000
0100
,  // measure 14
1000
0100
0010
0000
0001
1000
0001
0000
,  // measure 15
0100
0000
0100
0000
0010
1000
0001
0000
,  // measure 16
1001
1001
0100
0100
,  // measure 17
1001
1001
0010
0010
,  // measure 18
1100
0101
1000
0010
,  // measure 19
1010
0000
0011
0000
1000
0000
0001
0010
,  // measure 20
0200
1000
1000
1300
,  // measure 21
2000
0001
0001
3001
,  // measure 22
0201
0000
0300
0010
0010
0000
1000
0010
,  // measure 23
0200
0001
0001
0310
,  // measure 24
1002
0000
0003
1000
0100
0000
1000
0010
,  // measure 25
0020
0100
0100
1030
,  // measure 26
2000
0000
0100
0000
3100
0000
0100
0010
,  // measure 27
0002
0000
0100
0000
0103
0000
0001
1000
,  // measure 28
0002
0000
1003
0100
2000
0000
3001
0100
,  // measure 29
0002
0000
1003
0000
0001
0010
0100
1000
,  // measure 30
0020
0130
0010
1000
,  // measure 31
0001
0010
0011
0110
,  // measure 32
2100
0000
0001
0001
3001
0000
1000
0000
,  // measure 33
0010
0100
1010
0110
,  // measure 34
0102
0000
1000
1000
1003
0000
0001
0000
,  // measure 35
0101
0000
0000
1001
,  // measure 36
2000
0000
3010
0100
0002
0000
1003
0100
,  // measure 37
1000
0000
0001
0000
0010
0000
0001
1000
0001
0000
0100
0000
0010
0000
1000
0000
,  // measure 38
0002
0000
1003
0100
2000
0000
3001
0010
,  // measure 39
0001
0000
1000
0000
0010
0000
0100
0001
0100
0000
0010
0000
1000
0000
0001
0000
,  // measure 40
0200
0000
0320
0000
2030
0000
3001
0010
,  // measure 41
0001
0000
0000
0000
1000
0000
0100
0010
0100
0000
1000
0000
0010
0000
0100
0000
,  // measure 42
0001
1000
0001
1000
0001
0000
1000
1000
,  // measure 43
0100
0000
0010
0000
0001
0000
1000
0100
1000
0000
0010
0000
0100
0000
0001
0000
,  // measure 44
1000
0000
1100
0000
0001
0000
1000
0010
,  // measure 45
0100
0000
0000
0000
0101
0000
0001
1000
0001
0000
0100
0000
0001
0000
1000
0000
,  // measure 46
2000
0000
3200
0000
0320
0000
0031
1000
,  // measure 47
0001
0000
0000
0000
1000
0000
0100
1000
0100
0000
1000
0000
0010
0000
0100
0000
,  // measure 48
0210
0000
0302
0000
2003
0000
3010
1000
,  // measure 49
0001
1000
0020
0000
0130
0001
0100
0010
,  // measure 50
2000
0000
3200
0000
0320
0000
0031
1000
,  // measure 51
0001
0000
0000
0000
1000
0000
0010
0100
0010
0000
1000
0000
0001
0000
1000
0000
,  // measure 52
0101
0000
1001
0000
0001
1000
0100
0000
,  // measure 53
1100
0000
1001
0000
1000
0100
0010
0001
,  // measure 54
0100
0100
0010
0100
0001
0001
0100
0010
,  // measure 55
2000
0000
3001
0000
1000
0100
0010
0001
,  // measure 56
2000
0000
3100
0000
0001
0010
0100
1000
,  // measure 57
0002
0000
0103
0000
1001
0000
1000
1000
,  // measure 58
0200
0000
0310
0000
0001
0010
0100
0000
,  // measure 59
1000
0100
0100
0010
0001
1000
1001
0000
,  // measure 60
0101
0100
0010
1000
0001
0010
0001
1000
,  // measure 61
0100
0000
1000
0000
0001
0000
1000
0100
1000
0000
0010
0000
0100
0000
0001
0000
,  // measure 62
1000
0010
0100
0001
2000
0000
3100
0010
,  // measure 63
0002
0000
0000
0000
0103
0000
0010
1000
0010
0000
0100
0000
0001
0000
1000
0000
,  // measure 64
0010
0100
0010
0100
0001
1000
0100
0010
,  // measure 65
0001
1000
0001
1000
0010
0100
0001
1000
,  // measure 66
0200
0000
1300
0100
0001
0100
1000
0010
,  // measure 67
0200
0000
0000
0000
0301
0000
0100
0010
0100
0000
0001
0000
1000
0000
0001
0000
,  // measure 68
0101
0000
1100
0000
0001
0000
1010
0010
,  // measure 69
0100
0000
1001
0000
1000
0100
0010
0001
,  // measure 70
0100
0010
1000
0000
0001
1000
0001
0000
,  // measure 71
1000
0000
0100
0000
0010
0000
0001
1000
0001
0000
0100
0000
0010
0000
1000
0000
,  // measure 72
0002
0000
0103
0010
2000
0000
3001
0000
,  // measure 73
1000
0100
0010
0001
1000
0001
0100
0010
,  // measure 74
1000
0000
1000
0000
0001
0000
0001
0000
1000
0100
1000
0000
0001
0100
0001
0100
,  // measure 75
0010
1000
0010
0001
0010
0100
0010
1000
,  // measure 76
0010
0100
0010
0100
1000
0100
0001
0100
,  // measure 77
0010
0000
0000
0000
;

//---------------dance-double - ----------------
#NOTES:
     dance-double:
     :
     Challenge:
     7:
     0.524333,0.526441,0.215902,0.640509,0.000000,391.000000,30.000000,89.000000,0.000000,0.000000,0.000000,0.524333,0.526441,0.215902,0.640509,0.000000,391.000000,30.000000,89.000000,0.000000,0.000000,0.000000:
00000000
00000000
00000000
00000000
,
00000000
00000000
00000000
00000000
,
00000000
00000000
00000000
00000000
,
00000000
00000000
00000000
00000000
,
20000000
00000000
32000000
00000000
03200000
00000000
00310000
10000000
,
00010000
10000000
00020000
00000000
01030000
00000000
00100000
00100000
,
20000000
00000000
32000000
00000000
03200000
00000000
00310000
00100000
,
00020000
00000000
00230000
00000000
00301000
00010000
00001000
00010000
,
00002000
00000000
00023000
00000000
00030200
00000000
00001300
00000010
,
00001000
00000010
00000200
00000000
00000301
00000000
00001000
00000001
,
00002000
00000000
00003002
00000000
00000203
00000000
00000310
00001000
,
00000020
00000100
00000130
00000000
,
00000201
00000000
00000310
00000000
00001000
00000001
00001000
00000000
,
00000100
00000100
00000010
00000000
00000001
00000000
00001000
00000100
,
00002000
00003002
00000203
00000320
,
00002030
00000000
00003000
00000000
00000001
00000100
00000001
00000100
,
00000010
00000010
00001010
00001100
,
00010000
00010000
00010100
00011000
,
00100000
00100000
00110000
10010000
,
00100000
00000000
10010000
00000000
10000000
01000000
00100000
00010000
,
02000000
00010000
03010000
00000000
,
20000000
01000000
31000000
00000000
,
00020000
00000000
00030000
00100000
00100000
00000000
00001000
00100000
,
00002000
00013000
00000100
00001000
,
00000020
00000000
00000030
00000100
00000100
00000000
00000010
00001000
,
00000002
00000010
00000013
00000000
,
00002000
00000000
00003010
00000100
00000002
00000000
00000013
00000100
,
00002000
00000001
00003001
00000000
,
00002100
00003001
00000102
00001003
,
00002001
00000000
00003000
00000000
00000001
00000100
00000010
00001000
,
00000200
00000000
00010000
00000300
00010000
00000000
00001000
00000000
,
00100000
00010000
00110000
00101000
,
00012000
00000000
00100000
00100000
00103000
00000000
00010000
00000000
,
00100000
00000000
00010000
10000000
20000000
00000000
30100000
00000000
,
20100000
00000000
00010000
00010000
30010000
00000000
01000000
00000000
,
01010000
00000000
00000000
10010000
,
00200000
00000000
10300000
01000000
20000000
00000000
30010000
00100000
,
01000000
10000000
00100000
01000000
00100000
10000000
01000000
00100000
,
00020000
00000000
00130000
00001000
00020000
00000000
00031000
00010000
,
00000100
00001000
00000100
00010000
00000100
00001000
00000100
00000010
,
00000002
00000000
00000203
00000000
00000320
00000000
00001030
00001000
,
00000200
00000000
00010300
00000000
00000100
00001000
00000010
00000100
,
00000020
00000000
00001030
00000000
00000020
00000000
00010030
00000010
,
00002000
00000000
00003010
00000100
00000001
00001000
00000100
00000010
,
00000002
00000000
00002003
00000000
00003200
00000000
00010300
00000100
,
00010000
00000100
00002000
00000000
00003010
00000000
00000100
00000100
,
00000020
00000000
00002030
00000000
00003002
00000000
00000013
00000001
,
00002000
00000000
00003100
00000000
00000001
00001000
00000100
00001000
,
00000002
00000000
00000103
00000000
00000020
00000000
00001030
00000100
,
00010000
00000100
00002000
00000000
00003010
00001000
00000100
00010000
,
00002000
00000000
00203000
00000000
00302000
00000000
00103000
00010000
,
02000000
00100000
03100000
00000000
,
01010000
00000000
11000000
00000000
00010000
10000000
00100000
00000000
,
11000000
00000000
01010000
00000000
10000000
01000000
00100000
00010000
,
01000000
01000000
00010000
00100000
00001000
00001000
00100000
00010000
,
20000000
00000000
30100000
00000000
10000000
00100000
01000000
00000000
,
02010000
00000000
03100000
00000000
00100000
01000000
00010000
00000000
,
10000000
00000000
01000000
00000000
11000000
00000000
00010000
00010000
,
20000000
00000000
30100000
00000000
10000000
00010000
00200000
00000000
,
00310000
01000000
01000000
00100000
10000000
00010000
01010000
00000000
,
20010000
00000000
31000000
00010000
01000000
10000000
00010000
01000000
,
00100000
10000000
00100000
01000000
00100000
10000000
00100000
01000000
,
00020000
00000000
00130000
00001000
00020000
00000000
00031000
00010000
,
00000200
00000000
00001300
00000010
00000100
00000010
00000001
00000010
,
00000200
00000000
00000301
00000100
00000020
00000000
00001030
00000010
,
00000100
00000001
00002000
00000000
00003001
00000010
00000100
00001000
,
00000020
00000000
00001030
00000100
00020000
00000000
00030100
00001000
,
00000002
00000000
00000103
00000000
00000010
00000100
00000001
00001000
,
00001001
00001100
00010100
00011000
,
00210000
00000000
00301000
00000000
00100000
00010000
01000000
00100000
,
10000000
00100000
10000000
00100000
02000000
00000000
03010000
00000000
,
10000000
01000000
20000000
00000000
30020000
00000000
00230000
00000000
,
00302000
00000000
00013000
00000100
00002000
00000000
00003010
00000000
,
00000100
00000001
00000100
00000000
00000010
00001000
00000010
00000000
,
00001000
00000100
00001000
00000100
00010000
00001000
00100000
00010000
,
00100000
00100000
00002000
00000000
00023000
00000000
00031000
00100000
,
00020000
00000000
10030000
01000000
10000000
00010000
01000000
00010000
,
10000000
00000000
00000000
00000000
;

//---------------dance-single - ----------------
#NOTES:
     dance-single:
     :
     Medium:
     5:
     0.381427,0.498733,0.179918,0.482181,0.000000,279.000000,25.000000,67.000000,0.000000,0.000000,0.000000,0.381427,0.498733,0.179918,0.482181,0.000000,279.000000,25.000000,67.000000,0.000000,0.000000,0.000000:
0000
0000
0000
0000
,
0000
0000
0000
0000
,
0000
0000
0000
0000
,
0000
0000
0000
0000
,
0002
2003
3100
0100
,
2000
3002
0103
0100
,
0002
2003
3020
0230
,
0302
0000
0003
0000
0100
0010
0100
0000
,
2010
0010
3010
0000
,
1002
1000
1003
0000
,
0102
0103
0020
2030
,
3002
0000
0003
0000
,
1000
1000
0100
1000
,
0001
0001
0100
0001
,
1000
1000
0010
0010
,
1000
0000
0000
0000
0010
1000
0010
0000
,
1001
1001
1001
1001
,
0101
0101
0101
0101
,
1001
1001
1001
1001
,
1100
0000
1100
0000
0001
0010
0100
1000
,
0002
0100
0103
0000
,
2000
0100
3100
0000
,
0002
0010
0013
0000
,
2000
0010
3010
0000
,
0002
1000
1003
0000
,
2000
0001
3001
0000
,
2000
3200
0320
0032
,
0200
0000
0000
0000
0303
0000
0001
1000
,
0002
0003
2000
3000
,
0020
0000
0030
0000
1000
0100
1000
0000
,
0002
0100
0103
0000
,
0000
0000
2000
3002
,
0203
0000
0000
0020
0000
0000
0330
0000
,
0000
0000
0200
0302
,
2003
0000
0000
0200
0000
0000
3300
0000
,
0000
0000
0000
1001
,
1001
0100
1000
0010
,
0010
0000
0000
0000
1000
0100
1000
0000
,
0010
1000
0001
0001
,
0100
0000
0000
0000
0001
1000
0001
0000
,
0010
0010
0001
1000
,
0100
0000
0000
0000
1000
0010
1000
0000
,
0001
0001
1000
0010
,
0010
0000
0000
0000
1000
0001
1000
0001
,
0100
0100
0010
1000
,
0100
0100
1000
0000
,
0002
0000
0023
0000
0230
0000
1300
0001
,
2000
0000
3000
0000
0010
1000
0010
0000
,
1000
1000
0001
1000
,
0010
0010
0100
0000
,
0002
0000
0203
0000
0320
0000
1030
0001
,
2000
0100
3100
0000
,
1100
0001
1000
0000
,
0101
1000
0010
0000
,
1000
0100
1000
0000
0001
0010
0001
0000
,
1000
0000
0010
0010
,
2002
3003
0010
0010
,
2002
0000
3003
0000
0001
0100
0010
1000
,
0002
0100
0103
0000
,
0000
1000
0100
0000
1100
0000
0101
0000
,
2000
0000
3001
0000
1000
0010
1000
0000
,
0002
0000
1003
0000
0001
0010
0001
0000
,
0200
0000
0300
0010
0020
0000
1030
0001
,
2000
3100
0010
0001
,
1000
0000
0010
0000
0100
0100
0100
0000
,
0010
0000
1000
0000
0100
0100
0100
0000
,
0010
0000
0001
1000
0001
0000
1000
0001
,
2000
0000
3000
0000
0001
0010
0001
0010
,
0200
1300
0020
0130
,
0002
0000
0003
0000
1000
0100
1000
0000
,
0002
1003
0010
0100
,
0010
1000
0010
0000
2000
0000
3100
0000
,
0020
0000
0000
0002
0000
0000
0033
0000
,
0001
1000
0010
0010
,
1000
0001
1000
0000
0001
0010
0100
1000
,
0002
0103
0020
0130
,
0002
0000
1003
0000
1000
0100
0010
0001
,
0100
0000
0000
0000
;

//---------------dance-single - ----------------
#NOTES:
     dance-single:
     :
     Easy:
     3:
     0.212818,0.304781,0.021590,0.136738,0.000000,185.000000,3.000000,19.000000,0.000000,0.000000,0.000000,0.212818,0.304781,0.021590,0.136738,0.000000,185.000000,3.000000,19.000000,0.000000,0.000000,0.000000:
0000
0000
0000
0000
,
0000
0000
0000
0000
,
0000
0000
0000
0000
,
0000
0000
0000
0000
,
0100
0100
0010
0000
,
1000
1000
0100
0000
,
0010
0010
0001
0000
,
0001
0001
1000
0000
,
0001
0100
0001
0000
,
1000
0100
1000
0000
,
0001
0010
0001
0000
,
1000
0010
1000
0000
,
0001
1000
1000
0000
,
0001
1000
1000
0000
,
1000
0001
0001
0000
,
1000
0001
0001
0000
,
1000
1000
0100
0100
,
0010
0010
0001
0000
,
0001
0001
0010
0010
,
0100
0100
1000
0000
,
2002
3003
0000
0000
,
0020
0030
0000
0000
,
2000
3000
0000
0000
,
0002
0003
0000
0000
,
0200
0300
0100
0000
,
0020
0030
0010
0000
,
2000
3000
1000
0000
,
0002
0003
0000
1000
,
0200
0300
0020
0030
,
0002
0003
0100
0100
,
0200
0000
0000
0300
,
0010
0000
0010
0010
,
2000
3000
0000
0000
,
0002
0003
0000
0000
,
0100
0000
0100
0000
,
0100
0000
0000
0010
,
1001
0000
1000
0000
,
0010
0010
0100
0010
,
1000
0000
0001
0000
,
0100
0100
0001
0100
,
0010
0000
0010
0000
,
1000
0000
1000
0000
,
0001
0001
1000
1000
,
0100
0000
1000
0000
,
0001
0010
0001
0000
,
1000
0000
1000
0000
,
0001
0010
0001
0000
,
1000
0000
0001
0000
,
1000
0010
1000
0000
,
0001
0000
0001
0000
,
1000
0010
1000
0000
,
0001
0000
1000
0000
,
0010
0010
0010
0000
,
1000
0000
0001
0000
,
0100
0100
0100
0000
,
0100
0000
0001
0100
,
0001
0000
1000
0100
,
1000
0000
0010
0010
,
0010
0000
0000
0000
,
1000
0001
1000
0000
,
1001
0000
1000
0000
,
0010
0000
0010
0000
,
1000
0000
0001
0010
,
0100
0000
1000
0000
,
0010
0000
1000
1000
,
0100
0000
1000
0000
,
0001
0000
0010
0010
,
0001
0000
0100
0000
,
0002
0003
2000
3000
,
0010
0000
1000
0001
,
1000
0000
0010
0000
,
0100
0000
0001
1000
,
0002
0003
0200
0300
,
0010
0000
1000
0000
,
0001
0010
0100
1000
,
0010
0010
0100
0000
,
0001
0001
0100
0001
,
1000
0000
0000
0000
;

//---------------dance-single - ----------------
#NOTES:
     dance-single:
     :
     Beginner:
     1:
     0.103839,0.138537,0.007197,0.000000,0.000000,100.000000,1.000000,0.000000,0.000000,0.000000,0.000000,0.103839,0.138537,0.007197,0.000000,0.000000,100.000000,1.000000,0.000000,0.000000,0.000000,0.000000:
0000
0000
0000
0000
,
0000
0000
0000
0000
,
0000
0000
0000
0000
,
0000
0000
0000
0000
,
0001
0000
0000
0000
,
1000
0000
0000
0000
,
0010
0000
0010
0000
,
0010
0000
0000
0000
,
1000
0000
0000
0000
,
0001
0000
0000
0000
,
0100
0000
0100
0000
,
0100
0000
0000
0000
,
0001
0000
0000
0000
,
0010
0000
0000
0000
,
0100
0000
0000
0000
,
1000
0000
0000
0000
,
0010
0010
0000
0000
,
0010
0010
0000
0000
,
1000
1000
0000
0000
,
1000
1000
0000
0000
,
0001
0000
0000
0000
,
1000
0000
0000
0000
,
0010
0000
0000
0000
,
0100
0000
0000
0000
,
0001
0000
0000
0000
,
0100
0000
0000
0000
,
0010
0000
0000
0000
,
1000
0000
0000
0000
,
0100
0000
0100
0000
,
0100
0000
0000
0000
,
0010
0000
0000
0000
,
0001
0000
0001
0000
,
0001
0000
0000
0000
,
1000
0000
1000
0000
,
1000
0000
0000
0000
,
0010
0000
0000
0100
,
0100
0000
0000
0000
,
0001
0000
1000
0000
,
0010
0000
0000
0000
,
1000
0000
1000
0000
,
1000
0000
0000
0000
,
1000
0000
0001
0000
,
0100
0000
0000
0000
,
0001
0000
0001
0000
,
0001
0000
0000
0000
,
1000
0000
0000
0000
,
0010
0000
0010
0000
,
0010
0000
0000
0000
,
1000
0000
0000
0000
,
0001
0000
0000
0000
,
1000
0000
1000
0000
,
1000
0000
0000
0000
,
0001
0001
0000
0000
,
0100
0000
0000
0000
,
0010
0010
0000
0000
,
1000
0000
1000
0000
,
1000
0000
0000
0000
,
0001
0000
0001
0000
,
0001
0000
0000
0000
,
0100
0000
0000
0000
,
1001
0000
0000
0000
,
1000
0000
1000
0000
,
1000
0000
0000
0000
,
0001
0000
1000
0000
,
0001
0000
0000
0000
,
0001
0000
0001
0000
,
0001
0000
0000
0000
,
1000
0000
0001
0000
,
1000
0000
0000
0000
,
0010
0000
0000
0000
,
0100
0000
0000
0000
,
0000
0000
0001
0001
,
0001
0000
0000
0000
,
1000
0000
0000
0000
,
0000
0000
1000
1000
,
1000
0000
0000
0000
,
0001
0000
0000
0000
,
0100
0000
0000
0000
;
