#TITLE:Latino Virus;
#SUBTITLE:;
#ARTIST:Warak;
#TITLETRANSLIT:;
#SUBTITLETRANSLIT:;
#ARTISTTRANSLIT:;
#GENRE:Beethoven Influenza;
#CREDIT:;
#BANNER:Latino Virus.png;
#BACKGROUND:Latino Virus-bg.png;
#LYRICSPATH:;
#CDTITLE:cdtitle.png;
#MUSIC:Latino Virus.ogg;
#OFFSET:-0.527000;
#SAMPLESTART:19.686308;
#SAMPLELENGTH:14.339993;
#SELECTABLE:YES;
#BPMS:0.000000=170.000000
;
#STOPS:
;
#BGCHANGES:4.000=Latino Virus.avi=1.000=0=0=1=====,
99999=-nosongbg-=1.000=0=0=0 // don't automatically add -songbackground-
;
#KEYSOUNDS:;
#ATTACKS:;

//---------------dance-single - ----------------
#NOTES:
     dance-single:
     :
     Hard:
     9:
     0.711711,0.693145,0.311915,0.571844,0.190615,473.000000,36.000000,66.000000,0.000000,0.000000,0.000000,0.711711,0.693145,0.311915,0.571844,0.190615,473.000000,36.000000,66.000000,0.000000,0.000000,0.000000:
0000
0000
0000
0000
,
0000
0000
0000
0000
,
0000
0000
0000
0000
,
0000
0000
0000
0000
,
1000
0100
0000
0000
0101
0000
0000
0000
,
0001
0100
0000
0000
1100
0000
0000
0000
,
1010
1001
0011
1001
,
1100
1001
0102
0000
,
0103
0010
2000
0000
3100
0010
0002
0000
,
1003
0100
0010
0001
0100
0100
0001
1000
,
0010
0100
0002
0000
0013
0100
2000
0000
,
3001
0010
0100
1000
0010
0010
0100
0001
,
1000
0100
0010
0100
0001
0100
0010
0100
,
2000
0002
0000
3003
,
0201
0000
0301
0100
0020
0000
0130
0010
,
2000
0000
0000
3001
0010
0100
1000
0010
,
0100
0001
1000
0100
1100
0000
0011
0000
,
2001
0000
0000
0000
0000
0000
0000
0000
3010
0000
0100
0000
0001
0010
0001
0010
,
0200
0000
0000
0000
0000
0000
0000
0000
1300
0000
0001
0000
0100
0010
0100
0010
,
2000
0000
0000
0000
3001
0010
0100
1000
,
0010
0010
0100
0001
1000
1000
0100
0010
,
0002
0000
0000
0000
0000
0000
0000
0000
0103
0010
0100
0000
0001
0000
1000
0000
,
1020
0000
1030
0010
0200
0000
0310
0100
,
0002
0000
0000
0000
0003
1000
0100
0010
,
0011
1001
1100
1010
,
0102
0000
0000
0000
0000
0000
0000
0000
1003
0000
0001
0000
0100
0010
0100
0010
,
2000
0000
0000
0000
0000
0000
0000
0000
3001
0000
0010
0000
0100
1000
0100
1000
,
0002
0000
0000
0000
0103
0010
1000
0001
,
0010
0010
0001
1000
0100
0100
0010
0001
,
0200
0000
0000
0000
0000
0000
0000
0000
0310
0000
0100
0001
0100
0000
0010
0000
,
1000
1000
0100
0010
0001
1000
0010
0100
,
0001
1000
0000
0000
1000
0100
0000
0000
0100
0010
0000
0000
0010
0001
0000
0000
,
0100
0100
0010
1000
0100
0010
0001
1000
,
0001
0100
0000
0000
0100
0010
0000
0000
0010
1000
0000
0000
1000
0100
0000
0000
,
1000
0000
0001
0000
0100
0010
0100
0010
0200
0000
0000
0000
0301
0000
0000
0000
,
0100
0010
1000
0100
0010
0001
1000
0000
,
0001
0010
0100
2000
0000
3002
0000
0103
,
0010
0000
0100
0001
0100
0000
0010
0000
2000
0000
0000
0000
3001
0000
0000
0000
,
0201
0000
0000
0000
0000
0000
0310
1000
0010
0000
1000
0000
0001
0000
0000
0000
,
1000
0100
0010
0001
0100
0010
1000
0001
,
0200
0000
0000
0000
0000
0000
0310
1000
0010
0000
0100
0000
0001
0000
0010
0000
,
0100
0100
1000
1000
0010
1000
0100
0010
,
0002
0000
0000
0000
0000
0000
1003
0100
1000
0000
0100
1000
0100
0000
1000
0000
,
0010
0010
0100
0001
1000
0100
0010
0001
,
0200
0000
0000
0000
0000
0000
0310
1000
0010
0000
0100
0000
0001
0000
1000
0000
,
0010
0100
0010
0000
1000
0000
0100
0000
0010
0001
0010
0000
0100
0000
1000
0000
,
0002
0000
0000
0000
0103
0010
0100
0001
,
1000
0100
0010
0001
2000
0000
3010
1000
,
0002
0000
0000
0000
0103
0010
0100
0001
,
0010
0010
0001
1000
0010
0100
0001
0000
,
1000
0002
0000
0203
0000
0320
0000
1030
,
0100
1000
0001
0020
0000
0032
0000
1003
,
0100
1000
0001
1000
0010
0100
0010
1000
,
0100
0010
0001
1000
1010
0000
0000
0000
,
0000
0000
0000
0000
0000
0001
0100
0001
,
2001
0000
3100
1000
0002
0000
0103
0001
,
2000
0000
0000
3010
1000
0100
0010
0001
,
1000
0010
0100
0001
0101
0000
1001
0000
,
1200
0000
0000
0000
0000
0000
0000
0000
0310
0000
0001
0000
1000
0001
1000
0001
,
0200
0000
0000
0000
0000
0000
0000
0000
0310
0000
1000
0000
0001
0100
0001
0100
,
0020
0000
0000
0000
1030
0100
0010
0001
,
1000
1000
0001
0100
0010
0010
0100
0001
,
2000
0000
0000
0000
0000
0000
0000
0000
3001
0100
0001
0000
0100
0000
0010
0000
,
2010
0000
3001
0100
0020
0000
1030
0100
,
0020
0000
0000
0000
0000
0000
0000
0000
0030
0000
0001
1000
0001
1000
0001
1000
,
0010
1010
0101
1001
,
1200
0000
0000
0000
0000
0000
0000
0000
0310
0000
0001
0000
1000
0100
1000
0100
,
0020
0000
0000
0000
0000
0000
0000
0000
0031
0000
1000
0000
0010
0100
0010
0100
,
0002
0000
0000
0000
0103
0001
1000
0010
,
0100
0100
0001
1000
0100
0100
0010
0001
,
2000
0000
0000
0000
0100
0000
0000
0000
3001
0000
1000
0000
0010
0100
0010
0100
,
0002
0000
0000
0000
0000
0000
0000
0000
0103
0000
0010
0000
1000
0100
1000
0100
,
0020
0000
0000
0000
0031
0010
0100
1000
,
0001
0001
0100
0010
1000
1000
0010
1000
,
0002
0100
1000
0013
,
2100
0000
0100
0000
0000
0000
0001
3000
0010
0000
0100
0000
0010
0000
0001
0000
,
0100
0200
0000
0310
1000
0010
0100
0001
,
2000
3200
0320
0031
,
2200
3300
0202
0303
,
2010
3001
0022
0033
,
1001
0000
0000
0000
;

//---------------dance-single - ----------------
#NOTES:
     dance-single:
     :
     Challenge:
     11:
     0.932032,1.000000,0.268594,0.320579,0.684480,685.000000,31.000000,37.000000,0.000000,0.000000,0.000000,0.932032,1.000000,0.268594,0.320579,0.684480,685.000000,31.000000,37.000000,0.000000,0.000000,0.000000:
0000
0000
0000
0000
,
0000
0000
0000
0000
,
0000
0000
0000
0000
,
0000
0000
0000
0000
,
1100
0002
0000
0000
0103
0010
1000
0001
,
0011
2000
0000
0000
3001
0010
0100
1000
,
1100
0000
0000
0000
0011
0000
0000
0000
0101
0000
0000
0000
1010
0000
0000
0001
,
1000
0000
0000
0000
0011
0000
0000
0000
1001
0000
0000
1000
0010
0000
0000
0000
,
1000
0100
0020
0000
0031
0100
0020
0000
,
1030
0100
1000
0100
0010
0001
0100
0010
1000
0100
0010
0001
0100
0010
0100
0010
,
1000
0001
0200
0000
0301
1000
0200
0000
,
1300
0010
1000
0010
0100
0001
1000
0100
0010
0001
0100
0010
1000
0001
1000
0001
,
0100
0100
0010
0010
1000
1000
0100
0010
,
0001
0000
2200
0000
3300
0001
0100
0001
,
1001
0000
0000
0000
1000
0000
0010
0100
0010
0000
1000
0000
0100
0000
0010
0000
,
0000
0000
0010
0000
0001
0000
1000
0100
1000
0000
0001
0000
0100
0000
0010
0000
,
1000
0000
1000
0100
0010
0000
0001
0000
0100
0000
0001
0000
0100
0000
0010
0000
,
2000
0000
0000
0000
3001
0000
0010
0100
1000
0000
0001
0000
0100
0010
1000
0010
,
0200
0000
0000
0000
0301
0000
1000
0000
0100
0000
0010
0000
0001
1000
0010
1000
,
0002
0000
0000
0000
0013
0000
0100
0000
1000
0000
0001
0000
0100
0010
0100
0010
,
2000
0000
0000
0000
3100
1000
0100
1000
0002
0000
0000
0000
0013
0001
0010
0001
,
1000
0000
0010
0000
1010
0000
1000
0000
0001
0100
0001
0000
1000
0000
0100
0000
,
1100
0000
0000
0000
0001
0000
0100
0010
0100
0000
0001
0000
0010
0000
0100
0000
,
0000
0000
0100
0000
1000
0000
0001
0010
0001
0000
1000
0100
0010
0001
0100
0010
,
1000
0001
0100
0010
0100
0010
1000
0100
,
1000
0000
0001
0100
0001
0000
1000
0100
1000
0000
0000
0000
0010
0100
0001
0100
,
0020
0000
0000
0000
1030
0000
0001
0000
0010
0000
0100
0000
1000
0001
0100
0001
,
2000
0000
0000
0000
3100
0000
0010
0000
0001
0000
1000
0000
0010
0100
0010
0100
,
0002
0000
0000
0000
0013
0001
0010
0001
2000
0000
0000
0000
3100
1000
0100
1000
,
0001
0000
0100
0000
0101
0000
0001
0000
1000
0000
1000
0001
1000
0000
0010
0000
,
1010
0010
0100
0001
1000
0100
0010
0001
,
1000
0100
1000
0100
0010
0001
0010
0001
1000
0010
1000
0010
0100
0001
0100
0001
,
0100
0010
1000
0100
0010
0001
1000
0010
,
0100
0001
0100
0001
1000
0100
1000
0100
0010
0001
0010
0001
1000
0010
1000
0010
,
1000
0000
0001
0010
0100
1000
0010
0100
0002
0000
0000
0000
2003
0000
0000
0000
,
3010
0100
0010
1000
0100
1000
0010
0100
0001
0000
1000
0100
0010
0001
0100
0010
,
1000
0100
1000
0100
0010
0000
0002
0000
0000
0000
0203
0000
0000
0000
0310
0000
,
1000
0000
0001
1000
0001
0100
0010
0100
0002
0000
0000
0000
1003
0000
0000
0000
,
1100
0000
0100
0000
0010
0000
0001
1000
0001
0000
1000
0000
0010
0000
1000
0000
,
0001
0100
0001
0100
0010
0100
0010
0100
1000
0100
1000
0100
0010
0100
0010
0100
,
0001
0000
1000
0000
0100
0000
0010
0001
0010
0000
0100
0000
1000
0000
0001
0000
,
1000
0010
1000
0010
0100
0010
0100
0010
0001
0010
0001
0010
0100
0010
0100
0010
,
1000
0000
0001
0000
1000
0000
0010
0100
0001
0010
0100
1000
0001
0100
0010
1000
,
0001
0000
0010
0100
0010
0000
0001
0000
1000
0000
0010
0000
0100
0000
0001
0000
,
1000
0000
0100
0000
0010
0000
0001
1000
0001
0000
1000
0000
0010
0000
0100
0000
,
0001
0010
0100
1000
0100
0010
0001
0010
0001
0100
0010
1000
0100
0010
0001
1000
,
0010
0100
0001
0010
0100
1000
0001
0100
,
0010
1000
0100
0010
0001
1000
0010
1000
,
0001
0010
0100
1000
0001
0100
0010
1000
,
0100
0010
0001
0100
0010
1000
0100
0010
,
0001
0001
0100
0010
0100
0001
0010
0100
,
1000
1000
0100
1000
0010
0100
0001
1000
,
0010
0010
0100
0100
0001
0001
0010
0010
,
0001
0010
0100
1000
1001
0000
0000
0000
,
0020
0000
0000
0000
0000
0130
0001
1000
,
1001
0000
0000
0000
0001
0000
0100
0010
0100
0000
0001
0000
0010
0000
0100
0000
,
0000
0000
0100
0000
1000
0000
0001
0010
0001
0000
1000
0000
0010
0000
0100
0000
,
0001
0000
0001
0010
0100
0000
1000
0000
0010
0000
1000
0000
0010
0000
0100
0000
,
0002
0000
0000
0000
1003
0000
0100
0010
0001
0000
1000
0000
0010
0100
0001
0100
,
0020
0000
0000
0000
1030
0000
0001
0000
0010
0000
0100
0000
1000
0001
0100
0001
,
2000
0000
0000
0000
3100
0000
0010
0000
0001
0000
1000
0000
0010
0100
0010
0100
,
0002
0000
0000
0000
0013
0001
0010
0001
2000
0000
0000
0000
3100
1000
0100
1000
,
0001
0000
0100
0000
0101
0000
0001
0000
1000
0010
1000
0000
0001
0000
0010
0000
,
0011
0000
0000
0000
1000
0000
0010
0100
0010
0000
1000
0000
0100
0000
0010
0000
,
0000
0000
0010
0000
0001
0000
1000
0100
1000
0000
0001
0010
0100
1000
0010
0100
,
0001
1000
0010
0100
0010
0100
0001
0010
,
0001
0000
1000
0010
1000
0000
0001
0010
0001
0000
0000
0000
0100
0010
1000
0010
,
0200
0000
0000
0000
0301
0000
1000
0000
0100
0000
0010
0000
0001
1000
0010
1000
,
0002
0000
0000
0000
0013
0000
0100
0000
1000
0000
0001
0000
0100
0010
0100
0010
,
2000
0000
0000
0000
3100
1000
0100
1000
0002
0000
0000
0000
0013
0001
0010
0001
,
1000
0000
0010
0000
1010
0000
1000
0000
0001
1000
0001
0000
0100
0010
0100
0010
,
2000
0000
0000
0000
0000
0000
0000
0000
3100
0000
1000
0000
0010
0100
0010
0100
,
0002
0000
0000
0000
0000
0000
0000
0000
0013
0000
0100
0000
0010
0001
0010
0001
,
0010
0000
0001
0000
1000
0001
1000
0001
1000
0000
0001
0000
1000
0010
1000
0010
,
2000
0001
0100
3010
,
0101
0200
0000
0000
0310
0100
0001
0010
,
0110
0200
0000
0000
1300
0100
0010
0001
,
0011
1010
1100
0101
,
1001
1000
0100
0000
1001
0001
0100
0000
,
1001
1000
0010
0000
1001
0001
0010
0000
,
1100
0000
0000
0000
;

//---------------dance-double - ----------------
#NOTES:
     dance-double:
     :
     Challenge:
     9:
     0.745131,0.831774,0.311915,0.649823,0.255597,491.000000,36.000000,75.000000,0.000000,0.000000,0.000000,0.745131,0.831774,0.311915,0.649823,0.255597,491.000000,36.000000,75.000000,0.000000,0.000000,0.000000:
// measure 0
00000000
00000000
00000000
00000000
,  // measure 1
00000000
00000000
00000000
00000000
,  // measure 2
00000000
00000000
00000000
00000000
,  // measure 3
00000000
00000000
00000000
00000000
,  // measure 4
00000001
00000200
00000000
00000000
00001300
00000000
00000000
00000000
,  // measure 5
00000100
00002000
00000000
00000000
00013000
00000000
00000000
00000000
,  // measure 6
00011000
00011000
01010000
01010000
,  // measure 7
11000000
11000000
20020000
30030000
,  // measure 8
00100000
10000000
00200000
00000000
10300000
01000000
20000000
00000000
,  // measure 9
30010000
00100000
01000000
10000000
00100000
01000000
00010000
00100000
,  // measure 10
00001000
00100000
00002000
00000000
00013000
00001000
00020000
00000000
,  // measure 11
00030100
00001000
00000100
00001000
00000010
00000100
00000001
00000010
,  // measure 12
00000100
00000100
00001000
00001000
00000010
00000100
00000001
00001000
,  // measure 13
00000100
00020200
00000000
00030300
,  // measure 14
00000102
00000000
00000103
00000010
00002000
00000000
00003100
00000010
,  // measure 15
00000002
00000000
00000000
00000000
00001003
00000000
00000010
00000100
00000010
00000000
00001000
00000000
00000100
00000000
00000010
00000000
,  // measure 16
00000001
00001000
00000100
00010000
00010100
00000000
00010100
00000000
,  // measure 17
00012000
00000000
00000000
00000000
00000000
00000000
00000000
00000000
00103000
00000000
00001000
00000000
00100000
00010000
00100000
00010000
,  // measure 18
02000000
00000000
00000000
00000000
00000000
00000000
00000000
00000000
03100000
00000000
10000000
00000000
01000000
00100000
01000000
00100000
,  // measure 19
00020000
00000000
00000000
00000000
10030000
01000000
00100000
00010000
,  // measure 20
02000000
00000000
03100000
00010000
00002000
00000000
00013000
00001000
,  // measure 21
00000020
00000000
00000000
00000000
00000000
00000000
00000000
00000000
00000031
00000010
00000001
00000000
00000010
00000000
00000100
00000000
,  // measure 22
00002100
00000000
00003001
00000100
00000020
00000000
00001030
00000001
,  // measure 23
00000200
00000000
00000000
00000000
00000010
00000000
00000000
00000000
00000301
00000000
00000100
00000010
00000100
00000010
00000100
00000010
,  // measure 24
00002000
00003200
00020300
00031000
,  // measure 25
00202000
00000000
00000000
00000000
00003000
00000000
00000000
00000000
00310000
00000000
00100000
00000000
00001000
00010000
00001000
00010000
,  // measure 26
00000200
00000000
00000000
00000000
00000000
00000000
00000000
00000000
00001300
00000000
00000010
00000000
00000100
00000001
00000100
00000001
,  // measure 27
00000200
00000000
00000000
00000000
00000310
00001000
00000100
00000010
,  // measure 28
00000001
00000001
00000010
00000100
00001000
00001000
00000100
00010000
,  // measure 29
00002000
00010000
00103000
00000000
,  // measure 30
00001000
00100000
00010000
01000000
00100000
10000000
01000000
00100000
,  // measure 31
00010000
01000000
00000000
00000000
01000000
00100000
00000000
00000000
00100000
10000000
00000000
00000000
10000000
01000000
00000000
00000000
,  // measure 32
10000000
00100000
01000000
00010000
10000000
01000000
00100000
00010000
,  // measure 33
01000000
00010000
00000000
00000000
00010000
00100000
00000000
00000000
00100000
00001000
00000000
00000000
00001000
00010000
00000000
00000000
,  // measure 34
00010000
00000100
00001000
00000010
00000200
00000000
00000302
00000000
,  // measure 35
00001003
00000100
00000010
00000001
00000100
00000010
00001000
00000100
,  // measure 36
00010000
00010000
00000100
00002000
00000000
00003020
00000000
00000130
,  // measure 37
00000001
00000100
00000010
00001000
00000100
00010000
00001000
00000000
,  // measure 38
00102000
00000000
00000000
00000000
00013000
00000100
00002000
00000000
,  // measure 39
00003010
00000100
00000001
00000010
00000100
00001000
00000010
00000100
,  // measure 40
00000002
00000000
00000000
00000000
00001003
00000000
00000010
00000100
00000010
00000000
00000100
00000000
00000001
00000000
00000010
00000000
,  // measure 41
00000100
00000100
00001000
00001000
00000100
00010000
00001000
00100000
,  // measure 42
00020000
00000000
00000000
00000000
00000000
00000000
01030000
00100000
01000000
00000000
00010000
00000000
00100000
00000000
01000000
00000000
,  // measure 43
10000000
10000000
01000000
00100000
00010000
00010000
01000000
00100000
,  // measure 44
20000000
00000000
00000000
00000000
30010000
00000000
00100000
00010000
00100000
00000000
00010000
00000000
01000000
00000000
00100000
00000000
,  // measure 45
10000000
01000000
00100000
00010000
01000000
00001000
00010000
00000100
,  // measure 46
00002000
00000000
00000000
00000000
00003010
00000100
00000001
00000010
,  // measure 47
00000100
00000010
00000001
00001000
00000010
00000100
00000001
00000000
,  // measure 48
00000200
00000000
00000000
00000000
00000310
00001000
00000100
00001000
,  // measure 49
00000100
00010000
00001000
00100000
00010000
01000000
00200000
00000000
,  // measure 50
10300000
02000000
00000000
03200000
00000000
00320000
00000000
01030000
,  // measure 51
00100000
20000000
00000000
32000000
00000000
03200000
00000000
00310000
,  // measure 52
01000000
01000000
00010000
00100000
00001000
00001000
00100000
00001000
,  // measure 53
00010000
00000100
00001000
00000010
00000100
00000000
00000000
00000000
,  // measure 54
00002002
00000000
00000000
00003003
,  // measure 55
00000201
00000000
00000301
00000100
00002000
00000000
00003100
00001000
,  // measure 56
00020000
00000000
00000000
00000000
00031000
00000000
00100000
00010000
00100000
00000000
00001000
00000000
01000000
00000000
00010000
00000000
,  // measure 57
10000000
00100000
01000000
00010000
01010000
00000000
11000000
00000000
,  // measure 58
10020000
00000000
00000000
00000000
01030000
00000000
00000000
00000000
00100000
00000000
10000000
00000000
01000000
00100000
01000000
00100000
,  // measure 59
00020000
00000000
00000000
00000000
01030000
00000000
00000000
00000000
00100000
00000000
01000000
00000000
00010000
10000000
00010000
10000000
,  // measure 60
02000000
00000000
00000000
00000000
03100000
00000000
00000000
00000000
00010000
00000000
00100000
00000000
01000000
10000000
01000000
10000000
,  // measure 61
00010000
00000000
00000000
00000000
00100000
00010000
00100000
00010000
01000000
00000000
00000000
00000000
00010000
10000000
00010000
10000000
,  // measure 62
00100000
00000000
01000000
00000000
00010000
00000000
00100000
00000000
00001000
00010000
00001000
00000000
00100000
00000000
00010000
00000000
,  // measure 63
02010000
00000000
03100000
10000000
02000000
00000000
03100000
00010000
,  // measure 64
20000000
00000000
00000000
00000000
01000000
00000000
00000000
00000000
30010000
00000000
10000000
01000000
10000000
01000000
10000000
01000000
,  // measure 65
00100000
00110000
00011000
00101000
,  // measure 66
00010200
00000000
00000000
00000000
00000000
00000000
00000000
00000000
00001300
00000000
00000010
00000000
00000100
00000001
00000100
00000001
,  // measure 67
00000200
00000000
00000000
00000000
00000320
00000000
00000000
00000000
00001030
00000000
00000100
00000000
00010000
00001000
00010000
00001000
,  // measure 68
00020000
00000000
00000000
00000000
00030100
00000000
00000000
00000000
00001000
00000000
00000010
00000000
00000100
00000001
00000100
00000001
,  // measure 69
00002000
00000000
00000000
00000000
00003100
00001000
00000100
00001000
00000020
00000000
00000000
00000000
00000130
00000001
00000100
00000001
,  // measure 70
00002000
00000000
00000000
00000000
00003010
00000000
00000000
00000000
00000100
00000000
00000001
00000000
00000010
00000100
00000010
00000100
,  // measure 71
00000020
00000000
00000000
00000000
00000230
00000000
00000000
00000000
00001300
00000000
00000100
00000000
00010000
00001000
00010000
00001000
,  // measure 72
00020000
00000000
00000000
00000000
00032000
00000000
00000000
00000000
00103000
00000000
00010000
00000000
01000000
00010000
01000000
00010000
,  // measure 73
20000000
00000000
00000000
00000000
31000000
10000000
01000000
10000000
00020000
00000000
00000000
00000000
00130000
00010000
00100000
00010000
,  // measure 74
20000000
01000000
00010000
30100000
,  // measure 75
10010000
00020000
00000000
00000000
01030000
00100000
10000000
01000000
,  // measure 76
11000000
00000000
02000000
00000000
00000000
00000000
00000000
03000000
00100000
00000000
00010000
00000000
01000000
00000000
00010000
00000000
,  // measure 77
01010000
11000000
00110000
00101000
,  // measure 78
00010100
00000000
00000110
00000000
,  // measure 79
00011000
00000000
01100000
00000000
,  // measure 80
00011000
00000000
00000000
00000000
;

//---------------dance-single - ----------------
#NOTES:
     dance-single:
     :
     Medium:
     6:
     0.479013,0.589173,0.363901,0.545852,0.000000,282.000000,42.000000,63.000000,0.000000,0.000000,0.000000,0.479013,0.589173,0.363901,0.545852,0.000000,282.000000,42.000000,63.000000,0.000000,0.000000,0.000000:
0000
0000
0000
0000
,
0000
0000
0000
0000
,
0000
0000
0000
0000
,
0000
0000
0000
0000
,
0001
0001
0000
0000
0101
0000
0000
0000
,
1000
1000
0000
0000
1100
0000
0000
0000
,
0001
0001
1000
1000
,
0010
1000
0001
0000
,
1000
0100
1000
0000
0100
1000
0100
0000
,
0020
0030
0020
0030
,
0001
0100
0001
0000
0100
0001
0100
0000
,
0020
0030
0020
0030
,
1000
0100
0010
0001
,
1000
2002
0000
3003
,
0020
0000
2030
0000
,
3002
0000
0013
0100
,
0010
0001
1000
1100
,
1002
0000
0000
0000
0103
0000
0010
1000
,
0020
0000
0000
0000
0130
0000
0001
1000
,
0002
0000
0000
0000
0013
0000
0001
0100
,
0001
0000
1000
0100
1000
0000
0001
0010
,
0002
0000
0000
0003
1000
0000
0010
0000
,
1002
0000
2003
0000
,
3020
0000
0000
0000
0130
0001
0100
0000
,
0110
0110
1001
1001
,
1020
0000
0000
0000
1030
0000
0001
0010
,
0002
0000
0000
0000
0103
0000
0010
1000
,
0020
0000
0000
0000
1030
0000
0001
1000
,
0001
0000
1000
0100
1000
0000
0001
0010
,
0002
0003
1001
0000
,
1000
0010
1000
0001
,
0010
0100
0010
0000
0100
0010
0100
0000
,
1000
0100
1000
0001
,
0010
0001
0010
0000
0001
0010
0001
0000
,
1000
0001
0100
0100
,
0010
1000
0010
0000
0100
0000
0100
0000
,
0001
1000
0100
0010
,
0001
1000
0010
0000
,
2002
3003
0010
1000
,
0001
0010
0001
0000
1000
0000
0010
0000
,
2002
0000
3003
0000
0010
1000
0010
0000
,
1000
0100
0010
0001
,
2200
3300
0101
0101
,
1000
0000
0001
0000
0010
0001
1000
0000
,
2020
3030
0011
0011
,
1000
0000
0001
0000
0100
0010
0100
0000
,
0002
0000
0103
0010
,
2000
0000
3100
0010
,
0002
0003
2000
3000
,
0010
1000
0001
0001
,
0200
0300
0020
0030
,
1000
0100
0020
0030
,
0001
0000
0010
0000
0001
1000
0001
0000
,
1000
0100
1000
0000
0101
0000
0000
0000
,
2000
0000
0000
3000
,
0101
0000
1100
0000
,
1001
0000
0000
0000
1000
0100
0010
0000
,
0001
1000
1010
0011
,
2002
0000
3003
0000
0010
0000
1000
0001
,
2000
0000
3000
0000
0010
0000
1000
0001
,
2000
0000
3000
0000
0100
0000
1000
0100
,
1000
0000
0001
0100
0001
0000
1000
0001
,
2000
3000
0010
1000
,
1002
0003
0020
0030
,
0002
0000
0003
0000
0100
0010
0100
0010
,
2000
3200
0320
0032
,
0203
0000
0300
0000
0010
1000
0010
0000
,
0201
0300
0010
1000
,
1200
0300
0010
0001
,
1100
0101
0011
1010
,
2002
0000
3003
0000
1000
0100
1000
0000
,
0001
0010
0001
0000
2000
0000
3000
0000
,
0010
1000
0010
0000
0200
0000
0300
0000
,
0001
0100
0001
0000
1000
0100
1000
0000
,
0020
0000
0000
0030
,
2002
0000
3003
0000
0010
1000
0010
0000
,
2002
0000
3003
0000
0010
0001
0010
0000
,
0002
0203
0320
1030
,
0101
0000
1100
0000
,
0011
0000
1010
0000
,
1001
0000
0000
0000
;

//---------------dance-single - ----------------
#NOTES:
     dance-single:
     :
     Easy:
     3:
     0.231461,0.311915,0.112636,0.077979,0.000000,165.000000,13.000000,9.000000,0.000000,0.000000,0.000000,0.231461,0.311915,0.112636,0.077979,0.000000,165.000000,13.000000,9.000000,0.000000,0.000000,0.000000:
0000
0000
0000
0000
,
0000
0000
0000
0000
,
0000
0000
0000
0000
,
0000
0000
0000
0000
,
1000
0000
1000
0000
,
0001
0000
0001
0000
,
0100
0100
0010
0010
,
1000
1000
0001
0000
,
1000
0000
1000
0000
,
0100
0000
0010
0010
,
0001
0000
0001
0000
,
0100
0000
0010
0010
,
1000
0000
0001
0000
,
0100
0000
0000
0000
,
0002
0003
2000
3000
,
0020
0030
0000
0000
,
0100
0000
0001
1000
,
0001
0000
0000
1000
,
2000
3000
0100
0000
,
0020
0030
0001
0000
,
0100
0100
0010
0010
,
1000
0000
0000
0000
,
1001
0000
1000
0000
,
0020
0030
0000
0000
,
0100
0100
0010
0010
,
2000
3000
0000
0100
,
0200
0300
0010
0000
,
0020
0030
0001
0000
,
1000
0000
0001
0001
,
0100
0000
0010
0000
,
1000
0000
1000
0000
,
0001
0100
0001
0000
,
1000
0000
1000
0000
,
0001
0100
0001
0000
,
1000
0000
0100
0000
,
0010
0000
0010
0000
,
0001
0000
1000
0000
,
0010
0000
0010
0000
,
1001
0000
0000
0000
,
1000
1000
0100
0100
,
0010
0000
0000
0000
,
0001
0001
0100
0100
,
0010
0000
0000
0000
,
1000
0000
0001
0000
,
0100
0000
0000
0000
,
0001
0000
1000
0000
,
0100
0000
0000
0000
,
0010
0000
0000
0000
,
0001
0000
0000
0000
,
1000
0000
0000
0000
,
0010
0000
0010
0000
,
0100
0000
0100
0000
,
0001
0000
1000
0000
,
0100
0000
1001
0000
,
0010
0000
0000
0000
,
1001
0000
1001
0000
,
1001
0000
0000
0000
,
1000
0000
0100
0010
,
0001
0000
0000
0100
,
0100
0000
0100
0000
,
0010
0000
0010
0000
,
1000
1000
0001
0001
,
0010
0000
0001
0000
,
1001
0000
1000
0000
,
1000
0000
0000
0000
,
0010
1000
0100
0010
,
0001
0000
0000
0100
,
0100
0000
0100
0000
,
0001
0000
0001
0000
,
1000
1000
0001
0001
,
0010
0000
0001
0000
,
1001
0000
1000
0000
,
1001
0000
0001
0000
,
0100
0100
0010
0010
,
1000
0000
0000
0000
,
0001
0000
1001
0000
,
1000
0000
1001
0000
,
0010
1000
0100
0010
,
0001
0000
1000
0000
,
0010
0000
0110
0000
,
1001
0000
0000
0000
;

//---------------dance-single - ----------------
#NOTES:
     dance-single:
     :
     Beginner:
     2:
     0.164622,0.242601,0.060650,0.000000,0.000000,126.000000,7.000000,0.000000,0.000000,0.000000,0.000000,0.164622,0.242601,0.060650,0.000000,0.000000,126.000000,7.000000,0.000000,0.000000,0.000000,0.000000:
0000
0000
0000
0000
,
0000
0000
0000
0000
,
0000
0000
0000
0000
,
0000
0000
0000
0000
,
0001
0000
0001
0000
,
1000
0000
1000
0000
,
0010
0000
0010
0000
,
0100
0000
0100
0000
,
0001
0000
0000
0000
,
1000
0000
1000
0000
,
0100
0000
0000
0000
,
0010
0000
0010
0000
,
0001
0000
1000
0000
,
0010
0000
0000
0000
,
1001
0000
0000
0000
,
1000
0000
0000
0000
,
0010
0000
0100
0100
,
0100
0000
0000
0001
,
0001
0000
0000
1000
,
1000
0000
0000
0000
,
0010
0000
0010
0000
,
0010
0000
0000
0000
,
1001
0000
0000
0000
,
1000
0000
0000
0000
,
0100
0100
0100
0100
,
0100
0000
0000
0010
,
0010
0000
0000
0001
,
0001
0000
0000
0000
,
0100
0000
0100
0000
,
0010
0000
0000
0000
,
1000
0000
1000
0000
,
0001
0000
0001
0000
,
0100
0000
0100
0000
,
0010
0000
0010
0000
,
1000
0000
1000
0000
,
0100
0000
0100
0000
,
0010
0000
0010
0000
,
0001
0000
0001
0000
,
1001
0000
0000
0000
,
1000
1000
1000
0000
,
0010
0000
0000
0000
,
0100
0100
0100
0000
,
0001
0000
0000
0000
,
1000
0000
0001
0000
,
0010
0000
0000
0000
,
0001
0000
1000
0000
,
0010
0000
0000
0000
,
0100
0000
0000
0000
,
0001
0000
0000
0000
,
1000
0000
0000
0000
,
0001
0000
0000
0000
,
1000
0000
0000
0000
,
0001
0000
1000
0000
,
0100
0000
0100
0000
,
0000
0000
0000
0000
,
1001
0000
0000
0000
,
1000
0000
0000
0000
,
0010
0000
0100
0100
,
0100
0000
0000
0001
,
0001
0000
0000
1000
,
1000
0000
0000
0000
,
0010
0000
1000
0000
,
0001
0000
0000
0000
,
1001
0000
0000
0000
,
0001
0000
0000
0000
,
0100
0100
0100
0100
,
0100
0000
0000
0010
,
0010
0000
0000
1000
,
1000
0000
0000
0000
,
0001
0000
0001
0000
,
1000
0000
0000
0010
,
0010
0000
0000
0100
,
0100
0000
0000
0000
,
0001
0000
1000
0000
,
1000
0000
0000
0000
,
1001
0000
0000
0000
,
0010
0000
0000
0000
,
1000
0000
0000
0000
,
0100
0000
0100
0000
,
0010
0000
0010
0000
,
1001
0000
0000
0000
;
