#VERSION:0.83;
#TITLE:Long Time;
#SUBTITLE:;
#ARTIST:Blondie;
#TITLETRANSLIT:;
#SUBTITLETRANSLIT:;
#ARTISTTRANSLIT:;
#GENRE:Disco;
#ORIGIN:;
#CREDIT:;
#BANNER:Long Time.png;
#BACKGROUND:Long Time-bg.png;
#PREVIEWVID:;
#JACKET:jacket.png;
#CDIMAGE:;
#DISCIMAGE:;
#LYRICSPATH:;
#CDTITLE:;
#MUSIC:Long Time.ogg;
#OFFSET:-0.520000;
#SAMPLESTART:69.012871;
#SAMPLELENGTH:13.714000;
#SELECTABLE:YES;
#BPMS:0.000=120.000,
132.000=119.200,
140.000=119.920,
196.000=120.000;
#DISPLAYBPM:120;
#STOPS:;
#DELAYS:;
#WARPS:;
#TIMESIGNATURES:0.000=4=4;
#TICKCOUNTS:0.000=4;
#COMBOS:0.000=1;
#SPEEDS:0.000=1.000=0.000=0;
#SCROLLS:0.000=1.000;
#FAKES:;
#LABELS:0.000=Song Start;
#BGCHANGES:3.500=Long Time.avi=1.000=0=0=1=====,
99999=-nosongbg-=1.000=0=0=0 // don't automatically add -songbackground-
;
#KEYSOUNDS:;
#ATTACKS:
;

//---------------dance-single - ----------------
#NOTEDATA:;
#CHARTNAME:;
#STEPSTYPE:dance-single;
#DESCRIPTION:;
#CHARTSTYLE:;
#DIFFICULTY:Hard;
#METER:7;
#RADARVALUES:0.402319,0.411721,0.129648,0.259295,0.032412,391.000000,373.000000,18.000000,36.000000,0.000000,0.000000,0.000000,0.000000,0.000000,0.402319,0.411721,0.129648,0.259295,0.032412,391.000000,373.000000,18.000000,36.000000,0.000000,0.000000,0.000000,0.000000,0.000000;
#CREDIT:Ben Speirs;
#NOTES:
0000
0000
0000
0000
,
0000
0000
0000
0000
,
1000
0000
0100
0000
1000
0000
0000
0100
1000
0000
0001
0000
1000
0000
0000
0000
,
0001
0000
0100
0000
0001
0000
0000
0100
0001
0000
1000
0000
0001
0000
0000
0000
,
1000
0100
0001
0010
1000
0000
0001
0000
,
1000
0100
0010
0001
1000
0000
0001
0000
,
0100
0001
0100
0010
1000
1000
0100
0000
,
1000
0100
0010
0001
1000
0000
0001
0000
,
1000
0010
0100
0000
0001
1000
0100
0000
,
0010
0000
0010
0000
0001
0010
0100
0000
,
2100
0000
3001
1000
0010
0000
1000
0000
,
0102
0000
0000
0000
0103
0000
0001
0000
1000
0000
0000
0000
0001
0100
0000
0000
,
0001
1000
0001
0100
0010
1000
0001
0000
,
1000
0100
0010
0001
2000
0000
3100
0000
,
1000
0010
1000
0001
0100
0000
0010
0000
,
0100
0001
0010
0100
0020
0000
0031
0000
,
2000
0000
3100
1000
0010
0100
0001
0000
,
0100
0010
0100
0001
1000
0000
0001
0010
,
0012
0000
0100
0100
0103
0000
0000
0000
,
2010
0000
0000
0000
0100
0000
0100
0000
3100
0000
0000
0000
1000
0001
0000
0000
,
2000
0100
0001
3010
,
0002
0100
0010
1003
,
2000
0000
0000
0000
3010
0000
0200
0000
0000
0300
0001
0000
2000
0000
0000
0000
,
0200
0000
0000
0000
3300
0000
0000
0000
0100
1000
0100
0000
1000
0000
0000
0000
,
0002
0000
0013
0001
1000
0001
0100
0000
,
0020
0000
0000
2000
0000
0000
3030
0000
,
0001
0000
1000
0000
0010
1000
0001
0000
,
0010
0001
0100
0000
0010
0010
1000
0000
,
0001
1000
0100
0010
0000
0001
1000
0001
,
0100
0010
1000
0001
0000
1000
0100
1000
,
0010
0100
0001
1000
0000
0001
1000
0010
,
0100
0001
0100
0010
0000
0100
0001
0010
,
0100
1000
0100
0010
0000
0001
1000
0000
,
2020
0000
0000
0000
,
0000
0000
0000
3030
,
0001
0000
1000
0000
0100
0000
0010
0000
0001
0000
0000
0000
1000
0100
0000
0000
,
0001
0000
0010
0000
0100
0000
1000
0000
0010
0000
0000
0000
0001
0100
0000
0000
,
2001
0000
3010
1000
0100
0000
0010
0001
,
0100
0000
0001
1000
0100
0010
0001
0000
,
0101
0000
0010
1000
0100
0000
0010
0001
,
0100
0000
0000
0000
0010
0000
0010
0000
0100
0000
0000
0000
0010
0100
0000
0000
,
2002
0000
3003
0000
0001
1000
0100
0000
,
0010
0010
0001
0000
1000
0100
0010
0001
,
0200
0000
0310
0000
0100
0001
1000
0000
,
0010
0000
1000
0010
0100
0001
1000
0000
,
2100
0000
3001
0000
1000
0010
0100
0000
,
0001
1000
0010
1000
0100
0010
0001
0000
,
0012
0000
0103
0001
1000
0000
0010
1000
,
0200
0000
0310
0001
0200
0000
0310
0000
,
2002
0000
3003
0000
0001
1000
0010
0000
,
1000
0100
0010
0000
0001
0001
0100
0000
,
0001
0100
0010
1000
0100
0010
0001
0000
,
1000
0100
1000
0010
0100
0001
1000
0000
,
0001
1000
0010
0100
0001
0000
1010
0000
,
0202
0000
0000
0000
0303
0000
0000
0000
1000
0001
1000
0000
0001
0000
0000
0000
,
0001
0010
0100
1000
0010
1000
0001
0000
,
1000
0010
0100
0001
1000
0001
0100
0000
,
0001
0100
0010
1000
0100
0000
1100
0000
,
0022
0000
0033
0000
0001
1000
0010
0000
,
1000
0010
0100
0001
0010
0100
1000
1000
,
0100
1000
0010
0100
0001
1000
0010
0010
,
1000
0100
0010
0001
0100
0000
0101
0000
,
2002
0000
3003
0000
0001
1000
0010
0000
,
1000
0100
1000
0010
0100
0001
1000
1000
,
0001
0010
0100
0010
0001
1000
0010
0010
,
1000
0100
0010
0001
0100
0010
1000
0000
,
2002
0000
0000
0000
,
0000
3003
0000
0000
;

//---------------dance-double - ----------------
#NOTEDATA:;
#CHARTNAME:;
#STEPSTYPE:dance-double;
#DESCRIPTION:;
#CHARTSTYLE:;
#DIFFICULTY:Challenge;
#METER:7;
#RADARVALUES:0.384827,0.522912,0.208877,0.208877,0.032412,374.000000,345.000000,29.000000,29.000000,0.000000,0.000000,0.000000,0.000000,0.000000,0.384827,0.522912,0.208877,0.208877,0.032412,374.000000,345.000000,29.000000,29.000000,0.000000,0.000000,0.000000,0.000000,0.000000;
#CREDIT:Ben Speirs;
#NOTES:
00000000
00000000
00000000
00000000
,
00000000
00000000
00000000
00000000
,
00000000
00000000
00000000
00000000
,
00000000
00000000
00000000
00000000
,
00001000
00010000
00000100
00000010
00000001
00000100
00000010
00000000
,
00000100
00000010
00001000
00000100
00020000
00000000
00031000
00000000
,
00010000
00001000
00100000
00010000
01000000
00100000
10000000
00000000
,
00100000
10000000
01000000
00100000
00020000
00000000
00130000
00000000
,
00010000
00100000
00001000
00000000
00010000
00001000
00010000
00000000
,
00001000
00010000
00000100
00000000
00001000
00000010
00000100
00000000
,
00001002
00000100
00001003
00000000
,
00001000
00000000
00000100
00000010
00000001
00000000
00001000
00000000
,
00000001
00000100
00000010
00001000
00000100
00010000
00001000
00000000
,
00010000
00001000
00100000
00010000
01000000
00000000
00100000
00000000
,
01000000
00100000
10000000
01000000
00100000
00010000
10000000
00000000
,
00010000
10000000
00010000
01000000
00001000
00000000
00010000
00000000
,
00001000
00010000
00000100
00000000
00001000
00000100
00010000
00000000
,
00001000
00100000
00010000
00000000
00100000
00001000
00010000
00000000
,
00021000
00000100
00031000
00000000
,
00010000
00001000
00100000
00010000
01000000
00000000
01000000
00000000
,
00020000
01000000
01030000
01010000
,
20000000
01000000
31000000
11000000
,
00010000
00000000
00100000
00001000
00010000
00000000
00011000
00000000
,
00020200
00000000
00030300
00000000
00001000
00000100
00001000
00000000
,
00000001
00001000
00000010
00000100
00000001
00000000
00001000
00000000
,
00001010
00000000
00000001
00000200
00000000
00000000
00000300
00000000
,
00000010
00000100
00000001
00000000
00000100
00000010
00001000
00000000
,
00000100
00010000
00001000
00000000
00010000
00000000
00011000
00000000
,
00010000
00001000
00100000
00020000
00000000
00000000
01030000
00000000
,
00010000
01000000
00100000
20000000
00000000
00000000
30010000
00000000
,
10000000
00000000
01000000
00000000
00100000
00000000
00020000
00000000
00000000
00000000
00000000
00030000
01000000
00000000
00000000
00000000
,
01020000
10000000
00100000
00130000
,
10000000
01000000
00100000
00010000
01000000
00100000
00010000
00001000
,
00000020
00000000
00000000
00000000
,
00000030
00000000
00000000
00000000
,
00001001
00000000
00001100
00000000
00000001
00000000
00000100
00000001
,
00001000
00000000
00000001
00000100
00001000
00010000
00001000
00000000
,
00011000
00000000
00000100
00000000
00001000
00000100
00010000
00000000
,
00001000
00000000
00010000
00001000
00100000
00010000
01000000
00000000
,
01002000
00000000
01003000
00010000
01000000
00000000
00010000
10000000
,
00100000
00000000
10000000
01000000
00100000
00000000
01100000
00000000
,
20020000
00000000
30030000
00000000
00010000
10000000
00010000
00000000
,
10000000
00100000
01000000
00010000
00100000
00001000
00010000
00010000
,
00000200
00000010
00001300
00001100
,
00000001
00000000
00001000
00000010
00000100
00000001
00001000
00000000
,
00000102
00000000
00000000
00000000
00001003
00000100
00001000
00000000
,
00000001
00000000
00000010
00000001
00000100
00000010
00001000
00000000
,
00001200
00000000
00010300
00001000
00200000
00000000
00310000
01000000
,
00002000
00000000
00013000
00000100
00001000
00000000
00001010
00000000
,
00000202
00000000
00000303
00000000
00001000
00000001
00000100
00000000
,
00000001
00000000
00000100
00000000
00000010
00000000
00000000
00000000
00001000
00000100
00001000
00000100
00001000
00000100
00001000
00000000
,
00000100
00000000
00001000
00000100
00010000
00000000
00011000
00000000
,
00100000
00000000
00010000
10000000
00100000
00000000
01000000
00000000
,
10010000
00000000
10000000
01000000
00010000
00000000
00001000
00000000
,
00022000
00000000
00033000
00000000
00001000
00010000
00000100
00000000
,
00001100
00001000
00000100
00000010
00000001
00000000
00001000
00000000
,
00000001
00000100
00000010
00001000
00000100
00000000
00010100
00000000
,
00000100
00010000
00001000
00100000
00010000
00000000
00110000
00000000
,
00102000
00000000
00000000
00000000
00000000
00000000
00000000
00003000
00010000
00000000
00001000
00000000
00010000
00000000
00000000
00000000
,
00001000
00010000
00100000
10000000
01000000
00100000
00010000
00010000
,
01000000
00001000
00010000
00000100
00001000
00000010
00000100
00000100
,
00001000
00000100
00000001
00000010
00000100
00001000
00000100
00000000
,
00020200
00000000
00030300
00000000
00000100
00010000
00001000
00000000
,
00010000
00001000
00100000
00010000
01000000
00100000
00010000
00100000
,
01000000
00100000
10000000
01000000
00100000
00010000
01000000
00000000
,
00001000
01000000
00001000
01000000
00001000
01000000
00001000
01000000
00001000
01000000
00001000
01000000
00001000
00000000
00000000
00000000
,
00011000
00000000
00000000
00000000
;

//---------------dance-single - ----------------
#NOTEDATA:;
#CHARTNAME:;
#STEPSTYPE:dance-single;
#DESCRIPTION:;
#CHARTSTYLE:;
#DIFFICULTY:Medium;
#METER:4;
#RADARVALUES:0.237687,0.261456,0.194471,0.165661,0.000000,231.000000,204.000000,27.000000,23.000000,0.000000,0.000000,0.000000,0.000000,0.000000,0.237687,0.261456,0.194471,0.165661,0.000000,231.000000,204.000000,27.000000,23.000000,0.000000,0.000000,0.000000,0.000000,0.000000;
#CREDIT:Ben Speirs;
#NOTES:
0000
0000
0000
0000
,
0000
0000
0000
0000
,
0001
0100
0010
0110
,
1000
0100
0010
0110
,
0001
0010
0001
0100
,
0010
0000
0100
0001
1000
0000
0000
0000
,
0100
1000
0010
0010
,
1000
0000
0100
1000
0001
0000
0000
0000
,
1000
0010
0100
0000
,
0001
1000
0100
0000
,
2002
0000
3003
0000
0001
0100
0000
0000
,
2002
0000
3003
0000
1000
0100
0000
0000
,
1100
0100
1000
0001
,
0100
0000
0010
0100
0001
0000
0000
0000
,
0100
0001
0010
0010
,
0100
0000
0010
0001
1000
0000
0000
0000
,
0001
0010
0100
0000
,
0010
0001
1000
0000
,
2001
0100
3100
0000
,
1002
0100
0103
0000
,
0001
0000
0000
0100
0000
0000
0010
0000
,
0010
0000
0000
1000
0000
0000
0100
0000
,
0100
0000
0000
0010
0000
0000
0011
0000
,
2200
3300
0000
0000
,
1000
0000
0000
0010
0000
0000
0100
0000
,
0100
0000
0000
0001
0000
0000
0000
0000
,
1000
0100
0010
0001
,
0200
0000
0300
0000
,
0001
0000
0000
0100
0000
0000
0010
0000
,
0110
0000
0010
1000
,
1100
0000
0000
0100
0000
0000
1000
0000
,
1001
0000
0001
1000
,
1010
1000
0001
0100
,
2002
0000
0000
0000
,
3003
0000
0000
0000
,
0101
0100
0010
0000
,
0100
0000
0001
0000
1000
0100
0010
0000
,
1100
0000
0001
0001
,
1000
1000
0010
0000
,
1000
0100
0010
0001
,
0100
0010
1000
1010
,
0202
0000
0303
0000
,
1000
0000
0001
0000
0100
0001
1000
0000
,
0020
0030
0000
1000
,
0100
0000
1000
0000
0001
0010
0001
0000
,
0200
0300
0000
0001
,
0100
0000
0001
0000
1000
0010
1000
0000
,
0001
0010
0100
1000
,
0010
0100
0001
0101
,
2020
0000
3030
0000
,
0010
0000
1000
0000
0001
1000
0001
0000
,
1000
0100
0100
1000
,
0001
0100
0100
0001
,
1000
0010
0010
1001
,
2002
3003
0000
0000
,
0001
1000
0100
0100
,
0010
0001
0100
0100
,
0001
1000
0010
1001
,
2002
0000
3003
0000
,
1000
0000
0000
0100
0000
0000
1000
0000
,
0001
0000
0000
0100
0000
0000
0001
0000
,
1000
0000
0000
0010
0000
0000
1001
0000
,
2002
0000
3003
0000
,
0001
0000
0000
0010
0000
0000
0001
0000
,
1000
0000
0000
0010
0000
0000
1000
0000
,
0001
0010
0100
1000
,
1001
0000
0000
0000
;

//---------------dance-single - ----------------
#NOTEDATA:;
#CHARTNAME:;
#STEPSTYPE:dance-single;
#DESCRIPTION:;
#CHARTSTYLE:;
#DIFFICULTY:Easy;
#METER:3;
#RADARVALUES:0.160516,0.190150,0.079229,0.043216,0.000000,156.000000,145.000000,11.000000,6.000000,0.000000,0.000000,0.000000,0.000000,0.000000,0.160516,0.190150,0.079229,0.043216,0.000000,156.000000,145.000000,11.000000,6.000000,0.000000,0.000000,0.000000,0.000000,0.000000;
#CREDIT:Ben Speirs;
#NOTES:
// measure 0
0000
0000
0000
0000
,  // measure 1
0000
0000
0000
0000
,  // measure 2
1000
1000
0100
0000
,  // measure 3
0001
0001
0100
0000
,  // measure 4
1001
0000
1000
0000
,  // measure 5
0010
1000
0100
0000
,  // measure 6
1000
0000
0001
0000
,  // measure 7
0010
0001
0100
0000
,  // measure 8
0010
0010
0100
0000
,  // measure 9
0100
0100
0010
0000
,  // measure 10
2002
3003
0000
0000
,  // measure 11
1000
0000
0000
0000
,  // measure 12
0001
0000
1000
0000
,  // measure 13
0010
1000
0001
0000
,  // measure 14
1000
0000
0001
0000
,  // measure 15
0010
0001
1000
0000
,  // measure 16
0100
0100
0010
0000
,  // measure 17
0010
0010
0100
0000
,  // measure 18
2002
3003
0000
0000
,  // measure 19
0001
0000
0000
0000
,  // measure 20
1000
0000
0000
0010
,  // measure 21
0100
0000
0000
0010
,  // measure 22
1000
0000
0000
1000
,  // measure 23
0001
0000
0000
0000
,  // measure 24
0001
0000
0000
0100
,  // measure 25
0010
0000
0000
0100
,  // measure 26
0001
0000
0000
0100
,  // measure 27
0001
0000
0000
0000
,  // measure 28
1000
0000
0010
0010
,  // measure 29
0100
0000
0001
1000
,  // measure 30
0100
0000
1000
1000
,  // measure 31
0100
0000
0000
0000
,  // measure 32
1000
0000
0010
0000
,  // measure 33
2002
0000
0000
0000
,  // measure 34
3003
0000
0000
0000
,  // measure 35
0100
1000
0100
0000
,  // measure 36
0001
0000
1000
0000
,  // measure 37
1001
0000
0000
0000
,  // measure 38
0000
1000
0100
0010
,  // measure 39
0001
0000
1000
0000
,  // measure 40
0010
0000
0100
0100
,  // measure 41
0100
0000
0000
0000
,  // measure 42
0001
0000
1000
0100
,  // measure 43
0010
0000
0001
0000
,  // measure 44
1000
0000
0001
1000
,  // measure 45
0010
0000
1000
0000
,  // measure 46
0001
0000
1000
0100
,  // measure 47
0010
0000
0010
0000
,  // measure 48
0001
0001
1000
1000
,  // measure 49
1001
0000
0000
0000
,  // measure 50
0000
0000
0010
0000
,  // measure 51
1001
0000
1000
0100
,  // measure 52
0100
0000
0010
0001
,  // measure 53
0001
0000
1000
0001
,  // measure 54
0100
0000
0000
0000
,  // measure 55
1001
0000
0001
0100
,  // measure 56
0100
0000
0010
1000
,  // measure 57
1000
0000
0001
1000
,  // measure 58
0100
0000
0000
0000
,  // measure 59
1001
0000
1000
0010
,  // measure 60
0010
0000
1000
0001
,  // measure 61
0001
0000
0100
0001
,  // measure 62
1000
0000
0000
0000
,  // measure 63
1001
0000
0001
0010
,  // measure 64
0010
0000
0001
0000
,  // measure 65
0100
0010
1000
0001
,  // measure 66
1001
0000
0000
0000
;

//---------------dance-single - ----------------
#NOTEDATA:;
#CHARTNAME:;
#STEPSTYPE:dance-single;
#DESCRIPTION:;
#CHARTSTYLE:;
#DIFFICULTY:Beginner;
#METER:1;
#RADARVALUES:0.092605,0.118844,0.036013,0.000000,0.000000,90.000000,85.000000,5.000000,0.000000,0.000000,0.000000,0.000000,0.000000,0.000000,0.092605,0.118844,0.036013,0.000000,0.000000,90.000000,85.000000,5.000000,0.000000,0.000000,0.000000,0.000000,0.000000,0.000000;
#CREDIT:Ben Speirs;
#NOTES:
// measure 0
0000
0000
0000
0000
,  // measure 1
0000
0000
0000
0000
,  // measure 2
0000
0000
0000
0000
,  // measure 3
0000
0000
0000
0000
,  // measure 4
0001
0000
0001
0000
,  // measure 5
0001
0000
0000
0000
,  // measure 6
0100
0000
0100
0000
,  // measure 7
0100
0000
0000
0000
,  // measure 8
0010
0000
0010
0000
,  // measure 9
0010
0000
0000
0000
,  // measure 10
1001
0000
0000
0000
,  // measure 11
0000
0000
0000
0000
,  // measure 12
1000
0000
1000
0000
,  // measure 13
1000
0000
0000
0000
,  // measure 14
0100
0000
0100
0000
,  // measure 15
0100
0000
0000
0000
,  // measure 16
0010
0000
0010
0000
,  // measure 17
0010
0000
0000
0000
,  // measure 18
1001
0000
0000
0000
,  // measure 19
0000
0000
0000
0000
,  // measure 20
0001
0000
0000
0100
,  // measure 21
0100
0000
0000
0001
,  // measure 22
0001
0000
0000
1000
,  // measure 23
1000
0000
0000
0000
,  // measure 24
1000
0000
0000
0000
,  // measure 25
0100
0000
0000
0000
,  // measure 26
0010
0000
0000
0000
,  // measure 27
0001
0000
0000
0000
,  // measure 28
1000
0000
0000
0000
,  // measure 29
0010
0000
0000
0000
,  // measure 30
0100
0000
0100
0000
,  // measure 31
0100
0000
0000
0000
,  // measure 32
0001
0000
0001
0000
,  // measure 33
1001
0000
0000
0000
,  // measure 34
0000
0000
0000
0000
,  // measure 35
1001
0000
0000
0000
,  // measure 36
0000
0000
1000
1000
,  // measure 37
1000
0000
0000
0000
,  // measure 38
0000
0000
0000
0000
,  // measure 39
0010
0000
0010
0000
,  // measure 40
0010
0000
0010
0000
,  // measure 41
0010
0000
0000
0000
,  // measure 42
0000
0000
0000
0000
,  // measure 43
1001
0000
0000
0000
,  // measure 44
0000
0000
0001
0001
,  // measure 45
0001
0000
0000
0000
,  // measure 46
0000
0000
0000
0000
,  // measure 47
0100
0000
0100
0000
,  // measure 48
0100
0000
0100
0000
,  // measure 49
0100
0000
0000
0000
,  // measure 50
0000
0000
0000
0000
,  // measure 51
0001
0000
0000
1000
,  // measure 52
1000
0000
0000
0010
,  // measure 53
0010
0000
0000
0100
,  // measure 54
0100
0000
0000
0000
,  // measure 55
0001
0000
0000
0001
,  // measure 56
0001
0000
0000
1000
,  // measure 57
1000
0000
0000
0010
,  // measure 58
0010
0000
0000
0000
,  // measure 59
1000
0000
0000
1000
,  // measure 60
1000
0000
0000
0100
,  // measure 61
0100
0000
0000
0010
,  // measure 62
0010
0000
0000
0000
,  // measure 63
0001
0000
0000
1000
,  // measure 64
1000
0000
0000
0001
,  // measure 65
0001
0000
0000
0100
,  // measure 66
0100
0000
0000
0000
;
