#VERSION:0.82;
#TITLE:Wall Of Glass;
#SUBTITLE:;
#ARTIST:Liam Gallagher;
#TITLETRANSLIT:;
#SUBTITLETRANSLIT:;
#ARTISTTRANSLIT:;
#GENRE:Alternative;
#ORIGIN:;
#CREDIT:;
#BANNER:Wall Of Glass.png;
#BACKGROUND:Wall Of Glass-bg.png;
#PREVIEWVID:;
#JACKET:jacket.png;
#CDIMAGE:;
#DISCIMAGE:;
#LYRICSPATH:;
#CDTITLE:;
#MUSIC:Wall Of Glass.ogg;
#OFFSET:-0.642000;
#SAMPLESTART:62.767452;
#SAMPLELENGTH:13.714000;
#SELECTABLE:YES;
#BPMS:0.000=91.000;
#STOPS:;
#DELAYS:;
#WARPS:;
#TIMESIGNATURES:0.000=4=4;
#TICKCOUNTS:0.000=4;
#COMBOS:0.000=1;
#SPEEDS:0.000=1.000=0.000=0;
#SCROLLS:0.000=1.000;
#FAKES:;
#LABELS:0.000=Song Start;
#BGCHANGES:4.000=Wall Of Glass.avi=1.000=0=0=1=====,
99999=-nosongbg-=1.000=0=0=0 // don't automatically add -songbackground-
;
#KEYSOUNDS:;
#ATTACKS:
;

//---------------dance-single - ----------------
#NOTEDATA:;
#CHARTNAME:;
#STEPSTYPE:dance-single;
#DESCRIPTION:;
#CHARTSTYLE:;
#DIFFICULTY:Hard;
#METER:8;
#RADARVALUES:0.554303,0.660669,0.314604,0.254680,0.426963,442.000000,42.000000,34.000000,0.000000,0.000000,0.000000,0.000000,0.000000,0.554303,0.660669,0.314604,0.254680,0.426963,442.000000,42.000000,34.000000,0.000000,0.000000,0.000000,0.000000,0.000000;
#CREDIT:Ben Speirs;
#NOTES:
0000
0000
0000
0000
,
0000
0000
0000
0000
,
0000
0000
0000
0000
,
0000
0000
0000
0000
,
1001
0001
0100
0110
0100
0001
0010
0100
,
1100
0100
0010
0011
0001
1000
0010
0100
,
0101
0100
0010
1010
1000
0100
0010
0100
,
0110
0010
0001
1000
1001
0000
0000
0000
,
1000
0000
0100
1000
0100
0000
1000
0100
0010
0000
0100
1000
0100
0000
1000
0000
,
0000
0000
0001
0100
0001
0000
0100
0001
0010
0000
0001
0100
0001
0000
0100
0000
,
0020
0000
0000
0000
0130
0000
0010
0000
0100
0000
0100
0000
0001
0010
0000
0100
,
1000
0000
1000
0000
0001
0000
0000
0000
0100
0000
0001
0000
1000
0001
1000
1000
,
0001
0000
0010
0001
0010
0000
0001
0010
0100
0000
0010
0001
0010
0000
0001
0000
,
0000
0000
1000
0010
1000
0000
0010
1000
0100
0000
1000
0010
1000
0000
0010
0000
,
0200
0000
0000
0000
0310
0000
0100
0000
0010
0000
0010
0000
1000
0100
0000
0010
,
0001
0000
0101
0000
1000
0000
0100
0000
0000
0000
1100
0000
0100
0010
0000
0000
,
0002
0010
0023
0100
0230
1000
2300
0010
,
3020
0000
0000
0000
0200
0000
0000
0000
0000
0000
0330
0000
0010
0100
0000
0000
,
0020
1000
2030
0100
3200
0010
0320
0001
,
0032
0000
0000
0000
0200
0000
0000
0000
0000
0000
0303
0000
0001
0100
0000
0000
,
1001
1000
0100
1100
0100
0010
0001
0100
,
0101
0000
0100
0000
0010
0000
1010
0000
1000
0000
0001
0000
0010
0001
0010
0001
,
0100
0000
0010
1000
0010
0000
0100
0001
0100
0000
0010
1000
0010
0000
1000
0001
,
1000
0000
0001
0010
0001
0000
1000
0000
0001
0010
0001
0001
1000
0010
1000
1000
,
0001
0000
0100
0000
0101
0000
1100
0000
1001
0000
0020
0000
0031
0010
0100
1000
,
0001
0000
1000
0010
1000
0001
0100
0001
1000
0000
1000
0000
0101
0000
0010
1000
,
0100
0000
0010
0000
0110
0000
1100
0000
0101
0000
2000
0000
3001
1000
0010
0100
,
0001
0000
0100
0010
0100
0010
1000
0000
0010
0100
0001
0001
0100
0010
1000
1000
,
0100
0000
0010
0000
0110
0000
0011
0000
1001
0000
0002
0000
1003
0100
0010
0001
,
0100
0000
0001
1000
0001
0000
1000
0000
0010
0100
0010
0000
1000
0100
1000
0001
,
0100
0101
1100
0101
1010
0011
1010
0011
,
1000
0100
0010
0000
0001
0010
0100
0000
1000
0010
0100
0001
0010
0100
1000
0010
,
0200
0000
0301
1000
0020
0000
0130
0001
2000
0000
3100
1000
0002
0000
0013
0001
,
2000
0000
3010
1000
0200
0000
0310
0001
0200
0000
0310
0000
2000
0000
3200
0000
,
0320
0000
0031
0000
1000
0010
1000
0001
0200
0000
0000
0000
0310
0000
0100
0001
,
0100
0000
0010
1000
0010
0000
1000
0000
0001
0010
0001
0001
1000
0010
1000
1000
,
0001
0100
0101
1000
1100
0001
0011
1000
,
1010
0000
0001
0000
1002
0000
0000
0000
0103
0010
0100
0000
0001
0100
0001
0000
,
1000
0000
0001
0000
1000
0010
0100
0001
0020
0000
0000
0000
0130
0000
0010
0001
,
0010
0000
0001
0100
0001
0000
1000
0000
0001
1000
0010
0010
1000
0001
0010
0010
,
0001
0000
1000
0000
0100
0000
1100
0000
0100
1000
0010
0000
0100
0001
0010
0000
,
0001
0000
0100
0000
0201
0000
0010
0000
1000
0000
0310
0000
0100
0010
1000
0000
,
1010
0000
0001
0000
0010
0000
0011
0000
0010
0001
0100
0000
0010
1000
0100
0000
,
1000
0000
0010
0000
1020
0000
0100
0000
0001
0000
0130
0000
0010
0100
0001
0000
,
1000
0100
1000
0100
0010
0000
0001
0100
0001
0100
0010
0000
1000
0001
1000
0000
,
0001
0100
0001
0100
0010
0000
1000
0100
1000
0100
0010
0000
0001
1000
0001
0000
,
1000
0100
1000
0100
1000
0010
1000
0010
1000
0001
1000
0001
1000
0100
1000
0001
,
0001
0100
0001
0100
0001
1000
0001
1000
0010
0100
0010
0010
0100
0010
0100
0100
,
2002
0000
0000
0003
,
3000
0000
0000
0000
;

//---------------dance-double - ----------------
#NOTEDATA:;
#CHARTNAME:;
#STEPSTYPE:dance-double;
#DESCRIPTION:;
#CHARTSTYLE:;
#DIFFICULTY:Challenge;
#METER:8;
#RADARVALUES:0.521130,0.568910,0.179774,0.322095,0.382020,420.000000,24.000000,43.000000,0.000000,0.000000,0.000000,0.000000,0.000000,0.521130,0.568910,0.179774,0.322095,0.382020,420.000000,24.000000,43.000000,0.000000,0.000000,0.000000,0.000000,0.000000;
#CREDIT:Ben Speirs;
#NOTES:
00000000
00000000
00000000
00000000
,
00000000
00000000
00000000
00000000
,
00000000
00000000
00000000
00000000
,
00000000
00000000
00000000
00000000
,
11000000
01000000
01000000
01010000
00010000
00010000
00010000
00010000
,
00011000
00001000
00001000
00001100
00000100
00000100
00000100
00000100
,
00000101
00000001
00000001
00001001
00001000
00001000
00001010
00001000
,
00001001
00000011
00001001
00001100
00001001
00000000
00000000
00000000
,
00001000
00000000
00000100
00010000
00000100
00000000
00010000
00001000
00010000
00000000
00001000
00010000
00000100
00000000
00010000
00000000
,
00000000
00000000
00001000
00100000
00001000
00000000
00100000
00010000
00100000
00000000
00001000
00100000
00010000
00000000
00100000
00000000
,
00102000
00000000
00000000
00000000
00013000
00000000
00001000
00000000
00010000
00000000
00000100
00000000
00001000
00000100
00000000
00010000
,
00001000
00000000
00100000
00000000
00010000
00000000
01000000
00000000
00100000
10000000
00010000
00000000
00100000
00000000
00000000
00000000
,
00010000
00000000
00100000
00001000
00100000
00000000
00001000
00010000
00001000
00000000
00100000
00001000
00010000
00000000
00000100
00000000
,
00000000
00000000
00001000
00000100
00001000
00000000
00000100
00010000
00000100
00000000
00010000
00001000
00010000
00000000
00000100
00000000
,
00002000
00000000
00000000
00000000
00003010
00000000
00001000
00000000
00000001
00000000
00000100
00000000
00000010
00001000
00000000
00000100
,
00010000
00000000
00001000
00000000
00100000
00000000
00001000
00000000
00010000
00000000
00000100
00000000
00001000
00000010
00000100
00000001
,
00002000
00003200
00000302
00000203
,
00002300
00000000
00000000
00000000
00003010
00000100
00000010
00000100
00000010
00000000
00001000
00000000
00000100
00001000
00000000
00000000
,
00000200
00020300
00032000
00203000
,
00320000
00000000
00000000
00000000
01030000
00010000
01000000
00010000
01000000
00000000
00010000
00000000
10000000
00100000
00000000
00000000
,
11000000
01000000
00100000
00110000
00010000
00100000
00001000
00010000
,
00011000
00000000
00010000
00000000
00000100
00000000
00001100
00000000
00001000
00000000
00000010
00000000
00000100
00000001
00000100
00000001
,
00001000
00000000
00000010
00001000
00000010
00000000
00001000
00000100
00001000
00000000
00000100
00010000
00000100
00000000
00010000
00001000
,
00010000
00000000
00001000
00100000
00001000
00000000
00100000
00000000
00010000
00100000
00010000
00010000
10000000
00100000
10000000
10000000
,
00100000
00000000
01000000
00000000
01010000
00000000
11000000
00000000
10010000
00000000
00100000
00000000
00010000
00100000
00001000
00010000
,
00000100
00000000
00001000
00000010
00001000
00000000
00000001
00000100
00000001
00000000
00001000
00000000
00000010
00001000
00000001
00000000
,
00000010
00000000
00000001
00000000
00000011
00000000
00000110
00000000
00001100
00000000
00000001
00000000
00001000
00000100
00010000
00001000
,
00100000
00000000
00010000
01000000
00010000
00000000
10000000
00000000
00100000
01000000
00100000
00100000
01000000
00100000
01000000
01000000
,
00100000
00000000
01000000
00000000
00020000
00000000
00230000
00000000
00302000
00000000
00000100
00000000
00013000
00001000
00100000
00010000
,
01000000
00000000
00100000
01000000
00100000
00000000
10000000
00100000
10000000
00000000
00010000
00000000
10000000
01000000
00100000
00010000
,
01000000
00000000
00010000
01000000
00010000
00000000
10000000
01000000
10000000
00000000
00010000
01000000
00010000
00000000
00100000
00001000
,
00100000
00000000
00001000
00010000
00001000
00000000
00010000
00000000
00000100
00001000
00000010
00000010
00000100
00000001
00001000
00001000
,
00000020
00000130
00000002
00001003
00000200
00010300
00002000
00103000
,
00020000
01030000
00200000
10300000
02000000
13000000
00200000
01300000
,
00010000
00000000
10000000
00000000
00100000
10000000
01000000
00100000
00020000
00000000
01000000
00000000
10030000
00000000
00000000
00000000
,
00010000
10000000
00010000
00000000
01000000
00010000
00100000
00001000
00010000
00000000
00001000
00000000
00100000
00010000
01000000
00000000
,
00200000
10300000
00020000
01030000
00002000
00103000
00020000
01030000
,
00002000
00013000
00000200
00000310
00000002
00001003
00000020
00000130
,
00000001
00000000
00001000
00000000
00000001
00000100
00000010
00001000
00000100
00000000
00010000
00000000
00010100
00000000
00000000
00000000
,
00001000
00010000
00001000
00000000
00100000
00010000
00100000
00010000
01000000
00000000
00100000
00000000
10000000
00010000
10000000
00100000
,
02000000
03002000
00023000
00030200
,
00001300
00000000
00000010
00000000
00000100
00000001
00000100
00000001
00000100
00000000
00000010
00000000
00001000
00000100
00000000
00000000
,
00020000
00032000
00203000
00320000
,
02030000
00000000
00000000
00000000
03100000
10000000
00100000
10000000
00100000
00000000
10000000
00000000
00010000
00100000
00000000
00000000
,
00010000
10000000
00010000
00000000
10000000
01000000
10000000
00000000
00010000
01000000
00010000
00000000
00100000
00010000
00100000
00000000
,
00001000
00010000
00001000
00000000
00010000
00000100
00010000
00000000
00000010
00001000
00000010
00000000
00000100
00000010
00000100
00000000
,
00000001
00000100
00000010
00000000
00001000
00000010
00000100
00000000
00000001
00000010
00000100
00000000
00001000
00000100
00000010
00000000
,
00000001
00000100
00001000
00010000
00100000
10000000
01000000
00100000
00010000
00010000
01000000
00001000
00010000
00010000
00000010
00000200
,
00000002
00000000
00000000
00000300
,
00000003
00000000
00000000
00000000
;

//---------------dance-single - ----------------
#NOTEDATA:;
#CHARTNAME:;
#STEPSTYPE:dance-single;
#DESCRIPTION:;
#CHARTSTYLE:;
#DIFFICULTY:Medium;
#METER:5;
#RADARVALUES:0.315674,0.367038,0.052434,0.367038,0.000000,239.000000,7.000000,49.000000,0.000000,0.000000,0.000000,0.000000,0.000000,0.315674,0.367038,0.052434,0.367038,0.000000,239.000000,7.000000,49.000000,0.000000,0.000000,0.000000,0.000000,0.000000;
#CREDIT:Ben Speirs;
#NOTES:
0000
0000
0000
0000
,
0000
0000
0000
0000
,
0000
0000
0000
0000
,
0000
0000
0000
0000
,
0001
0100
0100
0020
0000
0100
0130
0000
,
0010
1000
1000
0200
0000
1000
1300
0000
,
0100
1000
1000
0001
0001
1000
1000
0001
,
0001
0100
0100
0010
0100
0000
0000
0000
,
0002
0000
0103
0001
0100
0100
0001
0000
,
2000
0000
3100
1000
0100
0100
1000
0000
,
0020
0130
0001
2000
,
3002
0013
0001
1000
,
0100
1000
0100
0100
2000
0000
3001
0000
,
0001
0100
0001
0001
0200
0000
0310
0000
,
2000
0000
3010
0000
1000
0000
0100
0010
,
0001
0000
1000
0000
0010
0100
0001
0000
,
2010
3002
0023
0032
,
0203
0020
0000
0330
,
0102
0000
0000
0000
2000
0003
0000
0000
3020
0000
0000
0000
2030
0000
0000
0000
,
3200
0020
0000
0330
,
1100
0000
0100
1000
0100
1000
0001
0000
,
0101
0000
0100
0001
0100
0001
1000
0000
,
0010
1000
0001
0000
0010
0001
1000
0000
,
0001
1000
0001
1000
0010
0100
0001
0010
,
0100
0000
1000
0100
0001
0010
0002
0000
,
0103
0000
0001
1000
0001
0001
0100
0000
,
0000
0000
0001
0010
1000
0100
2000
0000
,
3010
0000
1000
0001
1000
1000
0010
0010
,
0100
0000
0001
0001
1000
1000
0020
0000
,
1030
0100
1000
0000
0001
0100
0001
0000
,
1000
0100
1000
0100
0010
0100
0010
0000
,
0001
0100
0001
0100
0010
0100
0010
0000
,
2000
3000
0002
0003
0200
0300
0020
0030
,
2000
3000
0200
0300
0020
0030
0002
0003
,
1000
0000
0001
1000
0020
0000
0130
0000
,
0000
0000
0010
1000
0200
0000
0310
0000
,
0002
0003
2000
3000
0020
0030
0200
0300
,
0002
0003
2000
3000
0020
0030
0200
0300
,
0001
0000
1000
0001
0020
0000
0030
0000
,
0001
0000
0100
0001
2000
0000
3000
0000
,
1200
0010
1000
0010
,
1300
0000
0100
1000
0100
1000
0001
0000
,
0201
0010
0001
0010
,
0301
0000
0100
0001
0100
0001
1000
0000
,
0001
0010
0100
1000
0010
0010
0010
0000
,
1000
0100
0010
0001
0100
0100
0100
0000
,
0001
1000
0010
0100
0001
1000
0100
0010
,
0001
0100
1000
0010
0001
0100
1000
0010
,
2002
0000
0000
0003
,
3000
0000
0000
0000
;

//---------------dance-single - ----------------
#NOTEDATA:;
#CHARTNAME:;
#STEPSTYPE:dance-single;
#DESCRIPTION:;
#CHARTSTYLE:;
#DIFFICULTY:Easy;
#METER:3;
#RADARVALUES:0.169073,0.220223,0.007491,0.142321,0.000000,138.000000,1.000000,19.000000,0.000000,0.000000,0.000000,0.000000,0.000000,0.169073,0.220223,0.007491,0.142321,0.000000,138.000000,1.000000,19.000000,0.000000,0.000000,0.000000,0.000000,0.000000;
#CREDIT:Ben Speirs;
#NOTES:
// measure 0
0000
0000
0000
0000
,  // measure 1
0000
0000
0000
0000
,  // measure 2
0000
0000
0000
0000
,  // measure 3
0000
0000
0000
0000
,  // measure 4
1000
0001
0100
0100
,  // measure 5
0001
1000
0010
0010
,  // measure 6
1000
0100
0010
0001
,  // measure 7
1000
0001
0100
0000
,  // measure 8
0001
0000
0100
0010
,  // measure 9
1000
0000
0100
0010
,  // measure 10
0002
0003
0100
0001
,  // measure 11
2000
3000
0010
0000
,  // measure 12
1000
1000
0200
0300
,  // measure 13
0010
0010
0002
0003
,  // measure 14
0200
0300
0001
1000
,  // measure 15
0002
0003
1000
0000
,  // measure 16
0100
0100
0010
0010
,  // measure 17
0001
2000
0000
3000
,  // measure 18
0010
0010
1000
1000
,  // measure 19
0001
0200
0000
0300
,  // measure 20
0001
0010
0100
1000
,  // measure 21
0010
0100
0001
1000
,  // measure 22
0100
0100
0100
0100
,  // measure 23
0010
0010
0001
1000
,  // measure 24
0000
0001
1000
0010
,  // measure 25
0100
0100
0002
0003
,  // measure 26
0000
0100
0001
1000
,  // measure 27
0010
0010
2000
3000
,  // measure 28
0000
0100
1000
0001
,  // measure 29
0010
0010
0002
0003
,  // measure 30
0100
0100
0010
0010
,  // measure 31
1000
1000
0001
0001
,  // measure 32
0010
0010
0010
0010
,  // measure 33
0100
0100
0100
0100
,  // measure 34
2000
0000
3000
0000
,  // measure 35
0002
0000
0003
0000
,  // measure 36
1000
1000
0010
0010
,  // measure 37
0100
0100
0001
0001
,  // measure 38
0020
0000
0030
0000
,  // measure 39
0002
0000
0003
0000
,  // measure 40
1000
0100
1000
0100
,  // measure 41
0020
0030
0000
0000
,  // measure 42
0001
0100
0001
0100
,  // measure 43
0020
0030
0000
0000
,  // measure 44
1000
0100
0010
0001
,  // measure 45
1000
0010
0100
0001
,  // measure 46
0010
0010
0010
0010
,  // measure 47
0100
0100
1000
0001
,  // measure 48
2002
0000
0000
0003
,  // measure 49
3000
0000
0000
0000
;

//---------------dance-single - ----------------
#NOTEDATA:;
#CHARTNAME:;
#STEPSTYPE:dance-single;
#DESCRIPTION:;
#CHARTSTYLE:;
#DIFFICULTY:Beginner;
#METER:1;
#RADARVALUES:0.099518,0.161797,0.022472,0.000000,0.000000,90.000000,3.000000,0.000000,0.000000,0.000000,0.000000,0.000000,0.000000,0.099518,0.161797,0.022472,0.000000,0.000000,90.000000,3.000000,0.000000,0.000000,0.000000,0.000000,0.000000,0.000000;
#CREDIT:Ben Speirs;
#NOTES:
// measure 0
0000
0000
0000
0000
,  // measure 1
0000
0000
0000
0000
,  // measure 2
0000
0000
0000
0000
,  // measure 3
0000
0000
0000
0000
,  // measure 4
0001
0000
0000
0000
,  // measure 5
1000
0000
0000
0000
,  // measure 6
0010
0010
0010
0000
,  // measure 7
0010
0010
0000
0000
,  // measure 8
1000
0000
1000
0000
,  // measure 9
1000
0000
0000
0000
,  // measure 10
0100
0000
0000
0100
,  // measure 11
0100
0000
0000
0000
,  // measure 12
0010
0000
0010
0000
,  // measure 13
0010
0000
0000
0000
,  // measure 14
0001
0000
0000
0100
,  // measure 15
0100
0000
0000
0000
,  // measure 16
0001
0001
0001
0001
,  // measure 17
0001
0000
0000
0000
,  // measure 18
1000
1000
1000
1000
,  // measure 19
1000
0000
0000
0000
,  // measure 20
0010
0010
0010
0000
,  // measure 21
0100
0100
0100
0000
,  // measure 22
0001
0001
0001
0000
,  // measure 23
1000
0000
1000
0000
,  // measure 24
1001
0000
0000
0010
,  // measure 25
0010
0000
0010
0000
,  // measure 26
0110
0000
0000
0000
,  // measure 27
0100
0000
0100
0100
,  // measure 28
0100
0000
0000
0001
,  // measure 29
0001
0000
0001
0000
,  // measure 30
1001
0000
0000
0000
,  // measure 31
1000
0000
0000
0000
,  // measure 32
0010
0010
0010
0010
,  // measure 33
0010
0010
0010
0010
,  // measure 34
0010
0000
0000
0000
,  // measure 35
1000
0000
0000
0000
,  // measure 36
0001
0001
0001
0001
,  // measure 37
0001
0001
0001
0001
,  // measure 38
0001
0000
0000
0000
,  // measure 39
1000
0000
0000
0000
,  // measure 40
0010
0000
0010
0000
,  // measure 41
0010
0000
0000
0000
,  // measure 42
0100
0000
0100
0000
,  // measure 43
0100
0000
0000
0000
,  // measure 44
0001
0001
0001
0000
,  // measure 45
0001
0000
0000
0000
,  // measure 46
1000
1000
1000
0000
,  // measure 47
1000
0000
0000
0010
,  // measure 48
0010
0000
0000
0000
;
