#TITLE:Call Me Maybe;
#SUBTITLE:;
#ARTIST:Carly Rae Jepsen;
#TITLETRANSLIT:;
#SUBTITLETRANSLIT:;
#ARTISTTRANSLIT:;
#GENRE:Hello Maybe this is Dad;
#CREDIT:;
#BANNER:Call Me Maybe.png;
#BACKGROUND:Call Me Maybe-bg.png;
#LYRICSPATH:;
#CDTITLE:cdtitle.png;
#MUSIC:Call Me Maybe.ogg;
#OFFSET:0.010000;
#SAMPLESTART:44.003345;
#SAMPLELENGTH:14.339993;
#SELECTABLE:YES;
#BPMS:0.000000=120.000000
,152.000000=60.000000
,168.000000=120.000000
;
#STOPS:
;
#BGCHANGES:4.000=Call Me Maybe.avi=1.000=0=0=1=====,
99999=-nosongbg-=1.000=0=0=0 // don't automatically add -songbackground-
;
#KEYSOUNDS:;
#ATTACKS:;

//---------------dance-single - ----------------
#NOTES:
     dance-single:
     :
     Hard:
     8:
     0.541635,0.546345,0.149146,0.188395,0.227644,440.000000,19.000000,24.000000,0.000000,0.000000,0.000000,0.541635,0.546345,0.149146,0.188395,0.227644,440.000000,19.000000,24.000000,0.000000,0.000000,0.000000:
// measure 0
0000
0000
0000
0000
,  // measure 1
0000
0000
0000
0000
,  // measure 2
0000
1000
0100
1000
0010
0010
1000
0001
,  // measure 3
0000
0001
0010
0001
0100
0100
0001
1000
,  // measure 4
0000
0010
0010
1000
0100
0100
0010
0001
,  // measure 5
0000
0000
0100
0000
0100
0000
0001
0000
1000
0000
0000
0001
0000
0000
0100
0000
,  // measure 6
0000
0010
0010
1000
0010
0010
0100
0001
,  // measure 7
0000
1000
1000
0100
1000
1000
0100
0010
,  // measure 8
0000
0001
0001
0100
0001
0001
1000
0010
,  // measure 9
0000
0000
0100
0000
0100
0000
0010
0000
1000
0000
0000
0100
0000
0000
0010
0000
,  // measure 10
0002
0000
0000
0000
1003
0000
0000
0000
0010
0000
1000
0100
0000
0100
0000
0000
,  // measure 11
1000
0000
0001
0000
1000
0000
0000
0000
0001
0000
0100
0010
0000
0010
0000
0000
,  // measure 12
1000
0000
0100
0000
1000
0000
0100
0000
0010
0000
0001
0100
0000
0100
0000
0000
,  // measure 13
0010
1000
0010
0100
0001
1000
1001
0000
,  // measure 14
2010
0000
3002
0000
0013
0100
0010
0002
,  // measure 15
0000
1003
1000
0001
1000
0010
0100
0002
,  // measure 16
0000
1003
1000
0100
1000
0010
0100
0020
,  // measure 17
0000
1030
1000
0100
0010
0010
0001
0001
,  // measure 18
2100
0000
0000
0000
3001
0000
0000
0000
1000
0000
0000
0010
0000
0000
2001
0000
,  // measure 19
0000
0100
3100
0000
1000
0100
0010
0002
,  // measure 20
0000
0100
0103
0010
0100
0001
0010
0200
,  // measure 21
0000
0000
1300
0000
1000
0000
0100
0000
1000
0001
1000
0000
0001
1000
0001
0000
,  // measure 22
0101
0000
0100
0000
0010
0000
1000
0000
0100
0000
0010
0000
0001
0000
1000
0100
,  // measure 23
1000
0000
0001
0000
0001
0000
0100
0000
0010
0000
1000
0000
0001
0000
0100
0010
,  // measure 24
0100
0000
0001
0000
0001
0000
0100
0000
0010
0000
1000
0000
0001
0000
1000
0100
,  // measure 25
1000
0010
0010
0100
0001
0001
1000
1000
,  // measure 26
0120
0000
0000
0000
1030
0000
0010
0000
1000
0000
0100
0010
0000
0010
0001
0000
,  // measure 27
1000
0000
0010
0000
0100
0000
0001
0000
1000
0100
1000
0000
0002
0000
0000
0000
,  // measure 28
0103
0000
0010
0000
0100
0000
0001
0000
1000
0100
1000
0000
0001
0000
0010
0000
,  // measure 29
0100
0000
1000
0000
0001
0000
0100
0000
0010
0000
0010
0000
1000
0100
0010
0001
,  // measure 30
1000
0001
0100
0010
1000
0100
0100
0010
,  // measure 31
0010
0000
0001
1000
0001
0000
0100
0000
0020
0000
1000
0000
1030
0000
0000
0000
,  // measure 32
0001
0000
1000
0100
1000
0000
0100
0000
0020
0000
0001
0000
0031
0000
0000
0000
,  // measure 33
1000
0000
0001
0010
0001
0000
1000
0000
1100
0000
0000
0000
0101
0000
0000
0000
,  // measure 34
1001
0000
0001
0100
0001
0000
1000
0100
1000
0000
0001
0010
0001
0000
1000
0010
,  // measure 35
1000
0001
0010
0100
2000
0001
3001
0000
,  // measure 36
1000
0100
0010
0001
0200
0010
0310
0000
,  // measure 37
0100
0001
0010
0100
0110
0000
1100
0000
,  // measure 38
0101
0000
0000
0000
0000
0000
0000
0100
0001
1000
1000
0000
0000
0000
0000
0010
,  // measure 39
1000
0001
0001
0000
0000
0000
0000
0010
0001
0100
0100
0000
0010
0000
0010
0000
,  // measure 40
1001
0000
0100
0000
0010
1000
0010
0000
0100
0000
0001
0000
1000
0100
1000
0000
,  // measure 41
0001
0000
0010
0000
0001
1000
0001
0000
0100
0100
0010
0010
1001
0000
0000
0000
,  // measure 42
0101
0000
0100
0000
0010
0000
1000
0000
0100
0000
0010
0000
0001
0000
1000
0001
,  // measure 43
0100
0000
0010
0000
0010
0000
0100
0000
0001
0000
0010
0000
0100
0000
1000
0100
,  // measure 44
0010
0000
0001
0000
0001
0000
1000
0000
0001
0000
0100
0000
0010
0000
1000
0001
,  // measure 45
0100
0010
0010
1000
0100
0100
0010
0010
,  // measure 46
1002
0000
0000
0000
0103
0000
0000
0000
0010
0000
1000
0100
0000
0100
0020
0000
,  // measure 47
0000
0000
0031
0000
1000
0000
0000
0000
0010
0100
0010
0000
2000
0000
0000
0000
,  // measure 48
3001
0000
0020
0000
0000
0000
0130
0000
1000
0001
1000
0000
0010
0000
0100
0000
,  // measure 49
0001
0000
1000
0000
1000
0000
0001
0000
0100
0000
0100
0000
0001
0010
0100
1000
,  // measure 50
0001
1000
0010
0100
0001
0010
0010
0100
,  // measure 51
0100
0000
1000
0001
1000
0000
0010
0000
0200
0000
0001
0000
0301
0000
0000
0000
,  // measure 52
1000
0000
0001
0010
0001
0000
0010
0000
0200
0000
1000
0000
1300
0000
0000
0000
,  // measure 53
0001
0000
1000
0100
1000
0000
0001
0000
0011
0000
0000
0000
1010
0000
0000
0000
,  // measure 54
1001
0000
1000
0010
1000
0000
0001
0010
0001
0000
1000
0100
1000
0000
0001
0100
,  // measure 55
0001
1000
0100
0010
0002
1000
1003
0000
,  // measure 56
0001
0010
0100
1000
0020
0100
0130
0000
,  // measure 57
0010
0000
1000
0000
0100
0000
0010
0000
0001
1000
0001
1000
0010
0100
0010
0100
,  // measure 58
0001
0000
0000
0000
;

//---------------dance-double - ----------------
#NOTES:
     dance-double:
     :
     Challenge:
     8:
     0.539392,0.546345,0.180545,0.227644,0.204094,429.000000,23.000000,29.000000,0.000000,0.000000,0.000000,0.539392,0.546345,0.180545,0.227644,0.204094,429.000000,23.000000,29.000000,0.000000,0.000000,0.000000:
00000000
00000000
00000000
00000000
,
00000000
00000000
00000000
00000000
,
00000000
10000000
01000000
10000000
00010000
00010000
10000000
00010000
,
00000000
00010000
01000000
00010000
10000000
10000000
00010000
10000000
,
00000000
10000000
01000000
00010000
00001000
00000100
00000001
00001000
,
00000000
00000000
00000001
00000000
00000010
00000000
00000100
00000000
00001000
00000000
00000000
00000001
00000000
00000000
00001000
00000000
,
00000000
00000001
00000010
00000001
00001000
00001000
00000001
00001000
,
00000000
00001000
00000010
00001000
00000001
00000001
00001000
00000001
,
00000000
00000001
00000010
00001000
00010000
00100000
10000000
00010000
,
00000000
00000000
10000000
00000000
01000000
00000000
00100000
00000000
00010000
00000000
00000000
10000000
00000000
00000000
00010000
00000000
,
01000000
00100000
01100000
00000000
00100000
10000000
01000000
00000000
,
00100000
00010000
00110000
00000000
00010000
01000000
00100000
00000000
,
10000000
01000000
10000000
00000000
00010000
00100000
00110000
00000000
,
00001000
00100000
00001000
00100000
00001000
00010000
00000200
00000000
,
00002300
00000000
00003010
00000100
00000010
00001000
00000100
00000020
,
00000000
00000001
00000031
00000010
00000100
00001000
00000001
00000200
,
00000000
00000010
00000310
00000100
00000001
00000010
00000100
00002000
,
00000000
00000100
00003100
00001000
00000100
00000100
00010000
00010000
,
00002000
00000000
00000000
00000000
00203000
00000000
00000000
00000000
00310000
00000000
01000000
00100000
00000000
00100000
20000000
00000000
,
00000000
00010000
30010000
10000000
01000000
00100000
00010000
02000000
,
00000000
00100000
03100000
01000000
00010000
00100000
01000000
20000000
,
00000000
00000000
01000000
00000000
31000000
00000000
10000000
00000000
00010000
00100000
00010000
00000000
10000000
00010000
10000000
00000000
,
11000000
00000000
01000000
00000000
00100000
00000000
00010000
00000000
10000000
00000000
00100000
00000000
01000000
00000000
00010000
10000000
,
00010000
00000000
01000000
00000000
01000000
00000000
00010000
00000000
00100000
00000000
00001000
00000000
00010000
00000000
00000100
00010000
,
00000100
00000000
00010000
00000000
00010000
00000000
00001000
00000000
00010000
00000000
00000100
00000000
00001000
00000000
00000010
00000100
,
00000010
00001000
00001000
00000100
00000010
00000010
00000001
00000001
,
00002100
00000000
00000000
00000000
00003010
00000000
00000100
00000000
00000010
00000000
00001000
00000000
00000100
00000000
00000010
00000001
,
00000010
00000000
00000100
00000000
00000100
00000000
00000010
00000000
00000001
00000000
00001000
00000000
00000010
00000000
00000100
00000001
,
00000100
00000000
00000010
00000000
00000010
00000000
00001000
00000000
00000100
00000000
00010000
00000000
00001000
00000000
00100000
00001000
,
00100000
00000000
00010000
00000000
00010000
00000000
00100000
00000000
01000000
00100000
01000000
00100000
00010000
00100000
00010000
00100000
,
02000000
00000000
13000000
00100000
01000000
01000000
00100000
10000000
,
01000000
00100000
00010000
01000000
01010000
00000000
20010000
00000000
,
30100000
10000000
01000000
00100000
01100000
00000000
00120000
00000000
,
00130000
00001000
00010000
00001000
00101000
00000000
00011000
00000000
,
00010100
00000000
00001000
00000100
00001000
00000000
00000010
00001000
00000010
00000000
00000100
00000001
00000100
00000000
00000010
00001000
,
00000010
00000100
00000100
00000010
00002010
00000000
00003002
00000000
,
00000013
00000001
00001000
00000100
00001100
00000000
00020100
00000000
,
00031000
00100000
00010000
01000000
00100000
00100000
10000000
10000000
,
01020000
00000000
00000000
00000000
00030000
00000000
00000000
10000000
00000000
01000000
01000000
00000000
00000000
00000000
00000000
00100000
,
00000000
00010000
00010000
00000000
00000000
00000000
00000000
10000000
00000000
00010000
00010000
00000000
01000000
00000000
01000000
00000000
,
00002000
00000000
00000000
00000000
00013000
00000000
00000100
00001000
00000000
00000010
00000010
00000000
00000000
00000000
00000100
00000001
,
00000000
00001000
00001000
00000000
00000000
00000000
00000100
00000010
00000000
00000001
00000001
00000000
00001000
00000000
00000000
00000000
,
00001001
00000000
00000000
00000000
00001100
00000000
00000000
00000000
00000001
00000000
00000100
00000000
00000010
00000000
00001000
00000100
,
00000010
00000000
00000001
00000000
00000001
00000000
00000100
00000000
00000010
00000000
00000100
00000000
00000001
00000000
00000010
00000100
,
00001000
00000000
00000001
00000000
00000001
00000000
00000100
00000000
00000010
00000000
00001000
00000000
00000100
00000000
00010000
00001000
,
00100000
00010000
00010000
01000000
00100000
00100000
10000000
10000000
,
01020000
00000000
00000000
00000000
20030000
00000000
00000000
00000000
30100000
00000000
01000000
00000000
00100000
00000000
10000000
01000000
,
00100000
00000000
00010000
00000000
00010000
00000000
01000000
00000000
00010000
00000000
00100000
00000000
01000000
00000000
10000000
01000000
,
00100000
00000000
01000000
00000000
01000000
00000000
00100000
00000000
00010000
00000000
01000000
00000000
00100000
00000000
01000000
00010000
,
00100000
00000000
00001000
00000000
00001000
00000000
00100000
00000000
00010000
01000000
00010000
01000000
00100000
10000000
00100000
10000000
,
00020000
00000000
00130000
00001000
00010000
00000100
00001000
00000010
,
00000100
00000100
00000010
00001000
00001200
00000000
00000320
00000000
,
00000031
00000010
00000100
00001000
00000002
00000000
00000203
00000000
,
00000310
00001000
00000100
00010000
00010100
00000000
00011000
00000000
,
00101000
00000000
00100000
00010000
00100000
00000000
00001000
00100000
00001000
00000000
00010000
00001000
00010000
00000000
00000100
00010000
,
00000100
00001000
00000010
00000100
00000002
00000000
00002003
00000000
,
00003010
00000000
00000100
00000000
00000001
00000000
00000010
00000000
00000100
00001000
00000100
00001000
00000200
00000000
00000000
00000000
,
00010300
00000000
00000100
00000000
00010000
00000000
00001000
00000000
00100000
00001000
00100000
00001000
00100000
00001000
00100000
00001000
,
00010000
00000000
00000000
00000000
;

//---------------dance-single - ----------------
#NOTES:
     dance-single:
     :
     Medium:
     6:
     0.348755,0.409759,0.188395,0.251193,0.000000,255.000000,24.000000,32.000000,0.000000,0.000000,0.000000,0.348755,0.409759,0.188395,0.251193,0.000000,255.000000,24.000000,32.000000,0.000000,0.000000,0.000000:
0000
0000
0000
0000
,
0000
0000
0000
0000
,
1000
0001
0100
0100
,
0010
1000
0001
0001
,
0010
0001
1000
1000
,
0010
0000
0100
0000
0001
0100
0001
0000
,
1000
0001
0010
0010
,
0001
1000
0100
0100
,
1000
0010
0100
0100
,
0010
0000
1000
0000
0001
0010
0001
0000
,
0000
1100
0110
0001
,
0100
0101
0110
1000
,
0001
0100
0001
0000
1000
0100
1000
0000
,
0010
0100
0010
0100
0010
0100
0010
0000
,
0000
0000
1001
0000
0010
0000
1000
0100
,
0000
0010
0010
0000
0001
0000
1000
0010
,
0000
0100
0100
0000
0001
0000
1000
0100
,
0000
0010
0010
0000
0001
1000
0001
1000
,
0010
0000
0000
0000
0100
0000
0001
1000
,
0000
0100
0100
0000
0010
0000
0001
0100
,
0000
0010
0010
0000
1000
0000
0001
0010
,
0000
0100
0100
0000
1100
0000
0011
0000
,
2001
0000
3020
0000
0130
0001
0100
0000
,
0010
0000
1000
0000
0001
0010
0001
0000
,
0200
0000
0300
0000
0001
1000
0001
1000
,
0200
0000
0300
0000
1000
0001
1000
0001
,
0200
0000
0320
0000
1030
0000
0001
1000
,
0000
0100
0100
0000
1000
0001
2000
0000
,
3010
0200
0000
0000
0301
1000
0001
0000
,
0100
0000
0010
0000
1000
0100
1000
0100
,
2000
0000
0000
3002
0000
0000
0203
0000
,
0000
0310
0100
0010
0100
0000
0110
0000
,
0002
0000
0000
0203
0000
0000
0320
0000
,
0000
1030
0100
1000
1100
0000
0011
0000
,
1001
0000
0010
0000
0100
0001
0100
0010
,
1000
0001
1001
1200
,
0300
0000
1000
0001
1000
0000
0102
0000
,
0003
0000
1000
0001
1001
0000
0101
0000
,
2000
3000
0002
0003
,
0200
0300
0020
0030
,
1000
1000
0001
0001
,
0100
0000
0100
0000
0010
0010
0010
0000
,
1001
0000
0000
0000
1000
0000
0001
0100
,
0001
0000
1000
0000
0001
0010
0001
0000
,
2000
0000
3000
0000
0001
0010
0100
1000
,
0002
0000
0003
0000
1000
0010
0100
0001
,
2000
0000
3000
0000
0001
0100
0001
0000
,
1000
0000
0010
0000
0100
0001
0200
0000
,
0000
0310
0000
0000
1000
0010
1000
0010
,
0100
0000
0000
0000
0001
1000
0001
1000
,
0200
0000
0000
0320
0000
0000
0032
0000
,
0000
1003
0100
0000
1100
0000
0101
0000
,
0002
0000
0000
2003
0000
0000
3020
0000
,
0000
0130
0010
0000
0110
0000
1010
0000
,
0001
0100
0001
0100
0010
1000
0010
1000
,
0001
0010
0001
0010
0200
0000
2300
0000
,
3001
0000
1100
0011
,
0100
0000
0000
0000
0001
1000
0001
1000
,
0010
0000
0000
0000
;

//---------------dance-single - ----------------
#NOTES:
     dance-single:
     :
     Easy:
     4:
     0.215308,0.364230,0.109897,0.164846,0.000000,157.000000,14.000000,21.000000,0.000000,0.000000,0.000000,0.215308,0.364230,0.109897,0.164846,0.000000,157.000000,14.000000,21.000000,0.000000,0.000000,0.000000:
0000
0000
0000
0000
,
0000
0000
0000
0000
,
1000
0000
0010
1000
,
0001
0000
0100
0100
,
0001
0000
1000
0100
,
0010
0000
0001
1000
,
0001
0000
0100
0010
,
1000
0000
0001
0001
,
0010
0000
0001
1000
,
0100
0000
1000
0000
,
0010
0010
0100
0000
,
0001
0001
1000
0000
,
0100
0100
0010
0000
,
0001
0010
0100
1000
,
1001
0000
0100
0010
,
1000
1000
0001
0000
,
1000
0000
0100
0100
,
0010
0000
0010
0010
,
0001
0000
1000
0001
,
0100
0100
0010
0000
,
1000
0100
0100
0000
,
0010
0001
0001
0000
,
1001
0000
1000
0000
,
0010
1000
0010
0010
,
0100
0000
0001
0001
,
1000
0000
1000
1000
,
0001
0000
0010
0000
,
0001
0010
0100
0100
,
0010
0000
0001
0001
,
0100
0000
0010
0010
,
2000
3000
0002
0003
,
0200
0300
0010
0010
,
2000
3000
0100
0100
,
0020
0030
0001
1000
,
0002
0003
0200
0300
,
0020
0030
1000
1000
,
0200
0300
0010
0010
,
0002
0003
1000
0001
,
1000
0000
0000
0000
,
0001
0000
0000
0000
,
0100
0000
0010
0000
,
1000
0000
0001
0000
,
1001
0000
0000
0000
,
1000
0000
0100
0100
,
0010
0000
0001
0001
,
0100
0000
0010
0010
,
1000
0000
0001
0000
,
0100
0001
0100
0100
,
0010
0000
1000
1000
,
0010
0000
0100
0100
,
0002
0003
2000
3000
,
0200
0300
1001
1001
,
2000
3000
1001
1001
,
0002
0003
1001
1001
,
2002
3003
0020
0030
,
0200
0300
1001
1001
,
0002
0003
1001
1001
,
2000
3000
0010
0100
,
0001
0000
0000
0000
;

//---------------dance-single - ----------------
#NOTES:
     dance-single:
     :
     Beginner:
     2:
     0.116625,0.159351,0.023549,0.000000,0.000000,101.000000,3.000000,0.000000,0.000000,0.000000,0.000000,0.116625,0.159351,0.023549,0.000000,0.000000,101.000000,3.000000,0.000000,0.000000,0.000000,0.000000:
0000
0000
0000
0000
,
0000
0000
0000
0000
,
0001
0000
0000
0000
,
1000
0000
0000
0000
,
0010
0000
0000
0000
,
0100
0000
0100
0000
,
0001
0000
0000
0000
,
0010
0000
0000
0000
,
0100
0000
0000
0000
,
1000
0000
1000
0000
,
0010
0010
0000
0000
,
0100
0100
0000
0000
,
0001
0001
0000
0000
,
1000
1000
1000
0000
,
1001
0000
0000
0000
,
0001
0001
0000
0000
,
1000
1000
0000
0000
,
0010
0010
0000
0000
,
0100
0000
0000
0000
,
0010
0010
0000
0000
,
1000
1000
0000
0000
,
0001
0001
0000
0000
,
1001
0000
1000
0000
,
0100
0000
0000
0000
,
1000
0000
0001
0000
,
0100
0000
0100
0000
,
0010
0000
0010
0000
,
1000
0000
0000
0000
,
0001
0000
0001
0000
,
0010
0000
0010
0000
,
0001
0000
0001
0000
,
1000
0000
0100
0100
,
0000
0000
0100
0100
,
0000
0000
0100
0100
,
0100
0000
0010
0000
,
0001
0000
1000
1000
,
0000
0000
1000
1000
,
0000
0000
1000
1000
,
1000
0000
0000
0000
,
0001
0000
0000
0000
,
0100
0000
0100
0000
,
0010
0000
0010
0000
,
1001
0000
0000
0000
,
0001
0000
0001
0000
,
0100
0000
0000
0000
,
0010
0000
1000
0000
,
0001
0000
0000
0000
,
1000
0000
0100
0000
,
0100
0000
0000
0000
,
0010
0000
0010
0000
,
0001
0000
0001
0000
,
1000
0000
0010
0010
,
0000
0000
0010
0010
,
0000
0000
0010
0010
,
0010
0000
1000
0000
,
0001
0000
0100
0100
,
0000
0000
0100
0100
,
0000
0000
0001
0000
,
1000
0000
0000
0000
;
