#TITLE:VERTICAL;
#ARTIST:JUMP IN;
#FILE:VERTICAL.mp3;
#BPM:114.000;
#GAP:28;
#SAMPLESTART:54.724;
#SAMPLELENGTH:15.000;
#CDTITLE:./CDTITLES/Dance Dance Revolution Disney Channel Edition.png;
#SINGLE:BEGINNER:1:
00000000
00000000
40000000
60000000
B0000000
60600000
40400000
80800000
A0000000
80800000
20200000
80800000
60000000
40000000
20000000
80000000
60000000
20000000
80000000
40000000
80800000
20200000
60000000
40000000
60006000
40004000
B0000000
80800000
A0000000
20200000
60000000
40000000
B0000000
A0000000
B0000000
20200000
A0000000
80800000
40000000
60000000
B0000000
A0000000
A0000000
;
#SINGLE:BASIC:3:
00000000
00000000
80004000
600020B0
40200080
60200080
40608000
60400020
80002040
80002060
40806080
608040A0
B0400060
60200080
80400020
204060A0
B0800040
40200080
80600020
206040B0
00400060
00800020
40800020
60800020
40806020
406040B0
A000A000
40206020
B000B000
80608040
80802020
40406060
A000A000
B000B000
A000A000
60804080
B000B000
20402060
20208080
60604040
A000A000
B000B000
A0000000
;
#SINGLE:ANOTHER:4:
00000000
00000000
80406020
402060A0
20406020
80804060
80602080
402080B0
80406080
20204060
80604060
206040B0
A0B06640
B0A02280
40206020
806040B0
A0A04460
B0B08820
60408020
604020B0
40208060
20408060
40204010
60206030
20804060
446640B0
A0A08020
60802040
B0B06040
80402060
20806090
20804070
30704020
10906020
A0A02080
40208060
B0B04060
20608040
80204010
80206030
70306080
90104080
A0000000
;
#SINGLE:MANIAC:6:
00000000
00000000
46208460
428064B0
80420620
84280640
20480680
26820B!B0B
B0820640
66440820
60820480
68280470
30804260
20408420
60204860
84620860
80406420
80604280
20604680
22460880
60240026
08040206
84860420
68620840
60228820
464640A0
B0A02480
84240620
30708420
86260480
42068064
628280A0
B0A02680
24808460
B0A08620
26860480
70302680
24840620
68042046
482820A0
B0A08420
86202640
A0000000
;
#DOUBLE:BASIC:3:
00000000
00000000
80006000
00000000
00000000
00000000
60000060
00800060
40600020
60608000
00600000
60000000
00000000
00000000
00000000
00000000
00600000
00000020
00200080
80406020
6!60003!2000
20006!6000
60000000
00000000
00000000
00000000
00000000
00006000
60600060
80004000
60004000
20008000
A0A06040
B0B08020
B0B04060
20000000
60606000
00000000
00000000
00000000
00000000
00000000
00000000
:
00000000
00000000
00000000
400020B0
60400020
40400080
00400000
40000000
00000000
00000000
40000040
008000A0
00600080
00800020
00200040
40602080
00000040
00400000
00000000
00000000
00000000
4!40004000
40208000
60802000
6!6000B!4000
B04060A0
B0B06040
80000000
40404000
00000000
00000000
00000000
00000000
00000000
00000000
00004000
40400040
20006000
40006000
80002000
A0A04060
B0B02080
A0000000
;
#DOUBLE:ANOTHER:4:
00000000
00000000
80406020
00600060
00000000
00000000
00000600
602040A0
B0602080
40600460
20806060
00000000
00000000
00006600
60802240
20600620
80402620
60000000
00000000
00000000
00600080
60200060
00000000
00602280
60408020
64646080
B0B08020
60402080
00606060
00000000
00000000
00600020
A0A04060
90902040
B0B02080
60408020
00606060
00000000
00000000
00600080
A0A04060
30308040
B0000000
:
00000000
00000000
00000000
40004040
40206080
60400640
80204040
00000000
00000000
00000000
00000400
4020A0B0
A0802260
80400040
00000000
00000000
00000000
00402620
80208280
40600640
80004000
00004000
20408820
40000000
00000000
00000000
00000000
00000000
40400040
208020A0
60804080
20004000
00000000
00000000
00000000
00000000
40400040
802080A0
60204020
80004000
00000000
00000000
00000000
;
#DOUBLE:MANIAC:6:
00000000
00000000
42806280
42600000
00000000
00000000
00600060
8846!604!40B
B082!202B0
44620280
60060000
00000000
00000000
00000000
00600860
42860420
86208420
60000620
60000000
00000000
00000060
02060802
48060842
80604680
20460824
646460A0
B0A04260
60600000
00000000
00000000
00000000
06068040
70306240
26804860
A0B04260
60600000
00000000
00000000
00000000
06062040
90108620
42606840
A0000000
:
00000000
00000000
00000000
00004260
8062!202B0
66280840
2004!40040
00000000
00000000
00000000
00400080
446608!808
B0280640
82640640
20040000
00000000
00000000
04204000
00408280
62840640
20480004
00000000
00000000
00000000
00000000
00000000
00000000
04040426
80B020B0
84240642
80824062
40400000
00000000
00000000
00000000
04040486
20B080B0
48420462
80826062
40400000
00000000
00000000
00000000
;
